<?xml version="1.0" standalone="no"?>
<!DOCTYPE svg PUBLIC "-//W3C//DTD SVG 1.1//EN" "http://www.w3.org/Graphics/SVG/1.1/DTD/svg11.dtd" >
<svg xmlns="http://www.w3.org/2000/svg" xmlns:xlink="http://www.w3.org/1999/xlink" version="1.1">
<metadata>
Created by FontForge 20170731 at Wed Feb 19 04:50:09 2014
 By Aleksey,,,
Copyright (c) 2014 by Rene' Bieder. All rights reserved.
</metadata>
<defs>
<font id="Campton-BoldItalic" horiz-adv-x="600" >
  <font-face 
    font-family="Campton Book"
    font-weight="700"
    font-style="italic"
    font-stretch="normal"
    units-per-em="1000"
    panose-1="0 0 8 0 0 0 0 0 0 0"
    ascent="800"
    descent="-200"
    x-height="485"
    cap-height="680"
    bbox="-93 -271 1527 972"
    underline-thickness="50"
    underline-position="-200"
    slope="-10"
    unicode-range="U+0020-FB02"
  />
<missing-glyph horiz-adv-x="870" 
d="M770 680v-680h-670v680h670zM700 610h-481l481 -481v481zM170 70h477l-477 477v-477z" />
    <glyph glyph-name="fi" unicode="fi" horiz-adv-x="730" 
d="M716 485l-85 -485h-163l61 346h-228l-61 -346h-162l61 346h-119l25 139h118l10 58q18 103 90 165t167 62q87 0 207 -42l-45 -138q-100 33 -153 33q-40 0 -68.5 -23t-35.5 -63l-9 -52h390z" />
    <glyph glyph-name="fl" unicode="fl" horiz-adv-x="725" 
d="M452 346h-151l-61 -346h-162l61 346h-119l25 139h118l10 58q19 104 89.5 165.5t164.5 61.5q61 0 126 -18l-46 -135q-40 9 -67 9q-41 0 -69.5 -22.5t-35.5 -63.5l-10 -55h152zM754 710l-126 -710h-162l126 710h162z" />
    <glyph glyph-name=".notdef" horiz-adv-x="870" 
d="M770 680v-680h-670v680h670zM700 610h-481l481 -481v481zM170 70h477l-477 477v-477z" />
    <glyph glyph-name=".null" horiz-adv-x="0" 
 />
    <glyph glyph-name="nonmarkingreturn" horiz-adv-x="333" 
 />
    <glyph glyph-name="space" unicode=" " horiz-adv-x="257" 
 />
    <glyph glyph-name="exclam" unicode="!" horiz-adv-x="296" 
d="M216 222h-142l66 458h170zM116 -11q-36 0 -61.5 24t-25.5 60t25.5 60t61.5 24t62 -24t26 -60t-26 -60t-62 -24z" />
    <glyph glyph-name="quotedbl" unicode="&#x22;" horiz-adv-x="368" 
d="M239 680l-53 -296h-131l53 296h131zM413 680l-53 -296h-131l53 296h131z" />
    <glyph glyph-name="numbersign" unicode="#" horiz-adv-x="793" 
d="M606 282h109l-24 -136h-152l-71 -146h-156l71 146h-135l-71 -146h-156l71 146h-86l24 136h129l48 100h-104l24 136h147l80 163h156l-80 -163h135l80 163h156l-80 -163h91l-24 -136h-133zM363 382l-48 -100h135l49 100h-136z" />
    <glyph glyph-name="dollar" unicode="$" horiz-adv-x="674" 
d="M663 469h-169q1 40 -22 63t-73 23q-49 0 -79.5 -20.5t-30.5 -56.5q0 -22 16.5 -34.5t51.5 -20.5l91 -22q84 -19 129 -57.5t45 -105.5q0 -105 -77 -172t-203 -78l-17 -98h-131l18 105q-86 18 -135 76t-44 155h169q1 -96 126 -96q52 0 79.5 18.5t27.5 49.5q0 37 -62 50
l-108 25q-171 38 -165 180q4 96 69 157t165 78l20 111h131l-19 -107q41 -5 76 -19t65.5 -39t45.5 -67.5t10 -97.5z" />
    <glyph glyph-name="percent" unicode="%" horiz-adv-x="1105" 
d="M329 695q77 0 125 -46.5t48 -121.5q0 -99 -72 -166t-172 -67q-77 0 -125 47t-48 122q0 99 72 165.5t172 66.5zM386 0h-109l454 680h109zM277 400q44 0 78 31.5t34 78.5q0 36 -22 58t-57 22q-44 0 -78.5 -31.5t-34.5 -78.5q0 -36 22.5 -58t57.5 -22zM870 386q78 0 126 -47
t48 -122q0 -99 -72.5 -165.5t-171.5 -66.5q-77 0 -125 46.5t-48 122.5q0 99 72 165.5t171 66.5zM819 90q45 0 79 32t34 79q0 36 -22.5 57.5t-57.5 21.5q-44 0 -78 -31t-34 -78q0 -36 22.5 -58.5t56.5 -22.5z" />
    <glyph glyph-name="ampersand" unicode="&#x26;" horiz-adv-x="744" 
d="M572 154l-5 -7l125 -147h-208l-36 41q-92 -56 -207 -56q-104 0 -165 50t-61 132q0 72 41 126t110 87q-24 46 -24 90q0 92 75.5 158.5t189.5 66.5q100 0 150 -57.5t41 -156.5h-152q2 36 -13 56t-45 20q-32 0 -54.5 -21t-22.5 -54q0 -25 17 -50t59 -73l93 -110l94 118h165z
M269 121q43 0 88 21l-90 101l-31 36q-61 -32 -61 -84q0 -31 26.5 -52.5t67.5 -21.5z" />
    <glyph glyph-name="quotesingle" unicode="'" horiz-adv-x="194" 
d="M239 680l-53 -296h-131l53 296h131z" />
    <glyph glyph-name="parenleft" unicode="(" horiz-adv-x="411" 
d="M337 738l105 -118q-69 -61 -106 -100t-69.5 -97t-44.5 -125q-17 -99 7.5 -177.5t87.5 -162.5l-130 -111q-89 97 -123.5 214.5t-12.5 242.5q22 126 92 231t194 203z" />
    <glyph glyph-name="parenright" unicode=")" horiz-adv-x="410" 
d="M111 627l131 111q181 -200 135 -457q-21 -125 -91 -230t-195 -204l-104 118q69 62 105.5 100.5t69.5 96.5t45 126q17 99 -7.5 177.5t-88.5 161.5z" />
    <glyph glyph-name="asterisk" unicode="*" horiz-adv-x="412" 
d="M415 608l22 -81l-100 -25l68 -68l-60 -59l-68 68l-26 -100l-80 21l26 103l-103 -26l-23 81l101 25l-67 67l60 59l66 -66l25 101l82 -22l-26 -103z" />
    <glyph glyph-name="plus" unicode="+" horiz-adv-x="671" 
d="M405 264l-29 -164h-133l29 164h-171l22 128h172l28 164h133l-29 -164h172l-22 -128h-172z" />
    <glyph glyph-name="comma" unicode="," horiz-adv-x="234" 
d="M-26 -113l75 111q-51 22 -51 73q0 35 26.5 60t63.5 25q38 0 64 -24.5t26 -61.5q0 -47 -56 -113l-58 -70h-90z" />
    <glyph glyph-name="hyphen" unicode="-" horiz-adv-x="556" 
d="M447 181l27 154h-361l-27 -154h361z" />
    <glyph glyph-name="period" unicode="." horiz-adv-x="235" 
d="M87 -18q-37 0 -63.5 25.5t-26.5 62.5q0 36 26.5 61.5t63.5 25.5q38 0 65 -25.5t27 -61.5q0 -37 -27 -62.5t-65 -25.5z" />
    <glyph glyph-name="slash" unicode="/" horiz-adv-x="431" 
d="M98 -160h-155l408 890h155z" />
    <glyph glyph-name="zero" unicode="0" horiz-adv-x="717" 
d="M437 695q124 0 192 -79t68 -211q0 -177 -109 -298.5t-277 -121.5q-124 0 -192 79t-68 212q0 177 108.5 298t277.5 121zM338 132q89 0 142.5 76t53.5 186q0 68 -31.5 111t-91.5 43q-90 0 -143.5 -76t-53.5 -186q0 -68 32 -111t92 -43z" />
    <glyph glyph-name="one" unicode="1" horiz-adv-x="531" 
d="M495 137l-25 -137h-491l25 137h169l66 365l-169 -45l26 146l235 77h101l-96 -543h159z" />
    <glyph glyph-name="two" unicode="2" horiz-adv-x="572" 
d="M265 137h239l-24 -137h-485l14 80l251 251q14 13 36.5 35t32 31.5t23.5 24.5t19 24.5t9.5 21t4.5 22.5q0 24 -15.5 40.5t-47.5 16.5q-38 0 -64.5 -22t-35.5 -60h-159q21 104 95.5 167t188.5 63q101 0 158 -51.5t57 -129.5q0 -31 -7.5 -55t-34 -58.5t-53.5 -63t-90 -90.5z
" />
    <glyph glyph-name="three" unicode="3" horiz-adv-x="578" 
d="M474 340q63 -40 63 -116q0 -110 -76 -174.5t-211 -64.5q-109 0 -170.5 58.5t-57.5 155.5h157q3 -78 90 -78q47 0 78.5 25t31.5 62q0 31 -24.5 49t-64.5 18h-59l22 124h59l-4 -21l4 21q44 0 74 26t30 65q0 29 -19.5 46.5t-52.5 17.5q-82 0 -103 -79h-157q23 99 96.5 156.5
t184.5 57.5q94 0 149 -48t55 -126q0 -117 -95 -175z" />
    <glyph glyph-name="four" unicode="4" horiz-adv-x="656" 
d="M603 120h-85l-21 -120h-159l21 120h-346l18 105l265 455h162l-233 -419h159l33 187h159l-33 -187h85z" />
    <glyph glyph-name="five" unicode="5" horiz-adv-x="611" 
d="M290 536l-17 -94h84q98 0 152.5 -51.5t54.5 -134.5q0 -116 -88 -193.5t-219 -77.5q-113 0 -173 58t-57 156h159q4 -36 28 -57t68 -21q52 0 88.5 31.5t36.5 77.5q0 35 -26.5 56.5t-74.5 21.5h-212l66 372h450l-26 -144h-294z" />
    <glyph glyph-name="six" unicode="6" horiz-adv-x="624" 
d="M542 680l-165 -203q98 -6 156 -63.5t58 -142.5q0 -119 -92.5 -202.5t-230.5 -83.5q-108 0 -171 60.5t-63 153.5q0 52 22 96.5t69 103.5l227 281h190zM291 120q57 0 97.5 38.5t40.5 87.5q0 39 -26.5 67t-71.5 28q-48 0 -84 -24l-5 -6q-30 -33 -39.5 -52.5t-9.5 -43.5
q0 -39 27 -67t71 -28z" />
    <glyph glyph-name="seven" unicode="7" horiz-adv-x="524" 
d="M588 680l-17 -95l-364 -585h-183l332 529h-291l27 151h496z" />
    <glyph glyph-name="eight" unicode="8" horiz-adv-x="623" 
d="M495 359q83 -47 83 -136q0 -105 -86.5 -171.5t-229.5 -66.5q-114 0 -177 49t-63 131q0 66 37 117t103 80q-59 42 -59 113q0 95 82 157.5t203 62.5q97 0 155.5 -47t58.5 -122q0 -110 -107 -167zM366 573q-46 0 -78 -28t-32 -68q0 -31 22 -51.5t58 -20.5q46 0 78 28.5
t32 67.5q0 31 -22 51.5t-58 20.5zM285 117q49 0 84.5 30.5t35.5 72.5q0 33 -24.5 54.5t-63.5 21.5q-50 0 -84.5 -29t-34.5 -72q0 -34 24 -56t63 -22z" />
    <glyph glyph-name="nine" unicode="9" horiz-adv-x="624" 
d="M395 695q108 0 171 -60.5t63 -153.5q0 -52 -22 -96.5t-69 -103.5l-227 -281h-190l165 203q-98 6 -156 63.5t-58 142.5q0 119 92.5 202.5t230.5 83.5zM416 363l5 6q30 33 39.5 52.5t9.5 43.5q0 39 -27 67t-71 28q-57 0 -97.5 -38.5t-40.5 -87.5q0 -39 26.5 -67t71.5 -28
q48 0 84 24z" />
    <glyph glyph-name="colon" unicode=":" horiz-adv-x="235" 
d="M146 322q-37 0 -63.5 25t-26.5 63q0 36 26.5 61t63.5 25q38 0 65 -25t27 -61q0 -38 -27 -63t-65 -25zM86 -18q-38 0 -64.5 25.5t-26.5 62.5t26.5 62t64.5 25t64.5 -25t26.5 -62t-26.5 -62.5t-64.5 -25.5z" />
    <glyph glyph-name="semicolon" unicode=";" horiz-adv-x="235" 
d="M147 322q-38 0 -64.5 25t-26.5 63q0 36 26.5 61t64.5 25t64.5 -25t26.5 -61q0 -38 -26.5 -63t-64.5 -25zM-26 -113l75 111q-51 22 -51 73q0 35 26 60t63 25q38 0 64.5 -25t26.5 -61q0 -46 -56 -113l-58 -70h-90z" />
    <glyph glyph-name="less" unicode="&#x3c;" horiz-adv-x="524" 
d="M62 380l455 190l-26 -154l-278 -116l237 -112l-26 -145l-388 190z" />
    <glyph glyph-name="equal" unicode="=" horiz-adv-x="678" 
d="M600 361h-482l22 128h482zM563 154h-482l23 128h482z" />
    <glyph glyph-name="greater" unicode="&#x3e;" horiz-adv-x="524" 
d="M484 233l-455 -190l26 154l279 116l-238 112l26 145l388 -190z" />
    <glyph glyph-name="question" unicode="?" horiz-adv-x="539" 
d="M342 689q102 0 159 -54.5t51 -145.5q-4 -86 -67 -142.5t-163 -69.5l-15 -58h-123l19 163h81q49 0 83 28t34 73q0 32 -20.5 51.5t-55.5 19.5q-39 0 -67 -21.5t-38 -57.5h-158q24 99 98 156.5t182 57.5zM216 157q36 0 62 -24t26 -60t-26 -60t-62 -24t-61.5 24t-25.5 60
t25.5 60t61.5 24z" />
    <glyph glyph-name="at" unicode="@" horiz-adv-x="970" 
d="M569 673q164 0 266 -98.5t102 -251.5q0 -58 -13.5 -109t-40 -93.5t-72 -67.5t-104.5 -25q-103 0 -135 65q-71 -63 -158 -63q-74 0 -121 50t-47 127q0 101 73 173t170 72q63 0 107 -34l4 24h138l-43 -242q-12 -70 36 -70q49 0 74 52t25 129q0 116 -75.5 189t-200.5 73
q-105 0 -199 -52t-151.5 -140.5t-57.5 -189.5q0 -121 80 -200.5t204 -79.5q122 0 226 73l43 -87q-130 -87 -286 -87q-164 0 -270.5 104.5t-106.5 264.5q0 134 75.5 248.5t198 180t259.5 65.5zM463 145q54 0 96 46q1 18 7 54l8 49q-28 44 -77 44q-43 0 -77.5 -31.5
t-34.5 -81.5q0 -36 22.5 -58t55.5 -22z" />
    <glyph glyph-name="A" unicode="A" horiz-adv-x="763" 
d="M502 117h-283l-66 -117h-185l410 684h162l167 -684h-180zM472 261l-47 219l-124 -219h171z" />
    <glyph glyph-name="B" unicode="B" horiz-adv-x="700" 
d="M555 349q48 -12 73.5 -49t25.5 -87q0 -92 -76.5 -152.5t-202.5 -60.5h-356l120 680h329q96 0 154 -42.5t58 -112.5q0 -57 -35.5 -108t-89.5 -68zM284 542l-25 -139h140q52 0 82.5 23t30.5 60q0 56 -86 56h-142zM213 140h163q56 0 85.5 22.5t29.5 56.5q0 55 -83 55h-172z
" />
    <glyph glyph-name="C" unicode="C" horiz-adv-x="785" 
d="M452 536q-84 0 -146 -55.5t-77 -140.5q-14 -87 28.5 -141.5t125.5 -54.5q60 0 114.5 38.5t77.5 99.5h174q-39 -133 -147 -214.5t-245 -81.5q-155 0 -240.5 100t-58.5 254q27 153 148 253.5t276 100.5q138 0 216.5 -81.5t70.5 -214.5h-173q-3 65 -40 101.5t-104 36.5z" />
    <glyph glyph-name="D" unicode="D" horiz-adv-x="745" 
d="M139 680h273q142 0 227.5 -79t85.5 -207q0 -169 -126 -281.5t-307 -112.5h-273zM215 152h104q93 0 162.5 64t69.5 153q0 69 -46 114t-119 45h-105z" />
    <glyph glyph-name="E" unicode="E" horiz-adv-x="617" 
d="M273 533l-22 -124h302l-25 -144h-302l-21 -118h345l-26 -147h-514l120 680h514l-26 -147h-345z" />
    <glyph glyph-name="F" unicode="F" horiz-adv-x="604" 
d="M282 531l-26 -144h292l-25 -147h-293l-42 -240h-169l120 680h508l-26 -149h-339z" />
    <glyph glyph-name="G" unicode="G" horiz-adv-x="803" 
d="M409 382h365l-8 -43l-60 -339h-126l7 82q-94 -96 -231 -96q-158 0 -243 99.5t-59 247.5q28 158 150 259.5t278 101.5q128 0 209 -68.5t85 -187.5h-171q-19 105 -144 105q-88 0 -153 -58.5t-81 -151.5q-15 -80 29.5 -135t133.5 -55q120 0 190 104l-194 2z" />
    <glyph glyph-name="H" unicode="H" horiz-adv-x="738" 
d="M753 680l-120 -680h-168l45 255h-277l-45 -255h-169l120 680h169l-48 -273h277l48 273h168z" />
    <glyph glyph-name="I" unicode="I" horiz-adv-x="292" 
d="M188 0h-169l120 680h169z" />
    <glyph glyph-name="J" unicode="J" horiz-adv-x="620" 
d="M648 680l-72 -408q-25 -140 -112 -213.5t-215 -73.5q-119 0 -183.5 69.5t-48.5 186.5h168q-5 -48 16 -75t70 -27q50 0 86.5 36t47.5 97l72 408h171z" />
    <glyph glyph-name="K" unicode="K" horiz-adv-x="736" 
d="M467 382l214 -382h-206l-146 250l-117 -112l-24 -138h-169l120 680h169l-52 -294l309 294h214z" />
    <glyph glyph-name="L" unicode="L" horiz-adv-x="601" 
d="M551 149l-27 -149h-505l120 680h169l-94 -531h337z" />
    <glyph glyph-name="M" unicode="M" horiz-adv-x="856" 
d="M873 680l-120 -680h-169l59 336l-191 -228v-1h-94v1l-110 235l-60 -343h-169l120 680h126l175 -360l307 360h126z" />
    <glyph glyph-name="N" unicode="N" horiz-adv-x="747" 
d="M764 680l-120 -680h-130l-260 377l-66 -377h-169l120 680h117l270 -392l70 392h168z" />
    <glyph glyph-name="O" unicode="O" horiz-adv-x="806" 
d="M480 694q137 0 222 -85.5t85 -215.5q0 -109 -59.5 -203.5t-157.5 -149t-209 -54.5q-137 0 -222 85.5t-85 215.5q0 109 59.5 203.5t157.5 149t209 54.5zM383 145q91 0 161 68t69 161q-1 69 -42 115t-115 46q-93 0 -161 -68t-67 -160q1 -69 42 -115.5t113 -46.5z" />
    <glyph glyph-name="P" unicode="P" horiz-adv-x="660" 
d="M139 680h264q119 0 189 -56.5t70 -158.5q0 -128 -98 -210t-254 -82h-91l-31 -173h-169zM245 321h101q63 0 104 35t41 87q0 42 -28.5 65t-78.5 23h-102z" />
    <glyph glyph-name="Q" unicode="Q" horiz-adv-x="806" 
d="M787 393q0 -97 -47 -182t-128 -143l108 -127l-120 -109l-141 166q-48 -12 -98 -12q-137 0 -222 85.5t-85 215.5q0 109 59.5 203.5t157.5 149t209 54.5q137 0 222 -85.5t85 -215.5zM228 307q1 -69 42 -115.5t113 -46.5q90 0 160 68t69 161q0 69 -41.5 115t-115.5 46
q-93 0 -160.5 -68t-66.5 -160z" />
    <glyph glyph-name="R" unicode="R" horiz-adv-x="699" 
d="M680 476q0 -81 -46 -146.5t-124 -100.5l133 -229h-197l-111 197h-112l-35 -197h-169l120 680h284q119 0 188 -54t69 -150zM250 349h125q54 0 94 29.5t40 73.5q0 37 -28.5 58t-73.5 21h-125z" />
    <glyph glyph-name="S" unicode="S" horiz-adv-x="674" 
d="M413 695q36 0 70 -5.5t70 -21.5t61 -40t39.5 -65t9.5 -94h-169q1 40 -22 63t-73 23q-49 0 -79.5 -20.5t-30.5 -56.5q0 -22 16.5 -34.5t51.5 -20.5l91 -22q84 -19 129 -57.5t45 -105.5q0 -114 -90 -183t-234 -69q-122 0 -196.5 60t-68.5 180h169q1 -96 126 -96
q52 0 79.5 18.5t27.5 49.5q0 37 -62 50l-108 25q-171 38 -165 180q4 115 95 178.5t218 63.5z" />
    <glyph glyph-name="T" unicode="T" horiz-adv-x="648" 
d="M675 529h-217l-93 -529h-169l93 529h-216l27 151h602z" />
    <glyph glyph-name="U" unicode="U" horiz-adv-x="731" 
d="M760 680l-64 -363q-29 -163 -123.5 -247.5t-249.5 -84.5q-145 0 -215.5 91.5t-44.5 240.5l64 363h170l-65 -366q-14 -79 16 -125t100 -46q67 0 115 46.5t62 124.5l65 366h170z" />
    <glyph glyph-name="V" unicode="V" horiz-adv-x="780" 
d="M845 680l-415 -684h-171l-174 684h178l113 -462l278 462h191z" />
    <glyph glyph-name="W" unicode="W" horiz-adv-x="1074" 
d="M1133 680l-341 -684h-163l-62 409l-212 -409h-164l-98 684h177l52 -413l221 413h140l69 -417l199 417h182z" />
    <glyph glyph-name="X" unicode="X" horiz-adv-x="690" 
d="M474 334l169 -334h-194l-110 209l-176 -209h-201l283 340l-161 340h204l94 -204l167 204h210z" />
    <glyph glyph-name="Y" unicode="Y" horiz-adv-x="714" 
d="M434 205l-35 -205h-170l36 206l-185 474h184l111 -286l212 286h200z" />
    <glyph glyph-name="Z" unicode="Z" horiz-adv-x="653" 
d="M675 600l-397 -451h323l-25 -149h-589l13 80l412 451h-315l25 149h566z" />
    <glyph glyph-name="bracketleft" unicode="[" horiz-adv-x="405" 
d="M183 5h145l-27 -152h-307l154 877h308l-27 -151h-145z" />
    <glyph glyph-name="backslash" unicode="\" horiz-adv-x="431" 
d="M167 730l252 -890h-155l-252 890h155z" />
    <glyph glyph-name="bracketright" unicode="]" horiz-adv-x="403" 
d="M239 579h-145l27 151h307l-154 -877h-308l27 152h145z" />
    <glyph glyph-name="asciicircum" unicode="^" horiz-adv-x="438" 
d="M451 435h-141l-39 123l-83 -123h-141l182 245h126z" />
    <glyph glyph-name="underscore" unicode="_" horiz-adv-x="623" 
d="M-32 -91h568l-24 -137h-568z" />
    <glyph glyph-name="grave" unicode="`" 
d="M406 557h-151l-100 160h171z" />
    <glyph glyph-name="a" unicode="a" horiz-adv-x="621" 
d="M612 485l-85 -485h-163l5 27q-64 -37 -139 -37q-89 0 -144.5 59t-55.5 154q0 121 88.5 207t201.5 86q74 0 126 -36l4 25h162zM286 123q60 0 108 44l27 152q-33 45 -92 45q-56 0 -97 -41.5t-41 -98.5q0 -45 26.5 -73t68.5 -28z" />
    <glyph glyph-name="b" unicode="b" horiz-adv-x="621" 
d="M392 494q87 0 143.5 -60.5t56.5 -152.5q0 -120 -88.5 -206.5t-201.5 -86.5q-74 0 -126 36l-4 -24h-162l125 710h162l-44 -252q65 36 139 36zM293 121q56 0 97 41.5t41 98.5q0 43 -26 72t-69 29q-60 0 -108 -45l-27 -152q31 -44 92 -44z" />
    <glyph glyph-name="c" unicode="c" horiz-adv-x="576" 
d="M317 359q-51 0 -87 -32.5t-44 -83.5q-10 -53 14.5 -85t75.5 -32q37 0 66.5 20t41.5 53h153q-25 -93 -105 -151.5t-181 -58.5q-118 0 -179 70t-41 184q19 110 107 181.5t203 71.5q101 0 160 -58.5t52 -151.5h-153q-1 33 -23.5 53t-59.5 20z" />
    <glyph glyph-name="d" unicode="d" horiz-adv-x="622" 
d="M652 710l-126 -710h-162l4 24q-65 -36 -138 -36q-87 0 -144 60.5t-57 153.5q0 120 88.5 206t201.5 86q74 0 126 -36l44 252h163zM285 121q61 0 108 44l27 152q-32 45 -92 45q-56 0 -97 -41.5t-41 -98.5q0 -44 26 -72.5t69 -28.5z" />
    <glyph glyph-name="e" unicode="e" horiz-adv-x="569" 
d="M332 496q108 0 166.5 -67t41.5 -176q-2 -12 -5 -24l-5.5 -22t-2.5 -12h-343q5 -35 28.5 -56t64.5 -21q52 0 77 34h163q-30 -75 -100.5 -119t-162.5 -44q-117 0 -179 72t-43 182t103.5 181.5t196.5 71.5zM315 373q-82 0 -117 -83h199q4 83 -82 83z" />
    <glyph glyph-name="f" unicode="f" horiz-adv-x="456" 
d="M439 626q-40 0 -68.5 -22.5t-35.5 -63.5l-10 -55h172l-25 -139h-171l-61 -346h-162l61 346h-119l25 139h118l10 58q18 104 89 165.5t165 61.5q60 0 125 -18l-45 -135q-41 9 -68 9z" />
    <glyph glyph-name="g" unicode="g" horiz-adv-x="622" 
d="M612 485l-84 -477q-20 -113 -100.5 -176.5t-198.5 -63.5q-106 0 -169 58t-60 152h161q-1 -34 22 -53.5t67 -19.5q43 0 75 26t40 74l8 47q-64 -35 -138 -35q-88 0 -145.5 58.5t-57.5 144.5q0 118 87.5 200t200.5 82q75 0 127 -36l3 19h162zM290 146q60 0 108 45l23 133
q-30 46 -92 46q-56 0 -96 -38t-40 -92q0 -38 27 -66t70 -28z" />
    <glyph glyph-name="h" unicode="h" horiz-adv-x="604" 
d="M399 500q93 0 139 -60t28 -163l-48 -277h-163l44 251q9 50 -10 76t-60 26q-47 0 -97 -48l-54 -305h-162l125 710h162l-45 -257q69 47 141 47z" />
    <glyph glyph-name="i" unicode="i" horiz-adv-x="289" 
d="M217 561q-40 0 -67.5 26t-27.5 65t27.5 65.5t67.5 26.5q39 0 67 -26.5t28 -65.5t-28 -65t-67 -26zM271 485l-85 -485h-163l86 485h162z" />
    <glyph glyph-name="j" unicode="j" horiz-adv-x="271" 
d="M217 561q-40 0 -67.5 26t-27.5 65t27.5 65.5t67.5 26.5q39 0 67 -26.5t28 -65.5t-28 -65t-67 -26zM266 485l-79 -446q-21 -120 -82 -178.5t-198 -61.5l9 135q54 8 76 25t29 59l83 467h162z" />
    <glyph glyph-name="k" unicode="k" horiz-adv-x="598" 
d="M398 287l148 -287h-194l-86 168l-80 -73l-17 -95h-162l126 710h162l-72 -407l200 182h194z" />
    <glyph glyph-name="l" unicode="l" horiz-adv-x="269" 
d="M299 710l-126 -710h-163l126 710h163z" />
    <glyph glyph-name="m" unicode="m" horiz-adv-x="907" 
d="M701 500q88 0 134 -60.5t28 -162.5l-48 -277h-163l44 251q10 50 -8.5 76t-59.5 26t-82 -41q0 -11 -4 -35l-49 -277h-162l44 251q18 102 -69 102q-40 0 -79 -42l-55 -311h-162l85 485h162l-5 -28q57 43 128 43q94 0 137 -65q87 65 184 65z" />
    <glyph glyph-name="n" unicode="n" horiz-adv-x="604" 
d="M393 500q93 0 139 -60t28 -163l-48 -277h-163l44 251q9 50 -10 76t-60 26q-47 0 -98 -48l-53 -305h-162l85 485h162l-6 -32q71 47 142 47z" />
    <glyph glyph-name="o" unicode="o" horiz-adv-x="592" 
d="M341 496q101 0 161.5 -60t60.5 -154q0 -124 -91.5 -210.5t-220.5 -86.5q-101 0 -161.5 61t-60.5 156q0 124 91 209t221 85zM277 125q55 0 93 40t38 95q-1 42 -25.5 69t-66.5 27q-56 0 -94 -39.5t-38 -94.5q1 -42 26 -69.5t67 -27.5z" />
    <glyph glyph-name="p" unicode="p" horiz-adv-x="622" 
d="M393 496q88 0 144.5 -60.5t56.5 -152.5q0 -122 -86.5 -207.5t-203.5 -85.5q-75 0 -126 37l-44 -252h-163l126 710h162l-4 -25q64 36 138 36zM295 123q56 0 97 41.5t41 97.5q0 44 -26 73t-69 29q-60 0 -108 -45l-27 -151q31 -45 92 -45z" />
    <glyph glyph-name="q" unicode="q" horiz-adv-x="618" 
d="M608 485l-125 -710h-162l44 252q-64 -37 -139 -37q-87 0 -143.5 60.5t-56.5 152.5q0 121 88.5 207t201.5 86q74 0 126 -36l4 25h162zM282 123q61 0 108 44l27 152q-33 45 -92 45q-56 0 -97 -41.5t-41 -98.5q0 -44 26 -72.5t69 -28.5z" />
    <glyph glyph-name="r" unicode="r" horiz-adv-x="407" 
d="M426 493l-27 -154q-111 -4 -178 -62l-49 -277h-162l85 485h162l-9 -53q79 61 178 61z" />
    <glyph glyph-name="s" unicode="s" horiz-adv-x="517" 
d="M10 167l145 -1q-1 -31 20.5 -46t60.5 -15q76 0 76 38q0 23 -42 30l-94 17q-55 9 -87.5 40t-32.5 81q0 86 69.5 136.5t178.5 50.5q90 0 149 -40t49 -128h-145q2 27 -17 40.5t-54 13.5q-32 0 -50.5 -11t-18.5 -28q0 -26 44 -34l88 -15q128 -27 128 -124q0 -90 -73.5 -138.5
t-185.5 -48.5q-100 0 -157 45t-51 137z" />
    <glyph glyph-name="t" unicode="t" horiz-adv-x="465" 
d="M283 346l-25 -139q-13 -73 56 -73q26 0 95 13l-6 -138q-79 -24 -146 -24q-88 0 -133.5 61t-28.5 156l25 144h-94l24 139h95l29 165h163l-29 -165h164l-24 -139h-165z" />
    <glyph glyph-name="u" unicode="u" horiz-adv-x="609" 
d="M594 485l-86 -485h-162l6 32q-68 -47 -142 -47q-93 0 -139 60.5t-27 162.5l48 277h162l-44 -252q-9 -50 10 -76t60 -26q47 0 98 48l54 306h162z" />
    <glyph glyph-name="v" unicode="v" horiz-adv-x="593" 
d="M626 485l-287 -485h-162l-125 485h171l67 -280l163 280h173z" />
    <glyph glyph-name="w" unicode="w" horiz-adv-x="802" 
d="M835 485l-242 -485h-157l-33 252l-123 -252h-147l-81 485h170l29 -259l128 259h129l37 -258l120 258h170z" />
    <glyph glyph-name="x" unicode="x" horiz-adv-x="568" 
d="M389 242l128 -242h-179l-72 139l-119 -139h-181l212 242l-127 243h185l68 -128l110 128h188z" />
    <glyph glyph-name="y" unicode="y" horiz-adv-x="640" 
d="M664 485l-423 -709h-176l134 224l-142 485h171l85 -294l176 294h175z" />
    <glyph glyph-name="z" unicode="z" horiz-adv-x="508" 
d="M509 399l-267 -265h220l-24 -134h-453l15 79l273 271h-222l24 135h449z" />
    <glyph glyph-name="braceleft" unicode="{" horiz-adv-x="368" 
d="M317 538l-20 -117q-10 -55 -30 -84t-69 -44q44 -15 55 -45.5t-1 -79.5l-20 -117q-5 -23 13 -38t51 -15l-27 -151q-107 0 -162 52.5t-39 141.5l23 132q7 38 -7 47t-62 9l22 128q48 0 65.5 9t24.5 47l23 135q16 89 89 141.5t180 52.5l-26 -151q-33 0 -55.5 -15t-27.5 -38z
" />
    <glyph glyph-name="bar" unicode="|" horiz-adv-x="266" 
d="M292 730l-157 -890h-144l157 890h144z" />
    <glyph glyph-name="braceright" unicode="}" horiz-adv-x="367" 
d="M69 51l20 117q10 55 30 84t69 44q-44 15 -55 45.5t1 79.5l20 117q5 23 -13 38t-51 15l27 151q107 0 162 -52.5t39 -141.5l-23 -132q-7 -38 7 -47t62 -9l-22 -128q-48 0 -65.5 -9t-24.5 -47l-23 -135q-16 -89 -89 -141.5t-180 -52.5l26 151q33 0 55.5 15t27.5 38z" />
    <glyph glyph-name="asciitilde" unicode="~" horiz-adv-x="473" 
d="M338 418h137q0 -60 -22.5 -101t-56 -56.5t-71 -14.5t-68.5 19l-43 26q-26 12 -35.5 3t-9.5 -31h-138q0 60 22.5 100.5t56.5 56t71 14.5t69 -19l42 -25q26 -12 36 -3t10 31z" />
    <glyph glyph-name="exclamdown" unicode="&#xa1;" horiz-adv-x="296" 
d="M175 499q36 0 61.5 -24t25.5 -60t-25.5 -60t-61.5 -24t-62 24t-26 60t26 60t62 24zM76 266h142l-67 -458h-170z" />
    <glyph glyph-name="cent" unicode="&#xa2;" horiz-adv-x="576" 
d="M317 359q-51 0 -87 -32.5t-45 -83.5h1q-9 -53 15 -85t75 -32q37 0 66.5 20t42.5 53h153q-22 -79 -84 -134t-144 -70l-17 -99h-131l18 101q-85 20 -125 85.5t-23 160.5h-1q16 91 80.5 157t154.5 87l21 119h131l-21 -116q77 -15 119.5 -70t35.5 -134h-153q0 33 -22.5 53
t-59.5 20z" />
    <glyph glyph-name="sterling" unicode="&#xa3;" horiz-adv-x="617" 
d="M390 552q-43 0 -74 -27.5t-39 -74.5l-10 -55h182l-22 -126h-182l-23 -130h335l-26 -139h-550l25 139h55l23 130h-55l22 126h55l10 55q19 110 101 176t197 66q107 0 165.5 -58t50.5 -158h-162q-2 36 -22 56t-56 20z" />
    <glyph glyph-name="yen" unicode="&#xa5;" horiz-adv-x="714" 
d="M519 318h119l-19 -105h-178l-7 -8l-5 -34h183l-19 -105h-183l-11 -66h-170l11 66h-174l19 105h174l6 35l-3 7h-170l19 105h110l-141 362h184l111 -286l212 286h200z" />
    <glyph glyph-name="brokenbar" unicode="&#xa6;" horiz-adv-x="266" 
d="M223 336h-144l69 394h144zM135 -160h-144l70 394h144z" />
    <glyph glyph-name="section" unicode="&#xa7;" horiz-adv-x="561" 
d="M556 491h-164q3 29 -10.5 46.5t-45.5 17.5q-26 0 -43.5 -13.5t-17.5 -35.5q0 -28 34 -43l105 -51q119 -56 119 -148q0 -101 -96 -155q15 -31 15 -69q0 -91 -71 -146.5t-177 -55.5q-100 0 -154 54t-45 146h164q-3 -29 11 -46.5t45 -17.5q27 0 43.5 13.5t16.5 35.5
q0 29 -32 43l-106 50q-118 56 -118 148q0 103 96 155q-16 32 -16 70q0 90 70.5 145.5t177.5 55.5q100 0 154 -53.5t45 -145.5zM324 287l-105 50q-16 -4 -25.5 -16.5t-9.5 -26.5q0 -28 53 -53l106 -50q34 12 34 43q0 28 -53 53z" />
    <glyph glyph-name="dieresis" unicode="&#xa8;" 
d="M216 723q37 0 62.5 -24.5t25.5 -60.5t-25.5 -60.5t-62.5 -24.5q-38 0 -63.5 24t-25.5 61q0 36 25.5 60.5t63.5 24.5zM438 723q37 0 63 -24.5t26 -60.5t-26 -60.5t-63 -24.5t-63 24.5t-26 60.5t26 60.5t63 24.5z" />
    <glyph glyph-name="copyright" unicode="&#xa9;" horiz-adv-x="815" 
d="M419 695q150 0 257 -102t107 -253t-107 -253t-257 -102t-257 102t-107 253t107 253t257 102zM418 75q110 0 190 77t80 188t-80 188t-190 77q-109 0 -189 -77t-80 -188t80 -188t189 -77zM420 404q-29 0 -47 -18.5t-18 -46.5q0 -27 18 -46t47 -19q20 0 35.5 10.5t21.5 26.5
h106q-8 -59 -53.5 -96t-109.5 -37q-73 0 -120.5 46t-47.5 115q0 70 47.5 116t120.5 46q65 0 110 -37t53 -97h-106q-13 37 -57 37z" />
    <glyph glyph-name="ordfeminine" unicode="&#xaa;" horiz-adv-x="359" 
d="M258 685q70 0 106 -37.5t25 -102.5l-34 -194h-107l2 12q-38 -18 -82 -18q-55 0 -87 24t-32 65q0 52 40 81.5t107 29.5h86q11 54 -39 54q-46 0 -55 -37h-105q13 61 63 92t112 31zM197 429q33 0 68 19l6 33h-82q-34 0 -34 -25q0 -11 10.5 -19t31.5 -8z" />
    <glyph glyph-name="guillemotleft" unicode="&#xab;" horiz-adv-x="487" 
d="M287 413l-124 -167l67 -155h-144l-67 161l124 161h144zM490 413l-124 -167l67 -155h-144l-67 161l124 161h144z" />
    <glyph glyph-name="registered" unicode="&#xae;" horiz-adv-x="557" 
d="M310 692q106 0 180.5 -71.5t74.5 -177.5q0 -105 -75 -176.5t-180 -71.5t-180 71.5t-75 176.5q0 106 74.5 177.5t180.5 71.5zM309 267q73 0 126.5 51t53.5 125t-53 125.5t-127 51.5q-73 0 -126 -51.5t-53 -125.5q0 -73 53 -124.5t126 -51.5zM406 476q0 -39 -35 -59l45 -68
h-71l-33 55h-25v-55h-59v202h91q40 0 63.5 -20.5t23.5 -54.5zM287 453h31q27 0 27 24q0 23 -27 23h-31v-47z" />
    <glyph glyph-name="macron" unicode="&#xaf;" 
d="M476 686l-22 -116h-286l21 116h287z" />
    <glyph glyph-name="degree" unicode="&#xb0;" horiz-adv-x="462" 
d="M278 695q76 0 127.5 -49t51.5 -125t-51.5 -125t-127.5 -49q-77 0 -128 49t-51 125t51 125t128 49zM278 451q29 0 50 20.5t21 49.5q0 30 -21 50t-50 20q-30 0 -51 -20t-21 -50q0 -29 21.5 -49.5t50.5 -20.5z" />
    <glyph glyph-name="plusminus" unicode="&#xb1;" horiz-adv-x="671" 
d="M587 324h-171l-22 -123h-133l22 123h-172l23 128h171l22 124h133l-22 -124h171zM558 162l-22 -128h-476l23 128h475z" />
    <glyph glyph-name="twosuperior" unicode="&#xb2;" horiz-adv-x="373" 
d="M239 375h127l-17 -97h-311l10 57l167 156q38 36 49 49t11 28q0 26 -30 26q-42 0 -50 -41h-111q13 66 60 105.5t119 39.5q64 0 100 -31t36 -78q0 -34 -18.5 -64.5t-83.5 -93.5z" />
    <glyph glyph-name="threesuperior" unicode="&#xb3;" horiz-adv-x="384" 
d="M344 486q35 -24 35 -68q0 -63 -49.5 -105t-129.5 -42q-71 0 -109.5 36.5t-35.5 99.5h112q4 -39 46 -39q24 0 39 12t15 30q0 30 -51 30l3 15l-3 -15h-33l15 88h33q26 0 41.5 12t15.5 31q0 30 -36 30q-38 0 -49 -40h-112q15 64 61.5 100t115.5 36q60 0 94.5 -30t34.5 -79
q0 -68 -53 -102z" />
    <glyph glyph-name="acute" unicode="&#xb4;" 
d="M513 717l-128 -160h-151l108 160h171z" />
    <glyph glyph-name="paragraph" unicode="&#xb6;" horiz-adv-x="770" 
d="M714 680v-840h-146v716h-71v-716h-147v363h-72q-110 0 -184 68.5t-74 177.5q0 103 73.5 167t184.5 64h436zM350 556h-72q-53 0 -85.5 -29.5t-32.5 -78.5q0 -52 32.5 -83.5t85.5 -31.5h72v223z" />
    <glyph glyph-name="periodcentered" unicode="&#xb7;" horiz-adv-x="235" 
d="M121 189q-37 0 -63.5 25t-26.5 62t26.5 62t63.5 25q38 0 65 -25t27 -62t-27 -62t-65 -25z" />
    <glyph glyph-name="cedilla" unicode="&#xb8;" 
d="M265 -228h-138l87 177h155z" />
    <glyph glyph-name="onesuperior" unicode="&#xb9;" horiz-adv-x="341" 
d="M353 378l-17 -97h-311l16 97h103l34 192l-102 -27l18 103l149 46h67l-55 -314h98z" />
    <glyph glyph-name="ordmasculine" unicode="&#xba;" horiz-adv-x="390" 
d="M273 687q67 0 108 -40.5t41 -103.5q0 -83 -61 -140.5t-148 -57.5q-67 0 -107.5 40.5t-40.5 104.5q0 82 61.5 139.5t146.5 57.5zM230 440q35 0 60 26.5t25 62.5q0 26 -15.5 43.5t-42.5 17.5q-36 0 -61 -25.5t-25 -60.5q0 -28 16 -46t43 -18z" />
    <glyph glyph-name="guillemotright" unicode="&#xbb;" horiz-adv-x="487" 
d="M0 91l124 167l-67 155h144l67 -161l-124 -161h-144zM203 91l124 167l-67 155h144l67 -161l-124 -161h-144z" />
    <glyph glyph-name="onequarter" unicode="&#xbc;" horiz-adv-x="947" 
d="M25 269l16 97h103l34 192l-102 -27l18 103l149 46h67l-55 -314h98l-17 -97h-311zM779 680l-454 -680h-109l454 680h109zM894 68h-49l-12 -68h-114l12 68h-208l13 75l157 268h116l-135 -243h75l16 93h114l-16 -93h47z" />
    <glyph glyph-name="onehalf" unicode="&#xbd;" horiz-adv-x="927" 
d="M25 269l16 97h103l34 192l-102 -27l18 103l149 46h67l-55 -314h98l-17 -97h-311zM770 680l-454 -680h-109l454 680h109zM745 97h128l-18 -97h-311l10 57l168 156q38 36 49 49t11 28q0 26 -30 26q-42 0 -50 -41h-111q12 66 59 105.5t120 39.5q64 0 100 -31t36 -78
q0 -34 -19 -64.5t-84 -93.5z" />
    <glyph glyph-name="threequarters" unicode="&#xbe;" horiz-adv-x="925" 
d="M379 410q0 -63 -49.5 -105t-129.5 -42q-71 0 -109.5 36.5t-35.5 99.5h112q4 -39 46 -39q24 0 39 12t15 30q0 30 -51 30l3 15l-3 -15h-33l15 88h33q26 0 41.5 12t15.5 31q0 30 -36 30q-38 0 -49 -40h-112q15 64 61.5 100t115.5 36q60 0 94.5 -30t34.5 -79q0 -68 -53 -102
q35 -24 35 -68zM760 680l-454 -680h-108l454 680h108zM872 68h-49l-12 -68h-114l12 68h-208l13 75l157 268h116l-135 -243h75l16 93h114l-16 -93h47z" />
    <glyph glyph-name="questiondown" unicode="&#xbf;" horiz-adv-x="539" 
d="M329 384q-36 0 -62 24t-26 60t26 60t62 24t62 -24t26 -60t-26 -60t-62 -24zM204 -148q-102 0 -159 54.5t-51 145.5q4 86 67 142.5t162 69.5l16 58h122l-18 -163h-82q-49 0 -82.5 -28t-33.5 -73q0 -33 20 -52t55 -19q39 0 67 21.5t39 57.5h157q-24 -99 -97.5 -156.5
t-181.5 -57.5z" />
    <glyph glyph-name="Agrave" unicode="&#xc0;" horiz-adv-x="763" 
d="M395 750l-100 160h171l80 -160h-151zM503 117h-284l-66 -117h-184l410 684h161l167 -684h-179zM472 261l-47 218l-124 -218h171z" />
    <glyph glyph-name="Aacute" unicode="&#xc1;" horiz-adv-x="763" 
d="M551 750h-151l108 160h171zM503 117h-284l-66 -117h-184l410 684h161l167 -684h-179zM472 261l-47 218l-124 -218h171z" />
    <glyph glyph-name="Acircumflex" unicode="&#xc2;" horiz-adv-x="763" 
d="M427 750h-146l145 164h153l88 -164h-136l-43 73zM503 117h-284l-66 -117h-184l410 684h161l167 -684h-179zM472 261l-47 218l-124 -218h171z" />
    <glyph glyph-name="Atilde" unicode="&#xc3;" horiz-adv-x="763" 
d="M404 764h-108q0 49 19 82t48 45t60.5 11t59.5 -15l26 -13q26 -11 38.5 -3t12.5 29h108q0 -49 -18.5 -82.5t-47.5 -45.5t-61 -11t-60 15l-26 13q-25 11 -38 3.5t-13 -28.5zM503 117h-284l-66 -117h-184l410 684h161l167 -684h-179zM472 261l-47 218l-124 -218h171z" />
    <glyph glyph-name="Adieresis" unicode="&#xc4;" horiz-adv-x="763" 
d="M373 746q-38 0 -63.5 24t-25.5 61q0 36 25.5 60.5t63.5 24.5q37 0 62.5 -24.5t25.5 -60.5t-25.5 -60.5t-62.5 -24.5zM595 746q-37 0 -63 24.5t-26 60.5t26 60.5t63 24.5t63 -24.5t26 -60.5t-26 -60.5t-63 -24.5zM503 117h-284l-66 -117h-184l410 684h161l167 -684h-179z
M472 261l-47 218l-124 -218h171z" />
    <glyph glyph-name="Aring" unicode="&#xc5;" horiz-adv-x="763" 
d="M482 741q-55 0 -89.5 32t-34.5 84t34.5 83.5t89.5 31.5t89.5 -31.5t34.5 -83.5t-34.5 -84t-89.5 -32zM482 900q-20 0 -32 -12t-12 -31q0 -20 12 -31.5t32 -11.5t32 11.5t12 31.5q0 19 -12 31t-32 12zM503 117h-284l-66 -117h-184l410 684h161l167 -684h-179zM472 261
l-47 218l-124 -218h171z" />
    <glyph glyph-name="AE" unicode="&#xc6;" horiz-adv-x="1139" 
d="M795 533l-22 -124h302l-26 -144h-301l-21 -118h345l-26 -147h-514l21 117h-262l-104 -117h-218l632 680h565l-26 -147h-345zM578 261l39 222l-197 -222h158z" />
    <glyph glyph-name="Ccedilla" unicode="&#xc7;" horiz-adv-x="785" 
d="M452 536q-84 0 -146 -55.5t-77 -140.5q-14 -87 28.5 -141.5t125.5 -54.5q60 0 114.5 38.5t77.5 99.5h174q-39 -133 -147 -214.5t-245 -81.5q-155 0 -240.5 100t-58.5 254q27 153 148 253.5t276 100.5q138 0 216.5 -81.5t70.5 -214.5h-173q-3 65 -40 101.5t-104 36.5z
M260 -51h155l-104 -177h-138z" />
    <glyph glyph-name="Egrave" unicode="&#xc8;" horiz-adv-x="617" 
d="M316 750l-100 160h171l80 -160h-151zM273 533l-22 -124h302l-26 -144h-301l-21 -118h346l-26 -147h-515l120 680h515l-26 -147h-346z" />
    <glyph glyph-name="Eacute" unicode="&#xc9;" horiz-adv-x="617" 
d="M472 750h-151l108 160h171zM273 533l-22 -124h302l-26 -144h-301l-21 -118h346l-26 -147h-515l120 680h515l-26 -147h-346z" />
    <glyph glyph-name="Ecircumflex" unicode="&#xca;" horiz-adv-x="617" 
d="M348 750h-146l145 164h153l88 -164h-136l-43 73zM273 533l-22 -124h302l-26 -144h-301l-21 -118h346l-26 -147h-515l120 680h515l-26 -147h-346z" />
    <glyph glyph-name="Edieresis" unicode="&#xcb;" horiz-adv-x="617" 
d="M294 746q-38 0 -63.5 24t-25.5 61q0 36 25.5 60.5t63.5 24.5q37 0 62.5 -24.5t25.5 -60.5t-25.5 -60.5t-62.5 -24.5zM516 746q-37 0 -63 24.5t-26 60.5t26 60.5t63 24.5t63 -24.5t26 -60.5t-26 -60.5t-63 -24.5zM273 533l-22 -124h302l-26 -144h-301l-21 -118h346
l-26 -147h-515l120 680h515l-26 -147h-346z" />
    <glyph glyph-name="Igrave" unicode="&#xcc;" horiz-adv-x="292" 
d="M313 750h-151l-100 160h171zM188 0h-169l120 680h169z" />
    <glyph glyph-name="Iacute" unicode="&#xcd;" horiz-adv-x="292" 
d="M446 910l-128 -160h-151l108 160h171zM188 0h-169l120 680h169z" />
    <glyph glyph-name="Icircumflex" unicode="&#xce;" horiz-adv-x="292" 
d="M255 823l-61 -73h-146l145 164h153l88 -164h-136zM188 0h-169l120 680h169z" />
    <glyph glyph-name="Idieresis" unicode="&#xcf;" horiz-adv-x="292" 
d="M140 916q37 0 62.5 -24.5t25.5 -60.5t-25.5 -60.5t-62.5 -24.5q-38 0 -63.5 24t-25.5 61q0 36 25.5 60.5t63.5 24.5zM362 916q37 0 63 -24.5t26 -60.5t-26 -60.5t-63 -24.5t-63 24.5t-26 60.5t26 60.5t63 24.5zM188 0h-169l120 680h169z" />
    <glyph glyph-name="Eth" unicode="&#xd0;" horiz-adv-x="745" 
d="M139 680h274q141 0 227 -79.5t86 -206.5q0 -168 -126 -281t-307 -113h-274l47 269h-55l26 146h55zM215 152h104q94 0 163 64t69 153q0 69 -46 114t-119 45h-105l-20 -113h110l-26 -146h-110z" />
    <glyph glyph-name="Ntilde" unicode="&#xd1;" horiz-adv-x="747" 
d="M372 764h-108q0 49 19 82t48 45t60.5 11t59.5 -15l26 -13q26 -11 38.5 -3t12.5 29h108q0 -49 -18.5 -82.5t-47.5 -45.5t-61 -11t-60 15l-26 13q-25 11 -38 3.5t-13 -28.5zM764 680l-120 -680h-130l-260 377l-66 -377h-169l120 680h117l270 -392l70 392h168z" />
    <glyph glyph-name="Ograve" unicode="&#xd2;" horiz-adv-x="806" 
d="M575 750h-151l-100 160h171zM480 694q137 0 222 -85.5t85 -215.5q0 -109 -59.5 -203.5t-157.5 -149t-209 -54.5q-137 0 -222 85.5t-85 215.5q0 109 59.5 203.5t157.5 149t209 54.5zM383 145q90 0 160 68t69 161q0 69 -41.5 115t-115.5 46q-93 0 -160.5 -68t-66.5 -160
q1 -69 42 -115.5t113 -46.5z" />
    <glyph glyph-name="Oacute" unicode="&#xd3;" horiz-adv-x="806" 
d="M708 910l-128 -160h-151l108 160h171zM480 694q137 0 222 -85.5t85 -215.5q0 -109 -59.5 -203.5t-157.5 -149t-209 -54.5q-137 0 -222 85.5t-85 215.5q0 109 59.5 203.5t157.5 149t209 54.5zM383 145q90 0 160 68t69 161q0 69 -41.5 115t-115.5 46q-93 0 -160.5 -68
t-66.5 -160q1 -69 42 -115.5t113 -46.5z" />
    <glyph glyph-name="Ocircumflex" unicode="&#xd4;" horiz-adv-x="806" 
d="M517 823l-61 -73h-146l145 164h153l88 -164h-136zM480 694q137 0 222 -85.5t85 -215.5q0 -109 -59.5 -203.5t-157.5 -149t-209 -54.5q-137 0 -222 85.5t-85 215.5q0 109 59.5 203.5t157.5 149t209 54.5zM383 145q90 0 160 68t69 161q0 69 -41.5 115t-115.5 46
q-93 0 -160.5 -68t-66.5 -160q1 -69 42 -115.5t113 -46.5z" />
    <glyph glyph-name="Otilde" unicode="&#xd5;" horiz-adv-x="806" 
d="M589 900h108q0 -49 -18.5 -82.5t-47.5 -45.5t-61 -11t-60 15l-26 13q-26 11 -38.5 3.5t-12.5 -28.5h-108q0 49 19 82t48 45t60.5 11t59.5 -15l26 -13q26 -11 38.5 -3t12.5 29zM480 694q137 0 222 -85.5t85 -215.5q0 -109 -59.5 -203.5t-157.5 -149t-209 -54.5
q-137 0 -222 85.5t-85 215.5q0 109 59.5 203.5t157.5 149t209 54.5zM383 145q90 0 160 68t69 161q0 69 -41.5 115t-115.5 46q-93 0 -160.5 -68t-66.5 -160q1 -69 42 -115.5t113 -46.5z" />
    <glyph glyph-name="Odieresis" unicode="&#xd6;" horiz-adv-x="806" 
d="M402 916q37 0 62.5 -24.5t25.5 -60.5t-25.5 -60.5t-62.5 -24.5q-38 0 -63.5 24t-25.5 61q0 36 25.5 60.5t63.5 24.5zM624 916q37 0 63 -24.5t26 -60.5t-26 -60.5t-63 -24.5t-63 24.5t-26 60.5t26 60.5t63 24.5zM480 694q137 0 222 -85.5t85 -215.5q0 -109 -59.5 -203.5
t-157.5 -149t-209 -54.5q-137 0 -222 85.5t-85 215.5q0 109 59.5 203.5t157.5 149t209 54.5zM383 145q90 0 160 68t69 161q0 69 -41.5 115t-115.5 46q-93 0 -160.5 -68t-66.5 -160q1 -69 42 -115.5t113 -46.5z" />
    <glyph glyph-name="multiply" unicode="&#xd7;" horiz-adv-x="654" 
d="M538 183l-107 -91l-114 139l-164 -139l-75 91l164 139l-115 139l107 91l115 -139l163 139l75 -91l-163 -139z" />
    <glyph glyph-name="Oslash" unicode="&#xd8;" horiz-adv-x="806" 
d="M785 629l-55 -54q57 -77 57 -182q0 -109 -59.5 -203.5t-157.5 -149t-209 -54.5q-103 0 -178 50l-60 -59l-78 78l59 59q-50 75 -50 173q0 109 59.5 203.5t157.5 149t209 54.5q95 0 169 -44l58 57zM228 307q0 -29 10 -62l282 278q-29 12 -65 12q-93 0 -160.5 -68
t-66.5 -160zM383 145q90 0 160 68t69 161q0 38 -14 71l-288 -284q34 -16 73 -16z" />
    <glyph glyph-name="Ugrave" unicode="&#xd9;" horiz-adv-x="731" 
d="M520 750h-151l-100 160h171zM760 680l-64 -363q-60 -332 -372 -332q-145 0 -216 91.5t-45 240.5l64 363h170l-64 -366q-14 -80 15.5 -125.5t100.5 -45.5q67 0 115 46.5t61 124.5l65 366h170z" />
    <glyph glyph-name="Uacute" unicode="&#xda;" horiz-adv-x="731" 
d="M653 910l-128 -160h-151l108 160h171zM760 680l-64 -363q-60 -332 -372 -332q-145 0 -216 91.5t-45 240.5l64 363h170l-64 -366q-14 -80 15.5 -125.5t100.5 -45.5q67 0 115 46.5t61 124.5l65 366h170z" />
    <glyph glyph-name="Ucircumflex" unicode="&#xdb;" horiz-adv-x="731" 
d="M462 823l-61 -73h-146l145 164h153l88 -164h-136zM760 680l-64 -363q-60 -332 -372 -332q-145 0 -216 91.5t-45 240.5l64 363h170l-64 -366q-14 -80 15.5 -125.5t100.5 -45.5q67 0 115 46.5t61 124.5l65 366h170z" />
    <glyph glyph-name="Udieresis" unicode="&#xdc;" horiz-adv-x="731" 
d="M347 916q37 0 62.5 -24.5t25.5 -60.5t-25.5 -60.5t-62.5 -24.5q-38 0 -63.5 24t-25.5 61q0 36 25.5 60.5t63.5 24.5zM569 916q37 0 63 -24.5t26 -60.5t-26 -60.5t-63 -24.5t-63 24.5t-26 60.5t26 60.5t63 24.5zM760 680l-64 -363q-60 -332 -372 -332q-145 0 -216 91.5
t-45 240.5l64 363h170l-64 -366q-14 -80 15.5 -125.5t100.5 -45.5q67 0 115 46.5t61 124.5l65 366h170z" />
    <glyph glyph-name="Yacute" unicode="&#xdd;" horiz-adv-x="714" 
d="M503 750h-151l108 160h171zM434 205l-35 -205h-170l36 206l-185 474h184l111 -286l212 286h200z" />
    <glyph glyph-name="Thorn" unicode="&#xde;" horiz-adv-x="653" 
d="M288 594h106q118 0 183.5 -55.5t65.5 -155.5q0 -131 -97.5 -213.5t-254.5 -82.5h-93l-15 -87h-169l120 680h169zM224 235h103q63 0 103.5 35.5t40.5 89.5q0 39 -28.5 62t-78.5 23h-102z" />
    <glyph glyph-name="germandbls" unicode="&#xdf;" horiz-adv-x="685" 
d="M649 393l-155 -162q64 -17 99 -61.5t35 -109.5q0 -114 -87 -192t-222 -78q-89 0 -163 25l25 139q79 -24 144 -24q63 0 98.5 32t35.5 76q0 33 -22 52t-61 19h-105l12 71l147 161h-196l-60 -341h-162l94 533q18 105 95 168t185 63l-28 -159q-35 0 -60 -21t-31 -57l-7 -42
h405z" />
    <glyph glyph-name="agrave" unicode="&#xe0;" horiz-adv-x="621" 
d="M297 544l-100 160h171l80 -160h-151zM612 485l-86 -485h-162l5 26q-63 -36 -139 -36q-88 0 -144 59t-56 154q0 121 88.5 207t201.5 86q74 0 125 -35l4 24h163zM286 123q60 0 107 43l27 154q-31 44 -91 44q-56 0 -97 -41.5t-41 -98.5q0 -45 26.5 -73t68.5 -28z" />
    <glyph glyph-name="aacute" unicode="&#xe1;" horiz-adv-x="621" 
d="M458 544h-151l108 160h171zM612 485l-86 -485h-162l5 26q-63 -36 -139 -36q-88 0 -144 59t-56 154q0 121 88.5 207t201.5 86q74 0 125 -35l4 24h163zM286 123q60 0 107 43l27 154q-31 44 -91 44q-56 0 -97 -41.5t-41 -98.5q0 -45 26.5 -73t68.5 -28z" />
    <glyph glyph-name="acircumflex" unicode="&#xe2;" horiz-adv-x="621" 
d="M332 537h-146l145 164h153l88 -164h-136l-43 73zM612 485l-86 -485h-162l5 26q-63 -36 -139 -36q-88 0 -144 59t-56 154q0 121 88.5 207t201.5 86q74 0 125 -35l4 24h163zM286 123q60 0 107 43l27 154q-31 44 -91 44q-56 0 -97 -41.5t-41 -98.5q0 -45 26.5 -73t68.5 -28z
" />
    <glyph glyph-name="atilde" unicode="&#xe3;" horiz-adv-x="621" 
d="M298 564h-108q0 49 19 82t48 45t60.5 11t59.5 -15l26 -13q26 -11 38.5 -3t12.5 29h108q0 -49 -18.5 -82.5t-47.5 -45.5t-61 -11t-60 15l-26 13q-25 11 -38 3.5t-13 -28.5zM612 485l-86 -485h-162l5 26q-63 -36 -139 -36q-88 0 -144 59t-56 154q0 121 88.5 207t201.5 86
q74 0 125 -35l4 24h163zM286 123q60 0 107 43l27 154q-31 44 -91 44q-56 0 -97 -41.5t-41 -98.5q0 -45 26.5 -73t68.5 -28z" />
    <glyph glyph-name="adieresis" unicode="&#xe4;" horiz-adv-x="621" 
d="M261 540q-38 0 -63.5 24t-25.5 61q0 36 25.5 60.5t63.5 24.5q37 0 62.5 -24.5t25.5 -60.5t-25.5 -60.5t-62.5 -24.5zM483 540q-37 0 -63 24.5t-26 60.5t26 60.5t63 24.5t63 -24.5t26 -60.5t-26 -60.5t-63 -24.5zM612 485l-86 -485h-162l5 26q-63 -36 -139 -36
q-88 0 -144 59t-56 154q0 121 88.5 207t201.5 86q74 0 125 -35l4 24h163zM286 123q60 0 107 43l27 154q-31 44 -91 44q-56 0 -97 -41.5t-41 -98.5q0 -45 26.5 -73t68.5 -28z" />
    <glyph glyph-name="aring" unicode="&#xe5;" horiz-adv-x="621" 
d="M377 528q-55 0 -89.5 32t-34.5 84t34.5 83.5t89.5 31.5t89.5 -31.5t34.5 -83.5t-34.5 -84t-89.5 -32zM377 687q-20 0 -32 -12t-12 -31q0 -20 12 -31.5t32 -11.5t32 11.5t12 31.5q0 19 -12 31t-32 12zM612 485l-86 -485h-162l5 26q-63 -36 -139 -36q-88 0 -144 59t-56 154
q0 121 88.5 207t201.5 86q74 0 125 -35l4 24h163zM286 123q60 0 107 43l27 154q-31 44 -91 44q-56 0 -97 -41.5t-41 -98.5q0 -45 26.5 -73t68.5 -28z" />
    <glyph glyph-name="ae" unicode="&#xe6;" horiz-adv-x="900" 
d="M661 496q109 0 167 -67t41 -176q-2 -12 -4.5 -24t-5.5 -22t-3 -12h-343q6 -35 29 -56t64 -21q52 0 77 34h164q-31 -75 -101.5 -119t-161.5 -44q-123 0 -186 79q-104 -77 -207 -77q-82 0 -130 35.5t-48 97.5q0 78 60 122t162 44h133q15 83 -62 83q-31 0 -54.5 -15
t-31.5 -41h-154q20 90 94 136.5t173 46.5q103 0 153 -59q79 55 175 55zM645 373q-82 0 -117 -83h198q4 83 -81 83zM234 114q59 0 126 41q-3 20 -3 40h-134q-24 0 -38.5 -10.5t-14.5 -28.5t16 -30t48 -12z" />
    <glyph glyph-name="ccedilla" unicode="&#xe7;" horiz-adv-x="576" 
d="M317 359q-51 0 -87 -32.5t-45 -83.5h1q-9 -53 15 -85t75 -32q37 0 66.5 20t42.5 53h153q-25 -93 -105.5 -151.5t-180.5 -58.5q-119 0 -179.5 70t-40.5 184h-1q19 110 107 181.5t203 71.5q100 0 159.5 -58.5t51.5 -151.5h-153q0 33 -22.5 53t-59.5 20zM168 -44h155
l-104 -177h-138z" />
    <glyph glyph-name="egrave" unicode="&#xe8;" horiz-adv-x="569" 
d="M267 544l-100 160h171l80 -160h-151zM332 496q108 0 166.5 -67t41.5 -176q-2 -12 -5 -24l-5.5 -22t-2.5 -12h-343q6 -35 29 -56t64 -21q52 0 77 34h164q-31 -75 -101.5 -119t-161.5 -44q-118 0 -180 72t-43 182t103.5 181.5t196.5 71.5zM315 373q-82 0 -117 -83h199
q4 83 -82 83z" />
    <glyph glyph-name="eacute" unicode="&#xe9;" horiz-adv-x="569" 
d="M428 544h-151l108 160h171zM332 496q108 0 166.5 -67t41.5 -176q-2 -12 -5 -24l-5.5 -22t-2.5 -12h-343q6 -35 29 -56t64 -21q52 0 77 34h164q-31 -75 -101.5 -119t-161.5 -44q-118 0 -180 72t-43 182t103.5 181.5t196.5 71.5zM315 373q-82 0 -117 -83h199q4 83 -82 83z
" />
    <glyph glyph-name="ecircumflex" unicode="&#xea;" horiz-adv-x="569" 
d="M302 537h-146l145 164h153l88 -164h-136l-43 73zM332 496q108 0 166.5 -67t41.5 -176q-2 -12 -5 -24l-5.5 -22t-2.5 -12h-343q6 -35 29 -56t64 -21q52 0 77 34h164q-31 -75 -101.5 -119t-161.5 -44q-118 0 -180 72t-43 182t103.5 181.5t196.5 71.5zM315 373
q-82 0 -117 -83h199q4 83 -82 83z" />
    <glyph glyph-name="edieresis" unicode="&#xeb;" horiz-adv-x="569" 
d="M231 540q-38 0 -63.5 24t-25.5 61q0 36 25.5 60.5t63.5 24.5q37 0 62.5 -24.5t25.5 -60.5t-25.5 -60.5t-62.5 -24.5zM453 540q-37 0 -63 24.5t-26 60.5t26 60.5t63 24.5t63 -24.5t26 -60.5t-26 -60.5t-63 -24.5zM332 496q108 0 166.5 -67t41.5 -176q-2 -12 -5 -24
l-5.5 -22t-2.5 -12h-343q6 -35 29 -56t64 -21q52 0 77 34h164q-31 -75 -101.5 -119t-161.5 -44q-118 0 -180 72t-43 182t103.5 181.5t196.5 71.5zM315 373q-82 0 -117 -83h199q4 83 -82 83z" />
    <glyph glyph-name="igrave" unicode="&#xec;" horiz-adv-x="272" 
d="M261 544h-151l-100 160h171zM261 485l-86 -485h-162l86 485h162z" />
    <glyph glyph-name="iacute" unicode="&#xed;" horiz-adv-x="272" 
d="M399 704l-128 -160h-151l108 160h171zM261 485l-86 -485h-162l86 485h162z" />
    <glyph glyph-name="icircumflex" unicode="&#xee;" horiz-adv-x="272" 
d="M206 610l-61 -73h-146l145 164h153l88 -164h-136zM261 485l-86 -485h-162l86 485h162z" />
    <glyph glyph-name="idieresis" unicode="&#xef;" horiz-adv-x="272" 
d="M74 710q37 0 62.5 -24.5t25.5 -60.5t-25.5 -60.5t-62.5 -24.5q-38 0 -63.5 24t-25.5 61q0 36 25.5 60.5t63.5 24.5zM296 710q37 0 63 -24.5t26 -60.5t-26 -60.5t-63 -24.5t-63 24.5t-26 60.5t26 60.5t63 24.5zM261 485l-86 -485h-162l86 485h162z" />
    <glyph glyph-name="eth" unicode="&#xf0;" horiz-adv-x="591" 
d="M535 621l-58 -20q90 -112 90 -281q0 -149 -91.5 -242t-222.5 -93q-103 0 -163.5 61t-60.5 157q0 122 88 207.5t204 85.5q41 0 72 -12q-21 41 -53 71l-163 -55l-18 88l97 31q-8 5 -84 46l151 61q48 -24 84 -53l109 37zM276 125q55 0 93.5 40.5t38.5 95.5q0 45 -23.5 70
t-68.5 25q-55 0 -93.5 -39.5t-38.5 -94.5q0 -42 24.5 -69.5t67.5 -27.5z" />
    <glyph glyph-name="ntilde" unicode="&#xf1;" horiz-adv-x="604" 
d="M274 564h-108q0 49 19 82t48 45t60.5 11t59.5 -15l26 -13q26 -11 38.5 -3t12.5 29h108q0 -49 -18.5 -82.5t-47.5 -45.5t-61 -11t-60 15l-26 13q-25 11 -38 3.5t-13 -28.5zM393 500q93 0 139.5 -60.5t27.5 -162.5l-48 -277h-162l44 251q9 51 -10 76.5t-61 25.5
q-46 0 -97 -48l-54 -305h-162l85 485h163l-6 -32q70 47 141 47z" />
    <glyph glyph-name="ograve" unicode="&#xf2;" horiz-adv-x="592" 
d="M420 544h-151l-100 160h171zM341 496q101 0 161.5 -60t60.5 -154q0 -124 -91.5 -210.5t-220.5 -86.5q-101 0 -161.5 61t-60.5 156q0 124 91 209t221 85zM277 125q55 0 93.5 40t37.5 95q0 41 -25 68.5t-67 27.5q-56 0 -94 -39.5t-38 -94.5q1 -42 26 -69.5t67 -27.5z" />
    <glyph glyph-name="oacute" unicode="&#xf3;" horiz-adv-x="592" 
d="M558 704l-128 -160h-151l108 160h171zM341 496q101 0 161.5 -60t60.5 -154q0 -124 -91.5 -210.5t-220.5 -86.5q-101 0 -161.5 61t-60.5 156q0 124 91 209t221 85zM277 125q55 0 93.5 40t37.5 95q0 41 -25 68.5t-67 27.5q-56 0 -94 -39.5t-38 -94.5q1 -42 26 -69.5
t67 -27.5z" />
    <glyph glyph-name="ocircumflex" unicode="&#xf4;" horiz-adv-x="592" 
d="M365 610l-61 -73h-146l145 164h153l88 -164h-136zM341 496q101 0 161.5 -60t60.5 -154q0 -124 -91.5 -210.5t-220.5 -86.5q-101 0 -161.5 61t-60.5 156q0 124 91 209t221 85zM277 125q55 0 93.5 40t37.5 95q0 41 -25 68.5t-67 27.5q-56 0 -94 -39.5t-38 -94.5
q1 -42 26 -69.5t67 -27.5z" />
    <glyph glyph-name="otilde" unicode="&#xf5;" horiz-adv-x="592" 
d="M426 700h108q0 -49 -18.5 -82.5t-47.5 -45.5t-61 -11t-60 15l-26 13q-25 11 -38 3.5t-13 -28.5h-108q0 49 19 82t48 45t60.5 11t59.5 -15l26 -13q26 -11 38.5 -3t12.5 29zM341 496q101 0 161.5 -60t60.5 -154q0 -124 -91.5 -210.5t-220.5 -86.5q-101 0 -161.5 61
t-60.5 156q0 124 91 209t221 85zM277 125q55 0 93.5 40t37.5 95q0 41 -25 68.5t-67 27.5q-56 0 -94 -39.5t-38 -94.5q1 -42 26 -69.5t67 -27.5z" />
    <glyph glyph-name="odieresis" unicode="&#xf6;" horiz-adv-x="592" 
d="M250 710q37 0 62.5 -24.5t25.5 -61.5q0 -36 -25.5 -60.5t-62.5 -24.5q-38 0 -63.5 24.5t-25.5 60.5q0 37 25.5 61.5t63.5 24.5zM472 710q37 0 63 -25t26 -61t-26 -60.5t-63 -24.5t-63 24.5t-26 60.5t26 61t63 25zM341 496q101 0 161.5 -60t60.5 -154q0 -124 -91.5 -210.5
t-220.5 -86.5q-101 0 -161.5 61t-60.5 156q0 124 91 209t221 85zM277 125q55 0 93.5 40t37.5 95q0 41 -25 68.5t-67 27.5q-56 0 -94 -39.5t-38 -94.5q1 -42 26 -69.5t67 -27.5z" />
    <glyph glyph-name="divide" unicode="&#xf7;" horiz-adv-x="685" 
d="M392 447q-35 0 -59.5 23.5t-24.5 57.5t24.5 57.5t59.5 23.5t60 -23.5t25 -57.5t-25 -57.5t-60 -23.5zM124 392h489l-24 -128h-488zM322 52q-35 0 -59.5 23.5t-24.5 57.5t24.5 57.5t59.5 23.5t60 -23.5t25 -57.5t-25 -57.5t-60 -23.5z" />
    <glyph glyph-name="oslash" unicode="&#xf8;" horiz-adv-x="592" 
d="M570 450l-43 -43q36 -53 36 -125q0 -124 -91.5 -210.5t-220.5 -86.5q-71 0 -122 31l-48 -47l-64 61l47 47q-35 53 -35 125q0 124 91 209t221 85q70 0 120 -29l45 44zM184 222q0 -13 3 -25l157 155q-11 4 -28 4q-56 0 -94 -39.5t-38 -94.5zM408 260q0 15 -3 27l-160 -157
q15 -5 32 -5q55 0 93.5 40t37.5 95z" />
    <glyph glyph-name="ugrave" unicode="&#xf9;" horiz-adv-x="609" 
d="M273 544l-100 160h171l80 -160h-151zM594 485l-86 -485h-162l6 32q-68 -47 -142 -47q-93 0 -139 60.5t-27 162.5l48 277h162l-44 -252q-9 -50 10 -76t60 -26q47 0 98 48l54 306h162z" />
    <glyph glyph-name="uacute" unicode="&#xfa;" horiz-adv-x="609" 
d="M434 544h-151l108 160h171zM594 485l-86 -485h-162l6 32q-68 -47 -142 -47q-93 0 -139 60.5t-27 162.5l48 277h162l-44 -252q-9 -50 10 -76t60 -26q47 0 98 48l54 306h162z" />
    <glyph glyph-name="ucircumflex" unicode="&#xfb;" horiz-adv-x="609" 
d="M308 537h-146l145 164h153l88 -164h-136l-43 73zM594 485l-86 -485h-162l6 32q-68 -47 -142 -47q-93 0 -139 60.5t-27 162.5l48 277h162l-44 -252q-9 -50 10 -76t60 -26q47 0 98 48l54 306h162z" />
    <glyph glyph-name="udieresis" unicode="&#xfc;" horiz-adv-x="609" 
d="M237 540q-38 0 -63.5 24t-25.5 61q0 36 25.5 60.5t63.5 24.5q37 0 62.5 -24.5t25.5 -60.5t-25.5 -60.5t-62.5 -24.5zM459 540q-37 0 -63 24.5t-26 60.5t26 60.5t63 24.5t63 -24.5t26 -60.5t-26 -60.5t-63 -24.5zM594 485l-86 -485h-162l6 32q-68 -47 -142 -47
q-93 0 -139 60.5t-27 162.5l48 277h162l-44 -252q-9 -50 10 -76t60 -26q47 0 98 48l54 306h162z" />
    <glyph glyph-name="yacute" unicode="&#xfd;" horiz-adv-x="640" 
d="M451 544h-151l108 160h171zM664 485l-423 -709h-176l134 224l-142 485h172l85 -293l175 293h175z" />
    <glyph glyph-name="thorn" unicode="&#xfe;" horiz-adv-x="623" 
d="M397 496q87 0 144 -60.5t57 -152.5q0 -120 -88.5 -206.5t-201.5 -86.5q-75 0 -126 37l-45 -252h-162l160 905h162l-39 -221q64 37 139 37zM299 123q56 0 97 41.5t41 97.5q0 44 -26.5 73t-69.5 29q-59 0 -108 -46l-27 -150q32 -45 93 -45z" />
    <glyph glyph-name="ydieresis" unicode="&#xff;" horiz-adv-x="640" 
d="M254 540q-38 0 -63.5 24t-25.5 61q0 36 25.5 60.5t63.5 24.5q37 0 62.5 -24.5t25.5 -60.5t-25.5 -60.5t-62.5 -24.5zM476 540q-37 0 -63 24.5t-26 60.5t26 60.5t63 24.5t63 -24.5t26 -60.5t-26 -60.5t-63 -24.5zM664 485l-423 -709h-176l134 224l-142 485h172l85 -293
l175 293h175z" />
    <glyph glyph-name="Amacron" unicode="&#x100;" horiz-adv-x="763" 
d="M612 751h-286l21 116h287zM503 117h-284l-66 -117h-184l410 684h161l167 -684h-179zM472 261l-47 218l-124 -218h171z" />
    <glyph glyph-name="amacron" unicode="&#x101;" horiz-adv-x="621" 
d="M527 557h-286l21 116h287zM612 485l-86 -485h-162l5 26q-63 -36 -139 -36q-88 0 -144 59t-56 154q0 121 88.5 207t201.5 86q74 0 125 -35l4 24h163zM286 123q60 0 107 43l27 154q-31 44 -91 44q-56 0 -97 -41.5t-41 -98.5q0 -45 26.5 -73t68.5 -28z" />
    <glyph glyph-name="Abreve" unicode="&#x102;" horiz-adv-x="763" 
d="M474 748q-78 0 -120 44.5t-28 124.5h115q-12 -65 46 -65q25 0 45.5 16.5t25.5 48.5h118q-15 -81 -69.5 -125t-132.5 -44zM503 117h-284l-66 -117h-184l410 684h161l167 -684h-179zM472 261l-47 218l-124 -218h171z" />
    <glyph glyph-name="abreve" unicode="&#x103;" horiz-adv-x="621" 
d="M382 530q-78 0 -120 44.5t-28 124.5h115q-12 -65 46 -65q25 0 45.5 16.5t25.5 48.5h118q-15 -81 -69.5 -125t-132.5 -44zM612 485l-86 -485h-162l5 26q-63 -36 -139 -36q-88 0 -144 59t-56 154q0 121 88.5 207t201.5 86q74 0 125 -35l4 24h163zM286 123q60 0 107 43
l27 154q-31 44 -91 44q-56 0 -97 -41.5t-41 -98.5q0 -45 26.5 -73t68.5 -28z" />
    <glyph glyph-name="Aogonek" unicode="&#x104;" horiz-adv-x="763" 
d="M698 -53l15 -120q-28 -14 -81 -14q-72 0 -118 34t-46 93q0 52 54 90l-19 87h-284l-66 -117h-184l410 684h161l167 -684h-76q-30 -11 -30 -32q0 -28 50 -28q20 0 47 7zM472 261l-47 218l-124 -218h171z" />
    <glyph glyph-name="aogonek" unicode="&#x105;" horiz-adv-x="621" 
d="M503 -63q20 0 47 7l15 -120q-28 -14 -81 -14q-72 0 -118 34t-46 93q0 49 48 86l1 3q-63 -36 -139 -36q-88 0 -144 59t-56 154q0 121 88.5 207t201.5 86q74 0 125 -35l4 24h163l-86 -485h-34q-39 -11 -39 -35q0 -28 50 -28zM286 123q60 0 107 43l27 154q-31 44 -91 44
q-56 0 -97 -41.5t-41 -98.5q0 -45 26.5 -73t68.5 -28z" />
    <glyph glyph-name="Cacute" unicode="&#x106;" horiz-adv-x="785" 
d="M564 750h-151l108 160h171zM452 536q-84 0 -146 -55.5t-77 -140.5q-14 -87 28.5 -141.5t125.5 -54.5q60 0 114.5 38.5t77.5 99.5h174q-39 -133 -147 -214.5t-245 -81.5q-155 0 -240.5 100t-58.5 254q27 153 148 253.5t276 100.5q138 0 216.5 -81.5t70.5 -214.5h-173
q-3 65 -40 101.5t-104 36.5z" />
    <glyph glyph-name="cacute" unicode="&#x107;" horiz-adv-x="576" 
d="M428 544h-151l108 160h171zM341 496q100 0 159.5 -58.5t51.5 -151.5h-153q0 33 -22.5 53t-59.5 20q-51 0 -87 -32.5t-45 -83.5h1q-9 -53 15 -85t75 -32q37 0 66.5 20t42.5 53h153q-25 -93 -105.5 -151.5t-180.5 -58.5q-119 0 -179.5 70t-40.5 184h-1q19 110 107 181.5
t203 71.5z" />
    <glyph glyph-name="Cdotaccent" unicode="&#x10a;" horiz-adv-x="785" 
d="M518 743q-38 0 -65 25.5t-27 62.5t27 62.5t65 25.5t64.5 -25.5t26.5 -62.5t-26.5 -62.5t-64.5 -25.5zM452 536q-84 0 -146 -55.5t-77 -140.5q-14 -87 28.5 -141.5t125.5 -54.5q60 0 114.5 38.5t77.5 99.5h174q-39 -133 -147 -214.5t-245 -81.5q-155 0 -240.5 100
t-58.5 254q27 153 148 253.5t276 100.5q138 0 216.5 -81.5t70.5 -214.5h-173q-3 65 -40 101.5t-104 36.5z" />
    <glyph glyph-name="cdotaccent" unicode="&#x10b;" horiz-adv-x="576" 
d="M344 537q-38 0 -65 25.5t-27 62.5t27 62.5t65 25.5t64.5 -25.5t26.5 -62.5t-26.5 -62.5t-64.5 -25.5zM317 359q-51 0 -87 -32.5t-45 -83.5h1q-9 -53 15 -85t75 -32q37 0 66.5 20t42.5 53h153q-25 -93 -105.5 -151.5t-180.5 -58.5q-119 0 -179.5 70t-40.5 184h-1
q19 110 107 181.5t203 71.5q100 0 159.5 -58.5t51.5 -151.5h-153q0 33 -22.5 53t-59.5 20z" />
    <glyph glyph-name="Ccaron" unicode="&#x10c;" horiz-adv-x="785" 
d="M418 740l-89 160h137l43 -72l65 72h144l-145 -160h-155zM452 536q-84 0 -146 -55.5t-77 -140.5q-14 -87 28.5 -141.5t125.5 -54.5q60 0 114.5 38.5t77.5 99.5h174q-39 -133 -147 -214.5t-245 -81.5q-155 0 -240.5 100t-58.5 254q27 153 148 253.5t276 100.5
q138 0 216.5 -81.5t70.5 -214.5h-173q-3 65 -40 101.5t-104 36.5z" />
    <glyph glyph-name="ccaron" unicode="&#x10d;" horiz-adv-x="576" 
d="M269 538l-89 160h137l43 -72l65 72h144l-145 -160h-155zM341 496q100 0 159.5 -58.5t51.5 -151.5h-153q0 33 -22.5 53t-59.5 20q-51 0 -87 -32.5t-45 -83.5h1q-9 -53 15 -85t75 -32q37 0 66.5 20t42.5 53h153q-25 -93 -105.5 -151.5t-180.5 -58.5q-119 0 -179.5 70
t-40.5 184h-1q19 110 107 181.5t203 71.5z" />
    <glyph glyph-name="Dcaron" unicode="&#x10e;" horiz-adv-x="745" 
d="M342 740l-89 160h137l43 -72l65 72h144l-145 -160h-155zM139 680h274q141 0 227 -79.5t86 -206.5q0 -168 -126 -281t-307 -113h-274zM215 152h104q94 0 163 64t69 153q0 69 -46 114t-119 45h-105z" />
    <glyph glyph-name="dcaron" unicode="&#x10f;" horiz-adv-x="622" 
d="M490 710h162l-126 -710h-162l4 24q-65 -36 -138 -36q-87 0 -144 61t-57 153q0 120 88.5 206t201.5 86q74 0 126 -36zM843 710l-73 -204h-115l40 204h148zM286 121q60 0 107 44l27 152q-32 45 -92 45q-56 0 -97 -41.5t-41 -98.5q0 -43 26.5 -72t69.5 -29z" />
    <glyph glyph-name="Dcroat" unicode="&#x110;" horiz-adv-x="745" 
d="M139 680h274q141 0 227 -79.5t86 -206.5q0 -168 -126 -281t-307 -113h-274l47 269h-55l26 146h55zM215 152h104q94 0 163 64t69 153q0 69 -46 114t-119 45h-105l-20 -113h110l-26 -146h-110z" />
    <glyph glyph-name="dcroat" unicode="&#x111;" horiz-adv-x="622" 
d="M664 545h-41l-97 -545h-162l4 24q-65 -36 -138 -36q-87 0 -144 61t-57 153q0 120 88.5 206t201.5 86q74 0 126 -36l16 87h-137l20 114h137l9 51h162l-9 -51h41zM286 121q60 0 107 44l27 152q-32 45 -92 45q-56 0 -97 -41.5t-41 -98.5q0 -43 26.5 -72t69.5 -29z" />
    <glyph glyph-name="Emacron" unicode="&#x112;" horiz-adv-x="617" 
d="M533 751h-286l21 116h287zM273 533l-22 -124h302l-26 -144h-301l-21 -118h346l-26 -147h-515l120 680h515l-26 -147h-346z" />
    <glyph glyph-name="emacron" unicode="&#x113;" horiz-adv-x="569" 
d="M496 557h-286l21 116h287zM332 496q108 0 166.5 -67t41.5 -176q-2 -12 -5 -24l-5.5 -22t-2.5 -12h-343q6 -35 29 -56t64 -21q52 0 77 34h164q-31 -75 -101.5 -119t-161.5 -44q-118 0 -180 72t-43 182t103.5 181.5t196.5 71.5zM315 373q-82 0 -117 -83h199q4 83 -82 83z
" />
    <glyph glyph-name="Edotaccent" unicode="&#x116;" horiz-adv-x="617" 
d="M389 743q-38 0 -65 25.5t-27 62.5t27 62.5t65 25.5t64.5 -25.5t26.5 -62.5t-26.5 -62.5t-64.5 -25.5zM273 533l-22 -124h302l-26 -144h-301l-21 -118h346l-26 -147h-515l120 680h515l-26 -147h-346z" />
    <glyph glyph-name="edotaccent" unicode="&#x117;" horiz-adv-x="569" 
d="M343 537q-38 0 -65 25.5t-27 62.5t27 62.5t65 25.5t64.5 -25.5t26.5 -62.5t-26.5 -62.5t-64.5 -25.5zM332 496q108 0 166.5 -67t41.5 -176q-2 -12 -5 -24l-5.5 -22t-2.5 -12h-343q6 -35 29 -56t64 -21q52 0 77 34h164q-31 -75 -101.5 -119t-161.5 -44q-118 0 -180 72
t-43 182t103.5 181.5t196.5 71.5zM315 373q-82 0 -117 -83h199q4 83 -82 83z" />
    <glyph glyph-name="Eogonek" unicode="&#x118;" horiz-adv-x="617" 
d="M273 533l-22 -124h302l-26 -144h-301l-21 -118h346l-26 -147h-38q-39 -11 -39 -35q0 -28 50 -28q20 0 47 7l15 -120q-28 -14 -81 -14q-72 0 -118 34t-46 93q0 33 24 63h-329l120 680h515l-26 -147h-346z" />
    <glyph glyph-name="eogonek" unicode="&#x119;" horiz-adv-x="569" 
d="M332 496q108 0 166.5 -67t41.5 -176q-2 -12 -5 -24l-5.5 -22t-2.5 -12h-343q6 -35 29 -56t64 -21q52 0 77 34h164q-27 -65 -83 -106q-38 -34 -38 -58q0 -34 49 -34q21 0 48 7l15 -120q-28 -14 -82 -14q-69 0 -113 34t-44 89q0 21 8 40l-23 -1q-118 0 -180 72t-43 182
t103.5 181.5t196.5 71.5zM315 373q-82 0 -117 -83h199q4 83 -82 83z" />
    <glyph glyph-name="Ecaron" unicode="&#x11a;" horiz-adv-x="617" 
d="M326 740l-89 160h137l43 -72l65 72h144l-145 -160h-155zM273 533l-22 -124h302l-26 -144h-301l-21 -118h346l-26 -147h-515l120 680h515l-26 -147h-346z" />
    <glyph glyph-name="ecaron" unicode="&#x11b;" horiz-adv-x="569" 
d="M268 538l-89 160h137l43 -72l65 72h144l-145 -160h-155zM332 496q108 0 166.5 -67t41.5 -176q-2 -12 -5 -24l-5.5 -22t-2.5 -12h-343q6 -35 29 -56t64 -21q52 0 77 34h164q-31 -75 -101.5 -119t-161.5 -44q-118 0 -180 72t-43 182t103.5 181.5t196.5 71.5zM315 373
q-82 0 -117 -83h199q4 83 -82 83z" />
    <glyph glyph-name="Gbreve" unicode="&#x11e;" horiz-adv-x="803" 
d="M491 748q-78 0 -120 44.5t-28 124.5h115q-12 -65 46 -65q25 0 45.5 16.5t25.5 48.5h118q-15 -81 -69.5 -125t-132.5 -44zM409 382h365l-8 -43l-60 -339h-126l7 82q-94 -96 -232 -96q-158 0 -242.5 99.5t-58.5 247.5q28 158 149.5 259.5t278.5 101.5q127 0 208 -68.5
t86 -187.5h-171q-19 105 -145 105q-87 0 -152.5 -58.5t-81.5 -151.5q-14 -80 30.5 -135t132.5 -55q119 0 191 104l-194 2z" />
    <glyph glyph-name="gbreve" unicode="&#x11f;" horiz-adv-x="622" 
d="M381 530q-78 0 -120 44.5t-28 124.5h115q-12 -65 46 -65q25 0 45.5 16.5t25.5 48.5h118q-15 -81 -69.5 -125t-132.5 -44zM612 485l-84 -477q-19 -113 -99.5 -176.5t-198.5 -63.5q-106 0 -169 58t-60 152h160q0 -73 89 -73q44 0 75.5 26t39.5 74l8 47q-64 -35 -138 -35
q-88 0 -145.5 58.5t-57.5 144.5q0 118 87.5 200t200.5 82q75 0 127 -36l3 19h162zM290 146q60 0 108 45l23 133q-30 46 -92 46q-56 0 -96 -38t-40 -92q0 -38 27 -66t70 -28z" />
    <glyph glyph-name="Gdotaccent" unicode="&#x120;" horiz-adv-x="803" 
d="M485 743q-38 0 -65 25.5t-27 62.5t27 62.5t65 25.5t64.5 -25.5t26.5 -62.5t-26.5 -62.5t-64.5 -25.5zM409 382h365l-8 -43l-60 -339h-126l7 82q-94 -96 -232 -96q-158 0 -242.5 99.5t-58.5 247.5q28 158 149.5 259.5t278.5 101.5q127 0 208 -68.5t86 -187.5h-171
q-19 105 -145 105q-87 0 -152.5 -58.5t-81.5 -151.5q-14 -80 30.5 -135t132.5 -55q119 0 191 104l-194 2z" />
    <glyph glyph-name="gdotaccent" unicode="&#x121;" horiz-adv-x="622" 
d="M373 537q-38 0 -65 25.5t-27 62.5t27 62.5t65 25.5t64.5 -25.5t26.5 -62.5t-26.5 -62.5t-64.5 -25.5zM612 485l-84 -477q-19 -113 -99.5 -176.5t-198.5 -63.5q-106 0 -169 58t-60 152h160q0 -73 89 -73q44 0 75.5 26t39.5 74l8 47q-64 -35 -138 -35q-88 0 -145.5 58.5
t-57.5 144.5q0 118 87.5 200t200.5 82q75 0 127 -36l3 19h162zM290 146q60 0 108 45l23 133q-30 46 -92 46q-56 0 -96 -38t-40 -92q0 -38 27 -66t70 -28z" />
    <glyph glyph-name="Gcommaaccent" unicode="&#x122;" horiz-adv-x="803" 
d="M409 382h365l-8 -43l-60 -339h-126l7 82q-94 -96 -232 -96q-158 0 -242.5 99.5t-58.5 247.5q28 158 149.5 259.5t278.5 101.5q127 0 208 -68.5t86 -187.5h-171q-19 105 -145 105q-87 0 -152.5 -58.5t-81.5 -151.5q-14 -80 30.5 -135t132.5 -55q119 0 191 104l-194 2z
M348 -41q35 0 59.5 -23t24.5 -56q0 -25 -16 -50t-79 -101h-87l62 83q-49 20 -49 68q0 33 25 56t60 23z" />
    <glyph glyph-name="gcommaaccent" unicode="&#x123;" horiz-adv-x="622" 
d="M373 526q-35 0 -59.5 23t-24.5 56q0 25 16 50t79 101h87l-62 -83q49 -20 49 -68q0 -33 -25 -56t-60 -23zM612 485l-84 -477q-19 -113 -99.5 -176.5t-198.5 -63.5q-106 0 -169 58t-60 152h160q0 -73 89 -73q44 0 75.5 26t39.5 74l8 47q-64 -35 -138 -35q-88 0 -145.5 58.5
t-57.5 144.5q0 118 87.5 200t200.5 82q75 0 127 -36l3 19h162zM290 146q60 0 108 45l23 133q-30 46 -92 46q-56 0 -96 -38t-40 -92q0 -38 27 -66t70 -28z" />
    <glyph glyph-name="Hbar" unicode="&#x126;" horiz-adv-x="738" 
d="M760 485h-40l-86 -485h-169l45 255h-277l-45 -255h-169l86 485h-41l21 115h40l14 80h169l-14 -80h277l14 80h169l-14 -80h41zM551 485h-277l-14 -78h277z" />
    <glyph glyph-name="hbar" unicode="&#x127;" horiz-adv-x="604" 
d="M400 500q93 0 139 -60.5t27 -162.5l-48 -277h-162l44 251q9 51 -10 76.5t-61 25.5q-46 0 -97 -48l-54 -305h-162l101 575h-51l17 95h51l7 40h162l-7 -40h91l-16 -95h-92l-21 -123q68 48 142 48z" />
    <glyph glyph-name="Imacron" unicode="&#x12a;" horiz-adv-x="292" 
d="M401 867l-22 -116h-286l21 116h287zM188 0h-169l120 680h169z" />
    <glyph glyph-name="imacron" unicode="&#x12b;" horiz-adv-x="272" 
d="M354 673l-21 -116h-287l22 116h286zM261 485l-86 -485h-162l86 485h162z" />
    <glyph glyph-name="Iogonek" unicode="&#x12e;" horiz-adv-x="292" 
d="M162 -63q20 0 47 7l15 -120q-28 -14 -81 -14q-72 0 -118 34t-46 93q0 46 43 82l117 661h169l-120 -680h-37q-39 -11 -39 -35q0 -28 50 -28z" />
    <glyph glyph-name="iogonek" unicode="&#x12f;" horiz-adv-x="289" 
d="M217 744q39 0 67 -26.5t28 -65.5t-28 -65t-67 -26q-40 0 -67.5 26t-27.5 65t27.5 65.5t67.5 26.5zM185 0h-35q-39 -11 -39 -35q0 -28 50 -28q20 0 47 7l15 -120q-28 -14 -81 -14q-72 0 -118 34t-46 93q0 50 49 86l81 462h163z" />
    <glyph glyph-name="Idotaccent" unicode="&#x130;" horiz-adv-x="292" 
d="M235 745q-39 0 -66.5 26t-27.5 65t27.5 65t66.5 26t67 -26t28 -65t-28 -65t-67 -26zM188 0h-169l120 680h169z" />
    <glyph glyph-name="dotlessi" unicode="&#x131;" horiz-adv-x="272" 
d="M261 485l-85 -485h-163l86 485h162z" />
    <glyph glyph-name="IJ" unicode="&#x132;" horiz-adv-x="905" 
d="M188 0h-169l120 680h169zM933 680l-72 -408q-25 -140 -112 -213.5t-215 -73.5q-119 0 -183.5 69.5t-48.5 186.5h168q-5 -48 16 -75t70 -27q50 0 86.5 36t47.5 97l72 408h171z" />
    <glyph glyph-name="ij" unicode="&#x133;" horiz-adv-x="560" 
d="M217 561q-40 0 -67.5 26t-27.5 65t27.5 65.5t67.5 26.5q39 0 67 -26.5t28 -65.5t-28 -65t-67 -26zM506 561q-40 0 -67.5 26t-27.5 65t27.5 65.5t67.5 26.5q39 0 67 -26.5t28 -65.5t-28 -65t-67 -26zM271 485l-86 -485h-162l85 485h163zM555 485l-79 -446
q-21 -120 -82 -178.5t-198 -61.5l9 135q54 8 76 25t29 59l83 467h162z" />
    <glyph glyph-name="Kcommaaccent" unicode="&#x136;" horiz-adv-x="736" 
d="M467 383l214 -383h-206l-146 250l-116 -111l-25 -139h-169l120 680h169l-52 -294l309 294h213zM317 -41q35 0 59.5 -23t24.5 -56q0 -25 -16 -50t-79 -101h-87l62 83q-49 20 -49 68q0 33 25 56t60 23z" />
    <glyph glyph-name="kcommaaccent" unicode="&#x137;" horiz-adv-x="598" 
d="M398 287l148 -287h-194l-86 168l-80 -73l-17 -95h-162l126 710h162l-72 -407l200 182h194zM237 -41q35 0 59.5 -23t24.5 -56q0 -25 -16 -50t-79 -101h-87l62 83q-49 20 -49 68q0 33 25 56t60 23z" />
    <glyph glyph-name="Lacute" unicode="&#x139;" horiz-adv-x="601" 
d="M316 750h-151l108 160h171zM551 149l-27 -149h-505l120 680h169l-94 -531h337z" />
    <glyph glyph-name="lacute" unicode="&#x13a;" horiz-adv-x="269" 
d="M437 929l-128 -160h-151l108 160h171zM298 710l-126 -710h-162l126 710h162z" />
    <glyph glyph-name="Lcommaaccent" unicode="&#x13b;" horiz-adv-x="601" 
d="M551 149l-27 -149h-505l120 680h169l-94 -531h337zM255 -41q35 0 59.5 -23t24.5 -56q0 -25 -16 -50t-79 -101h-87l62 83q-49 20 -49 68q0 33 25 56t60 23z" />
    <glyph glyph-name="lcommaaccent" unicode="&#x13c;" horiz-adv-x="269" 
d="M298 710l-126 -710h-162l126 710h162zM-26 -271l62 83q-49 20 -49 68q0 33 25 56t60 23t59.5 -23t24.5 -56q0 -25 -16 -50t-79 -101h-87z" />
    <glyph glyph-name="Lcaron" unicode="&#x13d;" horiz-adv-x="601" 
d="M551 149l-27 -149h-505l120 680h169l-94 -531h337zM464 476h-115l40 204h148z" />
    <glyph glyph-name="lcaron" unicode="&#x13e;" horiz-adv-x="269" 
d="M298 710l-126 -710h-162l126 710h162zM491 710l-73 -204h-115l40 204h148z" />
    <glyph glyph-name="Ldot" unicode="&#x13f;" horiz-adv-x="601" 
d="M551 149l-27 -149h-505l120 680h169l-94 -531h337zM418 265q-38 0 -64.5 25.5t-26.5 62.5t26.5 62.5t64.5 25.5t65 -25.5t27 -62.5t-27 -62.5t-65 -25.5z" />
    <glyph glyph-name="ldot" unicode="&#x140;" horiz-adv-x="462" 
d="M298 710l-126 -710h-162l126 710h162zM353 256q-38 0 -65 25.5t-27 62.5t27 62.5t65 25.5t64.5 -25.5t26.5 -62.5t-26.5 -62.5t-64.5 -25.5z" />
    <glyph glyph-name="Lslash" unicode="&#x141;" horiz-adv-x="601" 
d="M551 149l-27 -149h-505l42 236l-59 -20l23 133l59 20l55 311h169l-44 -250l158 53l-23 -133l-159 -54l-26 -147h337z" />
    <glyph glyph-name="lslash" unicode="&#x142;" horiz-adv-x="269" 
d="M287 338l-59 -20l-56 -318h-162l46 258l-57 -20l26 147l57 20l54 305h162l-44 -246l58 20z" />
    <glyph glyph-name="Nacute" unicode="&#x143;" horiz-adv-x="747" 
d="M518 750h-151l108 160h171zM764 680l-120 -680h-130l-260 377l-66 -377h-169l120 680h117l270 -392l70 392h168z" />
    <glyph glyph-name="nacute" unicode="&#x144;" horiz-adv-x="604" 
d="M434 544h-151l108 160h171zM393 500q93 0 139.5 -60.5t27.5 -162.5l-48 -277h-162l44 251q9 51 -10 76.5t-61 25.5q-46 0 -97 -48l-54 -305h-162l85 485h163l-6 -32q70 47 141 47z" />
    <glyph glyph-name="Ncommaaccent" unicode="&#x145;" horiz-adv-x="747" 
d="M764 680l-120 -680h-130l-260 377l-66 -377h-169l120 680h117l270 -392l70 392h168zM329 -41q35 0 59.5 -23t24.5 -56q0 -25 -16 -50t-79 -101h-87l62 83q-49 20 -49 68q0 33 25 56t60 23z" />
    <glyph glyph-name="ncommaaccent" unicode="&#x146;" horiz-adv-x="604" 
d="M393 500q93 0 139.5 -60.5t27.5 -162.5l-48 -277h-162l44 251q9 51 -10 76.5t-61 25.5q-46 0 -97 -48l-54 -305h-162l85 485h163l-6 -32q70 47 141 47zM243 -41q35 0 59.5 -23t24.5 -56q0 -25 -16 -50t-79 -101h-87l62 83q-49 20 -49 68q0 33 25 56t60 23z" />
    <glyph glyph-name="Ncaron" unicode="&#x147;" horiz-adv-x="747" 
d="M373 740l-89 160h137l43 -72l65 72h144l-145 -160h-155zM764 680l-120 -680h-130l-260 377l-66 -377h-169l120 680h117l270 -392l70 392h168z" />
    <glyph glyph-name="ncaron" unicode="&#x148;" horiz-adv-x="604" 
d="M275 538l-89 160h137l43 -72l65 72h144l-145 -160h-155zM393 500q93 0 139.5 -60.5t27.5 -162.5l-48 -277h-162l44 251q9 51 -10 76.5t-61 25.5q-46 0 -97 -48l-54 -305h-162l85 485h163l-6 -32q70 47 141 47z" />
    <glyph glyph-name="Omacron" unicode="&#x14c;" horiz-adv-x="806" 
d="M663 867l-22 -116h-286l21 116h287zM480 694q137 0 222 -85.5t85 -215.5q0 -109 -59.5 -203.5t-157.5 -149t-209 -54.5q-137 0 -222 85.5t-85 215.5q0 109 59.5 203.5t157.5 149t209 54.5zM383 145q90 0 160 68t69 161q0 69 -41.5 115t-115.5 46q-93 0 -160.5 -68
t-66.5 -160q1 -69 42 -115.5t113 -46.5z" />
    <glyph glyph-name="omacron" unicode="&#x14d;" horiz-adv-x="592" 
d="M521 673l-22 -116h-286l21 116h287zM341 496q101 0 161.5 -60t60.5 -154q0 -124 -91.5 -210.5t-220.5 -86.5q-101 0 -161.5 61t-60.5 156q0 124 91 209t221 85zM277 125q55 0 93.5 40t37.5 95q0 41 -25 68.5t-67 27.5q-56 0 -94 -39.5t-38 -94.5q1 -42 26 -69.5t67 -27.5
z" />
    <glyph glyph-name="Ohungarumlaut" unicode="&#x150;" horiz-adv-x="806" 
d="M557 911l-84 -160h-128l64 160h148zM724 911l-84 -160h-127l63 160h148zM480 694q137 0 222 -85.5t85 -215.5q0 -109 -59.5 -203.5t-157.5 -149t-209 -54.5q-137 0 -222 85.5t-85 215.5q0 109 59.5 203.5t157.5 149t209 54.5zM383 145q90 0 160 68t69 161q0 69 -41.5 115
t-115.5 46q-93 0 -160.5 -68t-66.5 -160q1 -69 42 -115.5t113 -46.5z" />
    <glyph glyph-name="ohungarumlaut" unicode="&#x151;" horiz-adv-x="592" 
d="M413 705l-84 -160h-128l64 160h148zM580 705l-84 -160h-127l63 160h148zM341 496q101 0 161.5 -60t60.5 -154q0 -124 -91.5 -210.5t-220.5 -86.5q-101 0 -161.5 61t-60.5 156q0 124 91 209t221 85zM277 125q55 0 93.5 40t37.5 95q0 41 -25 68.5t-67 27.5q-56 0 -94 -39.5
t-38 -94.5q1 -42 26 -69.5t67 -27.5z" />
    <glyph glyph-name="OE" unicode="&#x152;" horiz-adv-x="1018" 
d="M674 533l-22 -124h302l-25 -144h-302l-21 -118h345l-26 -147h-551q-145 0 -232 80.5t-87 207.5q0 167 127.5 279.5t311.5 112.5h551l-26 -147h-345zM439 158l64 364h-37q-103 0 -170.5 -60t-67.5 -150q0 -69 46.5 -111.5t127.5 -42.5h37z" />
    <glyph glyph-name="oe" unicode="&#x153;" horiz-adv-x="946" 
d="M708 496q109 0 167 -67t41 -176q-5 -33 -13 -58h-342q11 -77 92 -77q54 0 77 34h164q-30 -75 -100.5 -119t-162.5 -44q-114 0 -176 68q-88 -72 -204 -72q-101 0 -161.5 61t-60.5 156q0 124 91 209t221 85q109 0 172 -71q84 71 195 71zM692 373q-82 0 -117 -83h199
q4 83 -82 83zM277 125q55 0 93.5 40t37.5 95q0 41 -25 68.5t-67 27.5q-56 0 -94 -39.5t-38 -94.5q1 -42 26 -69.5t67 -27.5z" />
    <glyph glyph-name="Racute" unicode="&#x154;" horiz-adv-x="699" 
d="M466 750h-151l108 160h171zM680 476q0 -81 -46 -146.5t-125 -100.5l134 -229h-197l-111 197h-112l-35 -197h-169l120 680h284q119 0 188 -54t69 -150zM250 349h125q54 0 94 29.5t40 73.5q0 37 -28.5 58t-73.5 21h-125z" />
    <glyph glyph-name="racute" unicode="&#x155;" horiz-adv-x="407" 
d="M347 544h-151l108 160h171zM258 485l-9 -52q79 60 177 60l-27 -154q-109 -4 -178 -61l-49 -278h-162l85 485h163z" />
    <glyph glyph-name="Rcommaaccent" unicode="&#x156;" horiz-adv-x="699" 
d="M680 476q0 -81 -46 -146.5t-125 -100.5l134 -229h-197l-111 197h-112l-35 -197h-169l120 680h284q119 0 188 -54t69 -150zM250 349h125q54 0 94 29.5t40 73.5q0 37 -28.5 58t-73.5 21h-125zM291 -41q35 0 59.5 -23t24.5 -56q0 -25 -16 -50t-79 -101h-87l62 83
q-49 20 -49 68q0 33 25 56t60 23z" />
    <glyph glyph-name="rcommaaccent" unicode="&#x157;" horiz-adv-x="407" 
d="M426 493l-27 -154q-109 -4 -178 -61l-49 -278h-162l85 485h163l-9 -52q79 60 177 60zM72 -41q35 0 59.5 -23t24.5 -56q0 -25 -16 -50t-79 -101h-87l62 83q-49 20 -49 68q0 33 25 56t60 23z" />
    <glyph glyph-name="Rcaron" unicode="&#x158;" horiz-adv-x="699" 
d="M321 740l-89 160h137l43 -72l65 72h144l-145 -160h-155zM680 476q0 -81 -46 -146.5t-125 -100.5l134 -229h-197l-111 197h-112l-35 -197h-169l120 680h284q119 0 188 -54t69 -150zM250 349h125q54 0 94 29.5t40 73.5q0 37 -28.5 58t-73.5 21h-125z" />
    <glyph glyph-name="rcaron" unicode="&#x159;" horiz-adv-x="407" 
d="M188 538l-89 160h137l43 -72l65 72h144l-145 -160h-155zM258 485l-9 -52q79 60 177 60l-27 -154q-109 -4 -178 -61l-49 -278h-162l85 485h163z" />
    <glyph glyph-name="Sacute" unicode="&#x15a;" horiz-adv-x="674" 
d="M617 910l-128 -160h-151l108 160h171zM413 695q36 0 70 -5.5t70 -21.5t61 -40t39.5 -65t9.5 -94h-169q1 40 -22 63t-73 23q-49 0 -79.5 -20.5t-30.5 -56.5q0 -22 16.5 -34.5t51.5 -20.5l91 -22q84 -19 129 -57.5t45 -105.5q0 -114 -90 -183t-234 -69q-122 0 -196.5 60
t-68.5 180h169q1 -96 126 -96q52 0 79.5 18.5t27.5 49.5q0 37 -62 50l-108 25q-171 38 -165 180q4 115 95 178.5t218 63.5z" />
    <glyph glyph-name="sacute" unicode="&#x15b;" horiz-adv-x="517" 
d="M522 704l-128 -160h-151l108 160h171zM10 167l145 -1q-1 -31 20.5 -46t60.5 -15q76 0 76 38q0 23 -42 30l-94 17q-55 9 -87.5 40t-32.5 81q0 86 69.5 136.5t178.5 50.5q90 0 149 -40t49 -128h-145q2 27 -17 40.5t-54 13.5q-32 0 -50.5 -11t-18.5 -28q0 -26 44 -34l88 -15
q128 -27 128 -124q0 -90 -73.5 -138.5t-185.5 -48.5q-100 0 -157 45t-51 137z" />
    <glyph glyph-name="Scedilla" unicode="&#x15e;" horiz-adv-x="674" 
d="M413 695q36 0 70 -5.5t70 -21.5t61 -40t39.5 -65t9.5 -94h-169q1 40 -22 63t-73 23q-49 0 -79.5 -20.5t-30.5 -56.5q0 -22 16.5 -34.5t51.5 -20.5l91 -22q84 -19 129 -57.5t45 -105.5q0 -114 -90 -183t-234 -69q-122 0 -196.5 60t-68.5 180h169q1 -96 126 -96
q52 0 79.5 18.5t27.5 49.5q0 37 -62 50l-108 25q-171 38 -165 180q4 115 95 178.5t218 63.5zM257 -228h-138l87 177h155z" />
    <glyph glyph-name="scedilla" unicode="&#x15f;" horiz-adv-x="517" 
d="M10 167l145 -1q-1 -31 20.5 -46t60.5 -15q76 0 76 38q0 23 -42 30l-94 17q-55 9 -87.5 40t-32.5 81q0 86 69.5 136.5t178.5 50.5q90 0 149 -40t49 -128h-145q2 27 -17 40.5t-54 13.5q-32 0 -50.5 -11t-18.5 -28q0 -26 44 -34l88 -15q128 -27 128 -124q0 -90 -73.5 -138.5
t-185.5 -48.5q-100 0 -157 45t-51 137zM182 -228h-138l87 177h155z" />
    <glyph glyph-name="Scaron" unicode="&#x160;" horiz-adv-x="674" 
d="M644 900l-145 -160h-155l-89 160h137l43 -72l65 72h144zM413 695q36 0 70 -5.5t70 -21.5t61 -40t39.5 -65t9.5 -94h-169q1 40 -22 63t-73 23q-49 0 -79.5 -20.5t-30.5 -56.5q0 -22 16.5 -34.5t51.5 -20.5l91 -22q84 -19 129 -57.5t45 -105.5q0 -114 -90 -183t-234 -69
q-122 0 -196.5 60t-68.5 180h169q1 -96 126 -96q52 0 79.5 18.5t27.5 49.5q0 37 -62 50l-108 25q-171 38 -165 180q4 115 95 178.5t218 63.5z" />
    <glyph glyph-name="scaron" unicode="&#x161;" horiz-adv-x="517" 
d="M535 698l-145 -160h-155l-89 160h137l43 -72l65 72h144zM10 167l145 -1q-1 -31 20.5 -46t60.5 -15q76 0 76 38q0 23 -42 30l-94 17q-55 9 -87.5 40t-32.5 81q0 86 69.5 136.5t178.5 50.5q90 0 149 -40t49 -128h-145q2 27 -17 40.5t-54 13.5q-32 0 -50.5 -11t-18.5 -28
q0 -26 44 -34l88 -15q128 -27 128 -124q0 -90 -73.5 -138.5t-185.5 -48.5q-100 0 -157 45t-51 137z" />
    <glyph glyph-name="Tcedilla" unicode="&#x162;" horiz-adv-x="648" 
d="M675 529h-217l-93 -529h-169l93 529h-216l27 151h602zM192 -51h155l-104 -177h-138z" />
    <glyph glyph-name="tcedilla" unicode="&#x163;" horiz-adv-x="465" 
d="M282 346l-24 -139q-13 -73 56 -73q26 0 95 13l-6 -138q-79 -24 -146 -24q-88 0 -133.5 61t-28.5 156l25 144h-94l24 139h95l29 165h162l-29 -165h165l-24 -139h-166zM149 -51h155l-104 -177h-138z" />
    <glyph glyph-name="Tcaron" unicode="&#x164;" horiz-adv-x="648" 
d="M329 740l-89 160h137l43 -72l65 72h144l-145 -160h-155zM675 529h-217l-93 -529h-169l93 529h-216l27 151h602z" />
    <glyph glyph-name="tcaron" unicode="&#x165;" horiz-adv-x="465" 
d="M545 718l-73 -204h-115l40 204h148zM307 485h165l-24 -139h-166l-24 -139q-13 -73 56 -73q26 0 95 13l-6 -138q-79 -24 -146 -24q-88 0 -133.5 61t-28.5 156l25 144h-94l24 139h95l29 165h162z" />
    <glyph glyph-name="Umacron" unicode="&#x16a;" horiz-adv-x="731" 
d="M608 867l-22 -116h-286l21 116h287zM760 680l-64 -363q-60 -332 -372 -332q-145 0 -216 91.5t-45 240.5l64 363h170l-64 -366q-14 -80 15.5 -125.5t100.5 -45.5q67 0 115 46.5t61 124.5l65 366h170z" />
    <glyph glyph-name="umacron" unicode="&#x16b;" horiz-adv-x="609" 
d="M503 557h-286l21 116h287zM594 485l-86 -485h-162l6 32q-68 -47 -142 -47q-93 0 -139 60.5t-27 162.5l48 277h162l-44 -252q-9 -50 10 -76t60 -26q47 0 98 48l54 306h162z" />
    <glyph glyph-name="Uring" unicode="&#x16e;" horiz-adv-x="731" 
d="M456 972q55 0 89.5 -31.5t34.5 -83.5t-34.5 -84t-89.5 -32t-89.5 32t-34.5 84t34.5 83.5t89.5 31.5zM456 814q20 0 32 11.5t12 31.5q0 19 -12 31t-32 12t-32 -12t-12 -31q0 -20 12 -31.5t32 -11.5zM760 680l-64 -363q-60 -332 -372 -332q-145 0 -216 91.5t-45 240.5
l64 363h170l-64 -366q-14 -80 15.5 -125.5t100.5 -45.5q67 0 115 46.5t61 124.5l65 366h170z" />
    <glyph glyph-name="uring" unicode="&#x16f;" horiz-adv-x="609" 
d="M353 528q-55 0 -89.5 32t-34.5 84t34.5 83.5t89.5 31.5t89.5 -31.5t34.5 -83.5t-34.5 -84t-89.5 -32zM353 687q-20 0 -32 -12t-12 -31q0 -20 12 -31.5t32 -11.5t32 11.5t12 31.5q0 19 -12 31t-32 12zM594 485l-86 -485h-162l6 32q-68 -47 -142 -47q-93 0 -139 60.5
t-27 162.5l48 277h162l-44 -252q-9 -50 10 -76t60 -26q47 0 98 48l54 306h162z" />
    <glyph glyph-name="Uhungarumlaut" unicode="&#x170;" horiz-adv-x="731" 
d="M502 911l-84 -160h-128l64 160h148zM669 911l-84 -160h-127l63 160h148zM760 680l-64 -363q-60 -332 -372 -332q-145 0 -216 91.5t-45 240.5l64 363h170l-64 -366q-14 -80 15.5 -125.5t100.5 -45.5q67 0 115 46.5t61 124.5l65 366h170z" />
    <glyph glyph-name="uhungarumlaut" unicode="&#x171;" horiz-adv-x="609" 
d="M333 545h-128l64 160h148zM373 545l63 160h148l-84 -160h-127zM594 485l-86 -485h-162l6 32q-68 -47 -142 -47q-93 0 -139 60.5t-27 162.5l48 277h162l-44 -252q-9 -50 10 -76t60 -26q47 0 98 48l54 306h162z" />
    <glyph glyph-name="Uogonek" unicode="&#x172;" horiz-adv-x="731" 
d="M760 680l-64 -363q-39 -217 -189 -293q-70 -47 -70 -88q0 -33 47 -33q20 0 47 7l15 -128q-30 -13 -81 -13q-70 0 -112.5 32.5t-42.5 87.5q0 49 44 97l-30 -1q-145 0 -216 91.5t-45 240.5l64 363h170l-64 -366q-14 -80 15.5 -125.5t100.5 -45.5q67 0 115 46.5t61 124.5
l65 366h170z" />
    <glyph glyph-name="uogonek" unicode="&#x173;" horiz-adv-x="609" 
d="M487 -66q20 0 47 7l15 -120q-28 -14 -81 -14q-72 0 -118 34t-46 93q0 47 45 83l3 15q-68 -47 -142 -47q-93 0 -139 60.5t-27 162.5l48 277h162l-44 -252q-9 -50 10 -76t60 -26q47 0 98 48l54 306h162l-86 -485h-20q-51 -12 -51 -38q0 -28 50 -28z" />
    <glyph glyph-name="Wcircumflex" unicode="&#x174;" horiz-adv-x="1074" 
d="M579 750h-146l145 164h153l88 -164h-136l-43 73zM1133 680l-341 -684h-163l-63 410l-211 -408v-2h-164l1 2l-99 682h177l52 -413l221 413h139l70 -417l199 417h182z" />
    <glyph glyph-name="wcircumflex" unicode="&#x175;" horiz-adv-x="802" 
d="M409 537h-146l145 164h153l88 -164h-136l-43 73zM835 485l-242 -485h-157l-33 252l-123 -252h-147l-81 485h170l29 -259l128 259h129l38 -258l120 258h169z" />
    <glyph glyph-name="Ycircumflex" unicode="&#x176;" horiz-adv-x="714" 
d="M379 750h-146l145 164h153l88 -164h-136l-43 73zM434 205l-35 -205h-170l36 206l-185 474h184l111 -286l212 286h200z" />
    <glyph glyph-name="ycircumflex" unicode="&#x177;" horiz-adv-x="640" 
d="M325 537h-146l145 164h153l88 -164h-136l-43 73zM664 485l-423 -709h-176l134 224l-142 485h172l85 -293l175 293h175z" />
    <glyph glyph-name="Ydieresis" unicode="&#x178;" horiz-adv-x="714" 
d="M325 746q-38 0 -63.5 24t-25.5 61q0 36 25.5 60.5t63.5 24.5q37 0 62.5 -24.5t25.5 -60.5t-25.5 -60.5t-62.5 -24.5zM547 746q-37 0 -63 24.5t-26 60.5t26 60.5t63 24.5t63 -24.5t26 -60.5t-26 -60.5t-63 -24.5zM434 205l-35 -205h-170l36 206l-185 474h184l111 -286
l212 286h200z" />
    <glyph glyph-name="Zacute" unicode="&#x179;" horiz-adv-x="653" 
d="M488 750h-151l108 160h171zM673 599l-395 -450h324l-26 -149h-589l14 80h-1l412 451h-315l26 149h566l-14 -80z" />
    <glyph glyph-name="zacute" unicode="&#x17a;" horiz-adv-x="508" 
d="M388 544h-151l108 160h171zM509 399l-267 -265h220l-23 -134h-453l14 79l273 271h-222l24 135h448z" />
    <glyph glyph-name="Zdotaccent" unicode="&#x17b;" horiz-adv-x="653" 
d="M405 743q-38 0 -65 25.5t-27 62.5t27 62.5t65 25.5t64.5 -25.5t26.5 -62.5t-26.5 -62.5t-64.5 -25.5zM673 599l-395 -450h324l-26 -149h-589l14 80h-1l412 451h-315l26 149h566l-14 -80z" />
    <glyph glyph-name="zdotaccent" unicode="&#x17c;" horiz-adv-x="508" 
d="M304 537q-38 0 -65 25.5t-27 62.5t27 62.5t65 25.5t64.5 -25.5t26.5 -62.5t-26.5 -62.5t-64.5 -25.5zM509 399l-267 -265h220l-23 -134h-453l14 79l273 271h-222l24 135h448z" />
    <glyph glyph-name="Zcaron" unicode="&#x17d;" horiz-adv-x="653" 
d="M342 740l-89 160h137l43 -72l65 72h144l-145 -160h-155zM673 599l-395 -450h324l-26 -149h-589l14 80h-1l412 451h-315l26 149h566l-14 -80z" />
    <glyph glyph-name="zcaron" unicode="&#x17e;" horiz-adv-x="508" 
d="M229 538l-89 160h137l43 -72l65 72h144l-145 -160h-155zM523 485l-14 -86l-267 -265h220l-23 -134h-453l14 79l273 271h-222l24 135h448z" />
    <glyph glyph-name="florin" unicode="&#x192;" horiz-adv-x="591" 
d="M537 538q-72 0 -97 -80l-23 -73h153l-23 -129h-171l-48 -151q-34 -108 -99.5 -168t-156.5 -60q-57 0 -126 19l46 138q41 -9 73 -9q73 0 98 79l48 152h-122l22 129h140l23 73q35 108 100 167.5t156 59.5q62 0 127 -18l-46 -138q-43 9 -74 9z" />
    <glyph glyph-name="Acaron" unicode="&#x1cd;" horiz-adv-x="763" 
d="M392 740l-89 160h137l43 -72l65 72h144l-145 -160h-155zM503 117h-284l-66 -117h-184l410 684h161l167 -684h-179zM472 261l-47 218l-124 -218h171z" />
    <glyph glyph-name="acaron" unicode="&#x1ce;" horiz-adv-x="621" 
d="M299 538l-89 160h137l43 -72l65 72h144l-145 -160h-155zM612 485l-86 -485h-162l5 26q-63 -36 -139 -36q-88 0 -144 59t-56 154q0 121 88.5 207t201.5 86q74 0 125 -35l4 24h163zM286 123q60 0 107 43l27 154q-31 44 -91 44q-56 0 -97 -41.5t-41 -98.5q0 -45 26.5 -73
t68.5 -28z" />
    <glyph glyph-name="Scommaaccent" unicode="&#x218;" horiz-adv-x="674" 
d="M413 695q36 0 70 -5.5t70 -21.5t61 -40t39.5 -65t9.5 -94h-169q1 40 -22 63t-73 23q-49 0 -79.5 -20.5t-30.5 -56.5q0 -22 16.5 -34.5t51.5 -20.5l91 -22q84 -19 129 -57.5t45 -105.5q0 -114 -90 -183t-234 -69q-122 0 -196.5 60t-68.5 180h169q1 -96 126 -96
q52 0 79.5 18.5t27.5 49.5q0 37 -62 50l-108 25q-171 38 -165 180q4 115 95 178.5t218 63.5zM172 -271l62 83q-49 20 -49 68q0 33 25 56t60 23t59.5 -23t24.5 -56q0 -25 -16 -50t-79 -101h-87z" />
    <glyph glyph-name="scommaaccent" unicode="&#x219;" horiz-adv-x="517" 
d="M10 167l145 -1q-1 -31 20.5 -46t60.5 -15q76 0 76 38q0 23 -42 30l-94 17q-55 9 -87.5 40t-32.5 81q0 86 69.5 136.5t178.5 50.5q90 0 149 -40t49 -128h-145q2 27 -17 40.5t-54 13.5q-32 0 -50.5 -11t-18.5 -28q0 -26 44 -34l88 -15q128 -27 128 -124q0 -90 -73.5 -138.5
t-185.5 -48.5q-100 0 -157 45t-51 137zM97 -271l62 83q-49 20 -49 68q0 33 25 56t60 23t59.5 -23t24.5 -56q0 -25 -16 -50t-79 -101h-87z" />
    <glyph glyph-name="uni021A" unicode="&#x21a;" horiz-adv-x="648" 
d="M675 529h-217l-93 -529h-169l93 529h-216l27 151h602zM256 -41q35 0 59.5 -23t24.5 -56q0 -25 -16 -50t-79 -101h-87l62 83q-49 20 -49 68q0 33 25 56t60 23z" />
    <glyph glyph-name="uni021B" unicode="&#x21b;" horiz-adv-x="465" 
d="M282 346l-24 -139q-13 -73 56 -73q26 0 95 13l-6 -138q-79 -24 -146 -24q-88 0 -133.5 61t-28.5 156l25 144h-94l24 139h95l29 165h162l-29 -165h165l-24 -139h-166zM213 -41q35 0 59.5 -23t24.5 -56q0 -25 -16 -50t-79 -101h-87l62 83q-49 20 -49 68q0 33 25 56t60 23z
" />
    <glyph glyph-name="circumflex" unicode="&#x2c6;" 
d="M331 626l-61 -73h-146l145 164h153l88 -164h-136z" />
    <glyph glyph-name="caron" unicode="&#x2c7;" 
d="M548 713l-145 -160h-155l-89 160h137l43 -72l65 72h144z" />
    <glyph glyph-name="breve" unicode="&#x2d8;" 
d="M400 710h118q-15 -81 -69.5 -125t-132.5 -44t-120 44.5t-28 124.5h115q-12 -65 46 -65q25 0 45.5 16.5t25.5 48.5z" />
    <glyph glyph-name="dotaccent" unicode="&#x2d9;" 
d="M310 550q-38 0 -65 25.5t-27 62.5t27 62.5t65 25.5t64.5 -25.5t26.5 -62.5t-26.5 -62.5t-64.5 -25.5z" />
    <glyph glyph-name="ring" unicode="&#x2da;" 
d="M323 772q55 0 89.5 -31.5t34.5 -83.5t-34.5 -84t-89.5 -32t-89.5 32t-34.5 84t34.5 83.5t89.5 31.5zM323 614q20 0 32 11.5t12 31.5q0 19 -12 31t-32 12t-32 -12t-12 -31q0 -20 12 -31.5t32 -11.5z" />
    <glyph glyph-name="ogonek" unicode="&#x2db;" 
d="M352 70l19 -62q-60 -12 -60 -40t50 -28q20 0 47 7l15 -120q-28 -14 -81 -14q-72 0 -118 34t-46 93q0 46 45 83.5t129 46.5z" />
    <glyph glyph-name="tilde" unicode="&#x2dc;" 
d="M403 713h108q0 -49 -18.5 -82.5t-47.5 -45.5t-61 -11t-60 15l-26 13q-26 11 -38.5 3.5t-12.5 -28.5h-108q0 49 19 82t48 45t60.5 11t59.5 -15l26 -13q26 -11 38.5 -3t12.5 29z" />
    <glyph glyph-name="hungarumlaut" unicode="&#x2dd;" 
d="M371 718l-84 -160h-128l64 160h148zM538 718l-84 -160h-127l63 160h148z" />
    <glyph glyph-name="uni0326" unicode="&#x326;" horiz-adv-x="0" 
d="M190 -271l62 83q-49 20 -49 68q0 33 25 56t60 23t59.5 -23t24.5 -56q0 -25 -16 -50t-79 -101h-87z" />
    <glyph glyph-name="Wgrave" unicode="&#x1e80;" horiz-adv-x="1074" 
d="M547 750l-100 160h171l80 -160h-151zM1133 680l-341 -684h-163l-63 410l-211 -408v-2h-164l1 2l-99 682h177l52 -413l221 413h139l70 -417l199 417h182z" />
    <glyph glyph-name="wgrave" unicode="&#x1e81;" horiz-adv-x="802" 
d="M374 544l-100 160h171l80 -160h-151zM835 485l-242 -485h-157l-33 252l-123 -252h-147l-81 485h170l29 -259l128 259h129l38 -258l120 258h169z" />
    <glyph glyph-name="Wacute" unicode="&#x1e82;" horiz-adv-x="1074" 
d="M703 750h-151l108 160h171zM1133 680l-341 -684h-163l-63 410l-211 -408v-2h-164l1 2l-99 682h177l52 -413l221 413h139l70 -417l199 417h182z" />
    <glyph glyph-name="wacute" unicode="&#x1e83;" horiz-adv-x="802" 
d="M535 544h-151l108 160h171zM835 485l-242 -485h-157l-33 252l-123 -252h-147l-81 485h170l29 -259l128 259h129l38 -258l120 258h169z" />
    <glyph glyph-name="Wdieresis" unicode="&#x1e84;" horiz-adv-x="1074" 
d="M525 746q-38 0 -63.5 24t-25.5 61q0 36 25.5 60.5t63.5 24.5q37 0 62.5 -24.5t25.5 -60.5t-25.5 -60.5t-62.5 -24.5zM747 746q-37 0 -63 24.5t-26 60.5t26 60.5t63 24.5t63 -24.5t26 -60.5t-26 -60.5t-63 -24.5zM1133 680l-341 -684h-163l-63 410l-211 -408v-2h-164l1 2
l-99 682h177l52 -413l221 413h139l70 -417l199 417h182z" />
    <glyph glyph-name="wdieresis" unicode="&#x1e85;" horiz-adv-x="802" 
d="M338 540q-38 0 -63.5 24t-25.5 61q0 36 25.5 60.5t63.5 24.5q37 0 62.5 -24.5t25.5 -60.5t-25.5 -60.5t-62.5 -24.5zM560 540q-37 0 -63 24.5t-26 60.5t26 60.5t63 24.5t63 -24.5t26 -60.5t-26 -60.5t-63 -24.5zM835 485l-242 -485h-157l-33 252l-123 -252h-147l-81 485
h170l29 -259l128 259h129l38 -258l120 258h169z" />
    <glyph glyph-name="Ygrave" unicode="&#x1ef2;" horiz-adv-x="714" 
d="M347 750l-100 160h171l80 -160h-151zM434 205l-35 -205h-170l36 206l-185 474h184l111 -286l212 286h200z" />
    <glyph glyph-name="ygrave" unicode="&#x1ef3;" horiz-adv-x="640" 
d="M290 544l-100 160h171l80 -160h-151zM664 485l-423 -709h-176l134 224l-142 485h172l85 -293l175 293h175z" />
    <glyph glyph-name="endash" unicode="&#x2013;" horiz-adv-x="693" 
d="M584 182l27 155h-497l-27 -155h497z" />
    <glyph glyph-name="emdash" unicode="&#x2014;" horiz-adv-x="1072" 
d="M962 182l27 155h-875l-27 -155h875z" />
    <glyph glyph-name="quoteleft" unicode="&#x2018;" horiz-adv-x="234" 
d="M277 679l-75 -111q51 -22 51 -72q0 -36 -26 -61t-63 -25q-38 0 -64.5 25t-26.5 61q0 47 56 113l58 70h90z" />
    <glyph glyph-name="quoteright" unicode="&#x2019;" horiz-adv-x="234" 
d="M70 422l75 111q-52 22 -52 72q0 36 26 61t64 25t64 -25t26 -61q0 -48 -55 -113l-58 -70h-90z" />
    <glyph glyph-name="quotesinglbase" unicode="&#x201a;" horiz-adv-x="234" 
d="M-27 -113l75 111q-51 22 -51 73q0 35 26.5 60t63.5 25q38 0 64 -24.5t26 -61.5q0 -47 -56 -113l-58 -70h-90z" />
    <glyph glyph-name="quotedblleft" unicode="&#x201c;" horiz-adv-x="441" 
d="M274 679l-75 -111q52 -22 52 -72q0 -36 -26 -61t-64 -25t-64 25t-26 61q0 48 55 113l58 70h90zM481 679l-75 -111q51 -22 51 -72q0 -36 -26 -61t-63 -25q-38 0 -64.5 25t-26.5 61q0 47 56 113l58 70h90z" />
    <glyph glyph-name="quotedblright" unicode="&#x201d;" horiz-adv-x="441" 
d="M69 422l75 111q-52 22 -52 72q0 36 26 61t64 25t64 -25t26 -61q0 -48 -55 -113l-58 -70h-90zM275 422l75 111q-51 23 -51 72q0 36 26 61t64 25t64 -25t26 -61q0 -48 -56 -113l-58 -70h-90z" />
    <glyph glyph-name="quotedblbase" unicode="&#x201e;" horiz-adv-x="443" 
d="M-25 -113l75 111q-51 22 -51 73q0 35 26 60t63 25q38 0 64.5 -25t26.5 -61q0 -46 -56 -113l-58 -70h-90zM183 -113l75 111q-51 22 -51 73q0 35 26.5 60t63.5 25q38 0 64 -24.5t26 -61.5q0 -47 -56 -113l-58 -70h-90z" />
    <glyph glyph-name="dagger" unicode="&#x2020;" horiz-adv-x="401" 
d="M292 509l-38 -212h-98l37 212h-112l18 98h112l19 112h99l-19 -112h112l-18 -98h-112z" />
    <glyph glyph-name="daggerdbl" unicode="&#x2021;" horiz-adv-x="401" 
d="M293 483h112l-17 -98h-112l-16 -88h-98l15 88h-112l17 98h112l10 52h-112l17 98h112l15 86h98l-14 -86h112l-18 -98h-112z" />
    <glyph glyph-name="bullet" unicode="&#x2022;" horiz-adv-x="358" 
d="M187 146q-61 0 -106.5 45t-45.5 106t45.5 106t106.5 45q62 0 107.5 -45t45.5 -106t-45.5 -106t-107.5 -45z" />
    <glyph glyph-name="ellipsis" unicode="&#x2026;" horiz-adv-x="739" 
d="M88 -18q-38 0 -64.5 25.5t-26.5 62.5t26.5 62t64.5 25t64.5 -25t26.5 -62t-26.5 -62.5t-64.5 -25.5zM341 -18q-37 0 -63.5 25.5t-26.5 62.5q0 36 26.5 61.5t63.5 25.5q38 0 65 -25.5t27 -61.5q0 -37 -27 -62.5t-65 -25.5zM591 -18q-38 0 -64.5 25.5t-26.5 62.5t26.5 62
t64.5 25t64.5 -25t26.5 -62t-26.5 -62.5t-64.5 -25.5z" />
    <glyph glyph-name="perthousand" unicode="&#x2030;" horiz-adv-x="1589" 
d="M329 695q77 0 125 -46.5t48 -121.5q0 -99 -72 -166t-172 -67q-77 0 -125 47t-48 122q0 99 72 165.5t172 66.5zM386 0h-109l454 680h109zM310 590q-44 0 -78.5 -31.5t-34.5 -78.5q0 -36 22.5 -58t57.5 -22q44 0 78 31.5t34 78.5q0 36 -22 58t-57 22zM870 386q78 0 126 -47
t48 -122q0 -99 -72.5 -165.5t-171.5 -66.5q-77 0 -125 46.5t-48 122.5q0 99 72 165.5t171 66.5zM1353 386q78 0 126 -47t48 -122q0 -99 -72.5 -165.5t-171.5 -66.5q-77 0 -125 46.5t-48 122.5q0 99 72 165.5t171 66.5zM852 280q-44 0 -78 -31t-34 -78q0 -36 22.5 -58.5
t56.5 -22.5q45 0 79 32t34 79q0 36 -22.5 57.5t-57.5 21.5zM1335 280q-44 0 -78 -31.5t-34 -77.5q0 -36 22.5 -58.5t56.5 -22.5q45 0 79 32t34 79q0 36 -22.5 57.5t-57.5 21.5z" />
    <glyph glyph-name="guilsinglleft" unicode="&#x2039;" horiz-adv-x="284" 
d="M287 413l-124 -167l67 -155h-144l-67 161l124 161h144z" />
    <glyph glyph-name="guilsinglright" unicode="&#x203a;" horiz-adv-x="284" 
d="M0 91l124 167l-67 155h144l67 -161l-124 -161h-144z" />
    <glyph glyph-name="fraction" unicode="&#x2044;" horiz-adv-x="533" 
d="M94 0h-109l454 680h109z" />
    <glyph glyph-name="zerosuperior" unicode="&#x2070;" horiz-adv-x="455" 
d="M308 702q80 0 124.5 -49t44.5 -128q0 -108 -69 -182t-177 -74q-79 0 -123.5 48.5t-44.5 127.5q0 109 69 183t176 74zM250 373q50 0 80 41t30 97q0 38 -18 62.5t-52 24.5q-50 0 -80.5 -41t-30.5 -97q0 -39 18 -63t53 -24z" />
    <glyph glyph-name="foursuperior" unicode="&#x2074;" horiz-adv-x="420" 
d="M415 349h-49l-12 -68h-114l12 68h-208l13 75l157 268h116l-135 -243h75l16 93h114l-16 -93h47z" />
    <glyph glyph-name="fivesuperior" unicode="&#x2075;" horiz-adv-x="397" 
d="M231 593l-8 -43h40q64 0 97 -30t33 -80q0 -73 -54.5 -120.5t-136.5 -47.5q-70 0 -108 36t-33 96h113q5 -36 46 -36q26 0 44 15.5t18 37.5q0 38 -47 38h-137l42 233h280l-17 -99h-172z" />
    <glyph glyph-name="sixsuperior" unicode="&#x2076;" horiz-adv-x="396" 
d="M378 692l-97 -120q57 -7 89 -41t32 -84q0 -72 -58 -123.5t-143 -51.5q-66 0 -106 38t-40 93q0 54 59 125l129 164h135zM218 367q28 0 48.5 18.5t20.5 45.5q0 21 -13.5 34t-35.5 13q-26 0 -46 -15q-25 -27 -25 -48t14 -34.5t37 -13.5z" />
    <glyph glyph-name="sevensuperior" unicode="&#x2077;" horiz-adv-x="347" 
d="M411 692l-12 -67l-215 -344h-131l193 304h-167l19 107h313z" />
    <glyph glyph-name="eightsuperior" unicode="&#x2078;" horiz-adv-x="408" 
d="M357 495q46 -29 46 -81q0 -64 -53 -104.5t-143 -40.5q-72 0 -112.5 30t-40.5 80q0 78 82 118q-33 25 -33 65q0 59 51 97.5t128 38.5q62 0 99 -28.5t37 -76.5q0 -64 -61 -98zM267 612q-23 0 -39 -14t-16 -35q0 -16 11 -26t29 -10q22 0 38 14t16 36q0 16 -11 25.5t-28 9.5z
M223 362q24 0 41 14.5t17 36.5q0 17 -12 27t-31 10q-25 0 -41.5 -14.5t-16.5 -36.5q0 -17 11.5 -27t31.5 -10z" />
    <glyph glyph-name="ninesuperior" unicode="&#x2079;" horiz-adv-x="396" 
d="M282 699q66 0 106 -38t40 -93q0 -54 -59 -125l-129 -164h-135l97 120q-57 7 -89 41t-32 84q0 72 58 123.5t143 51.5zM245 493q27 0 46 15q25 27 25 48t-14 34.5t-37 13.5q-28 0 -48.5 -18.5t-20.5 -45.5q0 -21 13.5 -34t35.5 -13z" />
    <glyph glyph-name="zeroinferior" unicode="&#x2080;" horiz-adv-x="455" 
d="M227 244q80 0 124.5 -49t44.5 -128q0 -108 -69 -182t-177 -74q-79 0 -123.5 48.5t-44.5 127.5q0 109 69 183t176 74zM169 -85q50 0 80 41t30 97q0 38 -18 62.5t-52 24.5q-50 0 -80.5 -41t-30.5 -97q0 -39 18 -63t53 -24z" />
    <glyph glyph-name="oneinferior" unicode="&#x2081;" horiz-adv-x="341" 
d="M273 -83l-17 -97h-311l16 97h103l34 192l-102 -27l18 103l149 46h67l-55 -314h98z" />
    <glyph glyph-name="twoinferior" unicode="&#x2082;" horiz-adv-x="373" 
d="M159 -83h127l-17 -97h-311l10 57l167 156q38 36 49 49t11 28q0 26 -30 26q-42 0 -50 -41h-111q13 66 60 105.5t119 39.5q64 0 100 -31t36 -78q0 -34 -18.5 -64.5t-83.5 -93.5z" />
    <glyph glyph-name="threeinferior" unicode="&#x2083;" horiz-adv-x="384" 
d="M264 25q35 -24 35 -68q0 -63 -49.5 -105t-129.5 -42q-71 0 -109.5 36.5t-35.5 99.5h112q4 -39 46 -39q24 0 39 12t15 30q0 30 -51 30l3 15l-3 -15h-33l15 88h33q26 0 41.5 12t15.5 31q0 30 -36 30q-38 0 -49 -40h-112q15 64 61.5 100t115.5 36q60 0 94.5 -30t34.5 -79
q0 -68 -53 -102z" />
    <glyph glyph-name="fourinferior" unicode="&#x2084;" horiz-adv-x="420" 
d="M335 -112h-49l-12 -68h-114l12 68h-208l13 75l157 268h116l-135 -243h75l16 93h114l-16 -93h47z" />
    <glyph glyph-name="fiveinferior" unicode="&#x2085;" horiz-adv-x="397" 
d="M151 132l-8 -43h40q64 0 97 -30t33 -80q0 -73 -54.5 -120.5t-136.5 -47.5q-70 0 -108 36t-33 96h113q5 -36 46 -36q26 0 44 15.5t18 37.5q0 38 -47 38h-137l42 233h280l-17 -99h-172z" />
    <glyph glyph-name="sixinferior" unicode="&#x2086;" horiz-adv-x="396" 
d="M298 231l-97 -120q57 -7 89 -41t32 -84q0 -72 -58 -123.5t-143 -51.5q-66 0 -106 38t-40 93q0 54 59 125l129 164h135zM138 -94q28 0 48.5 18.5t20.5 45.5q0 21 -13.5 34t-35.5 13q-26 0 -46 -15q-25 -27 -25 -48t14 -34.5t37 -13.5z" />
    <glyph glyph-name="seveninferior" unicode="&#x2087;" horiz-adv-x="347" 
d="M331 231l-12 -67l-215 -344h-131l193 304h-167l19 107h313z" />
    <glyph glyph-name="eightinferior" unicode="&#x2088;" horiz-adv-x="408" 
d="M277 37q46 -29 46 -81q0 -64 -53 -104.5t-143 -40.5q-72 0 -112.5 30t-40.5 80q0 78 82 118q-33 25 -33 65q0 59 51 97.5t128 38.5q62 0 99 -28.5t37 -76.5q0 -64 -61 -98zM187 154q-23 0 -39 -14t-16 -35q0 -16 11 -26t29 -10q22 0 38 14t16 36q0 16 -11 25.5t-28 9.5z
M143 -96q24 0 41 14.5t17 36.5q0 17 -12 27t-31 10q-25 0 -41.5 -14.5t-16.5 -36.5q0 -17 11.5 -27t31.5 -10z" />
    <glyph glyph-name="nineinferior" unicode="&#x2089;" horiz-adv-x="396" 
d="M202 241q66 0 106 -38t40 -93q0 -54 -59 -125l-129 -164h-135l97 120q-57 7 -89 41t-32 84q0 72 58 123.5t143 51.5zM165 35q27 0 46 15q25 27 25 48t-14 34.5t-37 13.5q-28 0 -48.5 -18.5t-20.5 -45.5q0 -21 13.5 -34t35.5 -13z" />
    <glyph glyph-name="Euro" unicode="&#x20ac;" horiz-adv-x="818" 
d="M485 536q-110 0 -176 -89h247l-38 -89h-251l-4 -18q-2 -11 -4 -33h238l-38 -89h-181q40 -74 139 -74q59 0 113.5 38.5t78.5 99.5h173q-39 -133 -146.5 -214.5t-245.5 -81.5q-121 0 -202 63t-99 169h-66l15 89h49q2 22 4 33l4 18h-48l16 89h62q53 112 159 179.5t231 67.5
q138 0 217 -81.5t71 -214.5h-174q-2 65 -39.5 101.5t-104.5 36.5z" />
    <glyph glyph-name="uni2116" unicode="&#x2116;" horiz-adv-x="1347" 
d="M1011 176q-101 0 -161.5 61t-60.5 157q0 123 91 208.5t221 85.5q100 0 161 -60.5t61 -154.5q0 -123 -91.5 -210t-220.5 -87zM764 680l-120 -680h-130l-260 377l-66 -377h-169l120 680h117l270 -392l70 392h168zM1075 547q-55 0 -93.5 -40t-37.5 -94q0 -42 25 -69.5
t67 -27.5q55 0 93.5 40.5t37.5 95.5q0 41 -25 68t-67 27zM765 120h482l-21 -119h-482z" />
    <glyph glyph-name="uni2117" unicode="&#x2117;" horiz-adv-x="815" 
d="M424 695q150 0 257 -102t107 -253t-107 -253t-257 -102t-257 102t-107 253t107 253t257 102zM424 605q-110 0 -189.5 -77t-79.5 -188t79.5 -188t189.5 -77q109 0 189 77t80 188t-80 188t-189 77zM312 501h138q58 0 93 -31t35 -81t-35 -79t-95 -29h-49v-83h-87v303z
M399 424v-70h47q41 0 41 36q0 15 -11 24.5t-30 9.5h-47z" />
    <glyph glyph-name="trademark" unicode="&#x2122;" horiz-adv-x="703" 
d="M263 599l-37 -212h-87l37 212h-90l14 80h267l-14 -80h-90zM735 679l-51 -292h-86l23 131l-80 -94v-1h-45v1l-48 94l-23 -131h-85l52 292h64l81 -149l133 149h65z" />
    <glyph glyph-name="oneeighth" unicode="&#x215b;" horiz-adv-x="964" 
d="M25 269l16 97h103l34 192l-102 -27l18 103l149 46h67l-55 -314h98l-17 -97h-311zM780 680l-454 -680h-109l454 680h109zM865 217q46 -29 46 -81q0 -64 -53.5 -104.5t-143.5 -40.5q-72 0 -112 30t-40 80q0 79 82 118q-33 25 -33 65q0 59 51 97.5t128 38.5q62 0 99 -28.5
t37 -76.5q0 -64 -61 -98zM774 334q-22 0 -38 -14t-16 -35q0 -16 11 -26t29 -10q22 0 38 14t16 36q0 16 -11 25.5t-29 9.5zM730 84q25 0 41.5 14.5t16.5 36.5q0 17 -11.5 27t-30.5 10q-25 0 -41.5 -14.5t-16.5 -36.5q0 -17 11.5 -27t30.5 -10z" />
    <glyph glyph-name="threeeighths" unicode="&#x215c;" horiz-adv-x="948" 
d="M379 410q0 -63 -49.5 -105t-129.5 -42q-71 0 -109.5 36.5t-35.5 99.5h112q4 -39 46 -39q24 0 39 12t15 30q0 30 -51 30l3 15l-3 -15h-33l15 88h33q26 0 41.5 12t15.5 31q0 30 -36 30q-38 0 -49 -40h-112q15 64 61.5 100t115.5 36q60 0 94.5 -30t34.5 -79q0 -68 -53 -102
q35 -24 35 -68zM770 680l-454 -680h-108l454 680h108zM849 217q46 -29 46 -81q0 -64 -53.5 -104.5t-143.5 -40.5q-72 0 -112 30t-40 80q0 79 82 118q-33 25 -33 65q0 59 51 97.5t128 38.5q62 0 99 -28.5t37 -76.5q0 -64 -61 -98zM758 334q-22 0 -38 -14t-16 -35
q0 -16 11 -26t29 -10q22 0 38 14t16 36q0 16 -11 25.5t-29 9.5zM714 84q25 0 41.5 14.5t16.5 36.5q0 17 -11.5 27t-30.5 10q-25 0 -41.5 -14.5t-16.5 -36.5q0 -17 11.5 -27t30.5 -10z" />
    <glyph glyph-name="fiveeighths" unicode="&#x215d;" horiz-adv-x="953" 
d="M393 428q0 -73 -54.5 -120.5t-136.5 -47.5q-70 0 -108 36t-33 96h113q5 -36 46 -36q26 0 44 15.5t18 37.5q0 38 -47 38h-137l42 233h280l-17 -99h-172l-8 -43h40q64 0 97 -30t33 -80zM769 680l-454 -680h-109l454 680h109zM854 217q46 -29 46 -81q0 -64 -53 -104.5
t-143 -40.5q-72 0 -112.5 30t-40.5 80q0 78 82 118q-33 25 -33 65q0 59 51 97.5t128 38.5q62 0 99 -28.5t37 -76.5q0 -64 -61 -98zM764 334q-23 0 -39 -14t-16 -35q0 -16 11 -26t29 -10q22 0 38 14t16 36q0 16 -11 25.5t-28 9.5zM720 84q24 0 41 14.5t17 36.5q0 17 -12 27
t-31 10q-25 0 -41.5 -14.5t-16.5 -36.5q0 -17 11.5 -27t31.5 -10z" />
    <glyph glyph-name="seveneighths" unicode="&#x215e;" horiz-adv-x="857" 
d="M53 269l193 304h-167l19 107h313l-12 -67l-215 -344h-131zM674 680l-454 -680h-109l454 680h109zM757 217q47 -30 47 -81q0 -64 -53.5 -104.5t-143.5 -40.5q-72 0 -112 30t-40 80q0 77 81 118q-33 25 -33 65q0 59 51 97.5t128 38.5q62 0 99 -28.5t37 -76.5q0 -64 -61 -98
zM667 334q-22 0 -38 -14t-16 -35q0 -16 11 -26t28 -10q23 0 39 14t16 36q0 16 -11.5 25.5t-28.5 9.5zM623 84q25 0 41.5 14.5t16.5 36.5q0 17 -11.5 27t-30.5 10q-25 0 -42 -14.5t-17 -36.5q0 -17 12 -27t31 -10z" />
    <glyph glyph-name="arrowleft" unicode="&#x2190;" horiz-adv-x="766" 
d="M303 267l177 -173l-103 -99l-343 346l343 346l103 -99l-176 -173h422v-148h-423z" />
    <glyph glyph-name="arrowup" unicode="&#x2191;" horiz-adv-x="783" 
d="M318 423l-173 -177l-100 103l346 343l347 -343l-100 -103l-172 176v-422h-148v423z" />
    <glyph glyph-name="arrowright" unicode="&#x2192;" horiz-adv-x="766" 
d="M40 415h422l-176 173l103 99l343 -346l-343 -346l-103 99l177 173h-423v148z" />
    <glyph glyph-name="arrowdown" unicode="&#x2193;" horiz-adv-x="783" 
d="M466 680v-422l172 176l100 -103l-347 -343l-346 343l100 103l173 -177v423h148z" />
    <glyph glyph-name="arrowupleft" unicode="&#x2196;" horiz-adv-x="796" 
d="M667 -2l-435 435v-243h-142v490h490v-142h-244l435 -436z" />
    <glyph glyph-name="arrowupright" unicode="&#x2197;" horiz-adv-x="796" 
d="M460 538h-244v142h490v-490h-142v243l-435 -435l-104 104z" />
    <glyph glyph-name="arrowdownright" unicode="&#x2198;" horiz-adv-x="796" 
d="M129 682l435 -435v243h142v-490h-490v142h244l-435 436z" />
    <glyph glyph-name="arrowdownleft" unicode="&#x2199;" horiz-adv-x="796" 
d="M336 142h244v-142h-490v490h142v-243l435 435l104 -104z" />
    <glyph glyph-name="minus" unicode="&#x2212;" horiz-adv-x="671" 
d="M124 392h475l-23 -128h-475z" />
    <glyph glyph-name="R.ss02" horiz-adv-x="708" 
d="M678 478q0 -96 -60.5 -168.5t-162.5 -99.5l187 -210h-207l-175 197h-39l-34 -197h-169l119 680h294q116 0 181.5 -54t65.5 -148zM280 531l-32 -182h122q60 0 98.5 29.5t38.5 75.5q0 36 -28 56.5t-77 20.5h-122z" />
    <glyph glyph-name="Racute.ss02" horiz-adv-x="708" 
d="M468 750h-151l108 160h171zM678 478q0 -97 -60.5 -169t-162.5 -98l187 -211h-207l-175 197h-39l-34 -197h-169l119 680h294q116 0 181.5 -54t65.5 -148zM280 531l-32 -182h122q60 0 98.5 29.5t38.5 75.5q0 36 -28.5 56.5t-76.5 20.5h-122z" />
    <glyph glyph-name="Rcaron.ss02" horiz-adv-x="708" 
d="M322 740l-89 160h137l43 -72l65 72h144l-145 -160h-155zM678 478q0 -97 -60.5 -169t-162.5 -98l187 -211h-207l-175 197h-39l-34 -197h-169l119 680h294q116 0 181.5 -54t65.5 -148zM280 531l-32 -182h122q60 0 98.5 29.5t38.5 75.5q0 36 -28.5 56.5t-76.5 20.5h-122z
" />
    <glyph glyph-name="Rcommaaccent.ss02" horiz-adv-x="708" 
d="M678 478q0 -97 -60.5 -169t-162.5 -98l187 -211h-207l-175 197h-39l-34 -197h-169l119 680h294q116 0 181.5 -54t65.5 -148zM280 531l-32 -182h122q60 0 98.5 29.5t38.5 75.5q0 36 -28.5 56.5t-76.5 20.5h-122zM296 -41q35 0 59.5 -23t24.5 -56q0 -25 -16 -50t-79 -101
h-87l62 83q-49 20 -49 68q0 33 25 56t60 23z" />
    <glyph glyph-name="Q.ss03" horiz-adv-x="806" 
d="M480 694q137 0 222 -85.5t85 -215.5q0 -109 -59.5 -203.5t-157.5 -149t-209 -54.5q-137 0 -222 85.5t-85 215.5q0 109 59.5 203.5t157.5 149t209 54.5zM383 145q90 0 160 68t69 161q0 69 -41.5 115t-115.5 46q-93 0 -160.5 -68t-66.5 -160q1 -69 42 -115.5t113 -46.5z
M708 -86l-17 -143q-170 20 -332 69l13 113z" />
    <glyph glyph-name="i.loclTRK" horiz-adv-x="289" 
d="M217 561q-40 0 -67.5 26t-27.5 65t27.5 65.5t67.5 26.5q39 0 67 -26.5t28 -65.5t-28 -65t-67 -26zM271 485l-86 -485h-162l85 485h163z" />
    <glyph glyph-name="germandbls.case" horiz-adv-x="1325" 
d="M413 695q36 0 70 -5.5t70 -21.5t61 -40t39.5 -65t9.5 -94h-169q1 40 -22 63t-73 23q-49 0 -79.5 -20.5t-30.5 -56.5q0 -22 16.5 -34.5t51.5 -20.5l91 -22q84 -19 129 -57.5t45 -105.5q0 -114 -90 -183t-234 -69q-122 0 -196.5 60t-68.5 180h169q1 -96 126 -96
q52 0 79.5 18.5t27.5 49.5q0 37 -62 50l-108 25q-171 38 -165 180q4 115 95 178.5t218 63.5zM1064 695q36 0 70 -5.5t70 -21.5t61 -40t39.5 -65t9.5 -94h-169q1 40 -22 63t-73 23q-49 0 -79.5 -20.5t-30.5 -56.5q0 -22 16.5 -34.5t51.5 -20.5l91 -22q84 -19 129 -57.5
t45 -105.5q0 -114 -90 -183t-234 -69q-122 0 -196.5 60t-68.5 180h169q1 -96 126 -96q52 0 79.5 18.5t27.5 49.5q0 37 -62 50l-108 25q-171 38 -165 180q4 115 95 178.5t218 63.5z" />
    <glyph glyph-name="l.ss01" horiz-adv-x="382" 
d="M295 710l-92 -523q-11 -56 45 -56q27 0 69 10l-5 -136q-74 -20 -126 -20q-85 0 -124.5 48.5t-24.5 135.5l96 541h162z" />
    <glyph glyph-name="lacute.ss01" horiz-adv-x="382" 
d="M432 929l-128 -160h-151l108 160h171zM295 710l-92 -523q-11 -56 45 -56q27 0 69 10l-5 -136q-74 -20 -126 -20q-85 0 -124.5 48.5t-24.5 135.5l96 541h162z" />
    <glyph glyph-name="lcaron.ss01" horiz-adv-x="382" 
d="M295 710l-92 -523q-11 -56 45 -56q27 0 69 10l-5 -136q-74 -20 -126 -20q-85 0 -124.5 48.5t-24.5 135.5l96 541h162zM505 710l-73 -204h-115l40 204h148z" />
    <glyph glyph-name="lcommaaccent.ss01" horiz-adv-x="382" 
d="M295 710l-92 -523q-11 -56 45 -56q27 0 69 10l-5 -136q-74 -20 -126 -20q-85 0 -124.5 48.5t-24.5 135.5l96 541h162zM52 -271l62 83q-49 20 -49 68q0 33 25 56t60 23t59.5 -23t24.5 -56q0 -25 -16 -50t-79 -101h-87z" />
    <glyph glyph-name="ldot.ss01" horiz-adv-x="464" 
d="M295 710l-92 -523q-11 -56 45 -56q27 0 69 10l-5 -136q-74 -20 -126 -20q-85 0 -124.5 48.5t-24.5 135.5l96 541h162zM349 256q-38 0 -64.5 25.5t-26.5 62.5t26.5 62.5t64.5 25.5t65 -25.5t27 -62.5t-27 -62.5t-65 -25.5z" />
    <glyph glyph-name="lslash.ss01" horiz-adv-x="382" 
d="M225 313l-22 -126q-11 -56 45 -56q27 0 69 10l-5 -136q-74 -20 -126 -20q-85 0 -124.5 48.5t-24.5 135.5l15 84l-45 -15l26 147l45 15l55 310h162l-44 -251l76 26l-26 -146z" />
    <glyph glyph-name="y.ss04" horiz-adv-x="611" 
d="M599 485l-84 -477q-20 -112 -101.5 -176t-197.5 -64q-110 0 -171 58t-51 152h161q-2 -33 21 -53t64 -20q42 0 72.5 26t39.5 74l11 60q-71 -47 -142 -47q-93 0 -139.5 60.5t-27.5 162.5l43 244h162l-38 -218q-9 -50 10 -76t61 -26q46 0 96 48l48 272h163z" />
    <glyph glyph-name="yacute.ss04" horiz-adv-x="611" 
d="M433 544h-151l108 160h171zM599 485l-84 -477q-20 -112 -101.5 -176t-197.5 -64q-110 0 -171 58t-51 152h161q-2 -33 21 -53t64 -20q42 0 72.5 26t39.5 74l11 61q-70 -48 -142 -48q-93 0 -139.5 60.5t-27.5 162.5l42 244h163l-39 -218q-9 -50 10.5 -76t60.5 -26
q47 0 98 48l48 272h162z" />
    <glyph glyph-name="ycircumflex.ss04" horiz-adv-x="611" 
d="M307 537h-146l145 164h153l88 -164h-136l-43 73zM599 485l-84 -477q-20 -112 -101.5 -176t-197.5 -64q-110 0 -171 58t-51 152h161q-2 -33 21 -53t64 -20q42 0 72.5 26t39.5 74l11 61q-70 -48 -142 -48q-93 0 -139.5 60.5t-27.5 162.5l42 244h163l-39 -218
q-9 -50 10.5 -76t60.5 -26q47 0 98 48l48 272h162z" />
    <glyph glyph-name="ydieresis.ss04" horiz-adv-x="611" 
d="M236 540q-38 0 -63.5 24t-25.5 61q0 36 25.5 60.5t63.5 24.5q37 0 62.5 -24.5t25.5 -60.5t-25.5 -60.5t-62.5 -24.5zM458 540q-37 0 -63 24.5t-26 60.5t26 60.5t63 24.5t63 -24.5t26 -60.5t-26 -60.5t-63 -24.5zM599 485l-84 -477q-20 -112 -101.5 -176t-197.5 -64
q-110 0 -171 58t-51 152h161q-2 -33 21 -53t64 -20q42 0 72.5 26t39.5 74l11 61q-70 -48 -142 -48q-93 0 -139.5 60.5t-27.5 162.5l42 244h163l-39 -218q-9 -50 10.5 -76t60.5 -26q47 0 98 48l48 272h162z" />
    <glyph glyph-name="ygrave.ss04" horiz-adv-x="611" 
d="M272 544l-100 160h171l80 -160h-151zM599 485l-84 -477q-20 -112 -101.5 -176t-197.5 -64q-110 0 -171 58t-51 152h161q-2 -33 21 -53t64 -20q42 0 72.5 26t39.5 74l11 61q-70 -48 -142 -48q-93 0 -139.5 60.5t-27.5 162.5l42 244h163l-39 -218q-9 -50 10.5 -76t60.5 -26
q47 0 98 48l48 272h162z" />
    <glyph glyph-name="a.ss06" horiz-adv-x="557" 
d="M327 500q105 0 158 -57t36 -153l-51 -290h-154l3 20q-60 -29 -128 -29q-82 0 -130 35.5t-48 97.5q0 78 60 122t162 44h132q15 83 -63 83q-31 0 -54.5 -15t-30.5 -41h-154q19 89 93.5 136t168.5 47zM234 114q52 0 107 30l9 51h-127q-24 0 -38.5 -10.5t-14.5 -28.5t16 -30
t48 -12z" />
    <glyph glyph-name="aacute.ss06" horiz-adv-x="557" 
d="M409 544h-151l108 160h171zM328 500q105 0 157.5 -57t36.5 -153l-51 -290h-155l3 20q-60 -29 -128 -29q-82 0 -130 35.5t-48 97.5q0 78 60 122t162 44h132q15 83 -62 83q-31 0 -54.5 -15t-31.5 -41h-154q19 89 94 136t169 47zM234 114q52 0 107 30l9 51h-127
q-24 0 -38.5 -10.5t-14.5 -28.5t16 -30t48 -12z" />
    <glyph glyph-name="abreve.ss06" horiz-adv-x="557" 
d="M333 530q-78 0 -120 44.5t-28 124.5h115q-12 -65 46 -65q25 0 45.5 16.5t25.5 48.5h118q-15 -81 -69.5 -125t-132.5 -44zM328 500q105 0 157.5 -57t36.5 -153l-51 -290h-155l3 20q-60 -29 -128 -29q-82 0 -130 35.5t-48 97.5q0 78 60 122t162 44h132q15 83 -62 83
q-31 0 -54.5 -15t-31.5 -41h-154q19 89 94 136t169 47zM234 114q52 0 107 30l9 51h-127q-24 0 -38.5 -10.5t-14.5 -28.5t16 -30t48 -12z" />
    <glyph glyph-name="acaron.ss06" horiz-adv-x="557" 
d="M250 538l-89 160h137l43 -72l65 72h144l-145 -160h-155zM328 500q105 0 157.5 -57t36.5 -153l-51 -290h-155l3 20q-60 -29 -128 -29q-82 0 -130 35.5t-48 97.5q0 78 60 122t162 44h132q15 83 -62 83q-31 0 -54.5 -15t-31.5 -41h-154q19 89 94 136t169 47zM234 114
q52 0 107 30l9 51h-127q-24 0 -38.5 -10.5t-14.5 -28.5t16 -30t48 -12z" />
    <glyph glyph-name="acircumflex.ss06" horiz-adv-x="557" 
d="M283 537h-146l145 164h153l88 -164h-136l-43 73zM328 500q105 0 157.5 -57t36.5 -153l-51 -290h-155l3 20q-60 -29 -128 -29q-82 0 -130 35.5t-48 97.5q0 78 60 122t162 44h132q15 83 -62 83q-31 0 -54.5 -15t-31.5 -41h-154q19 89 94 136t169 47zM234 114q52 0 107 30
l9 51h-127q-24 0 -38.5 -10.5t-14.5 -28.5t16 -30t48 -12z" />
    <glyph glyph-name="adieresis.ss06" horiz-adv-x="557" 
d="M212 540q-38 0 -63.5 24t-25.5 61q0 36 25.5 60.5t63.5 24.5q37 0 62.5 -24.5t25.5 -60.5t-25.5 -60.5t-62.5 -24.5zM434 540q-37 0 -63 24.5t-26 60.5t26 60.5t63 24.5t63 -24.5t26 -60.5t-26 -60.5t-63 -24.5zM328 500q105 0 157.5 -57t36.5 -153l-51 -290h-155l3 20
q-60 -29 -128 -29q-82 0 -130 35.5t-48 97.5q0 78 60 122t162 44h132q15 83 -62 83q-31 0 -54.5 -15t-31.5 -41h-154q19 89 94 136t169 47zM234 114q52 0 107 30l9 51h-127q-24 0 -38.5 -10.5t-14.5 -28.5t16 -30t48 -12z" />
    <glyph glyph-name="agrave.ss06" horiz-adv-x="557" 
d="M248 544l-100 160h171l80 -160h-151zM328 500q105 0 157.5 -57t36.5 -153l-51 -290h-155l3 20q-60 -29 -128 -29q-82 0 -130 35.5t-48 97.5q0 78 60 122t162 44h132q15 83 -62 83q-31 0 -54.5 -15t-31.5 -41h-154q19 89 94 136t169 47zM234 114q52 0 107 30l9 51h-127
q-24 0 -38.5 -10.5t-14.5 -28.5t16 -30t48 -12z" />
    <glyph glyph-name="amacron.ss06" horiz-adv-x="557" 
d="M478 557h-286l21 116h287zM328 500q105 0 157.5 -57t36.5 -153l-51 -290h-155l3 20q-60 -29 -128 -29q-82 0 -130 35.5t-48 97.5q0 78 60 122t162 44h132q15 83 -62 83q-31 0 -54.5 -15t-31.5 -41h-154q19 89 94 136t169 47zM234 114q52 0 107 30l9 51h-127
q-24 0 -38.5 -10.5t-14.5 -28.5t16 -30t48 -12z" />
    <glyph glyph-name="aogonek.ss06" horiz-adv-x="557" 
d="M471 0h-13q-55 -12 -55 -39q0 -28 50 -28q20 0 47 7l15 -120q-28 -14 -81 -14q-72 0 -118 34t-46 93q0 49 49 86q-63 -28 -128 -28q-82 0 -130 35.5t-48 97.5q0 78 60 122t162 44h132q15 83 -62 83q-31 0 -54.5 -15t-31.5 -41h-154q19 89 94 136t169 47q105 0 157.5 -57
t36.5 -153zM170 156q0 -18 16 -30t48 -12q52 0 107 30l9 51h-127q-24 0 -38.5 -10.5t-14.5 -28.5z" />
    <glyph glyph-name="aring.ss06" horiz-adv-x="557" 
d="M328 528q-55 0 -89.5 32t-34.5 84t34.5 83.5t89.5 31.5t89.5 -31.5t34.5 -83.5t-34.5 -84t-89.5 -32zM328 687q-20 0 -32 -12t-12 -31q0 -20 12 -31.5t32 -11.5t32 11.5t12 31.5q0 19 -12 31t-32 12zM328 500q105 0 157.5 -57t36.5 -153l-51 -290h-155l3 20
q-60 -29 -128 -29q-82 0 -130 35.5t-48 97.5q0 78 60 122t162 44h132q15 83 -62 83q-31 0 -54.5 -15t-31.5 -41h-154q19 89 94 136t169 47zM234 114q52 0 107 30l9 51h-127q-24 0 -38.5 -10.5t-14.5 -28.5t16 -30t48 -12z" />
    <glyph glyph-name="atilde.ss06" horiz-adv-x="557" 
d="M249 564h-108q0 49 19 82t48 45t60.5 11t59.5 -15l26 -13q26 -11 38.5 -3t12.5 29h108q0 -49 -18.5 -82.5t-47.5 -45.5t-61 -11t-60 15l-26 13q-26 11 -38.5 3.5t-12.5 -28.5zM328 500q105 0 157.5 -57t36.5 -153l-51 -290h-155l3 20q-60 -29 -128 -29q-82 0 -130 35.5
t-48 97.5q0 78 60 122t162 44h132q15 83 -62 83q-31 0 -54.5 -15t-31.5 -41h-154q19 89 94 136t169 47zM234 114q52 0 107 30l9 51h-127q-24 0 -38.5 -10.5t-14.5 -28.5t16 -30t48 -12z" />
    <glyph glyph-name="zero.osf" horiz-adv-x="640" 
d="M373 553q109 0 176.5 -65t67.5 -171q0 -143 -97 -236t-240 -93q-110 0 -178.5 65t-68.5 170q0 142 98.5 236t241.5 94zM301 127q65 0 114 48t49 119q0 53 -31.5 86t-81.5 33q-66 0 -115.5 -47.5t-49.5 -119.5q0 -52 32.5 -85.5t82.5 -33.5z" />
    <glyph glyph-name="one.osf" horiz-adv-x="531" 
d="M498 137l-25 -137h-491l25 137h170l41 231l-168 -45l26 147l235 77h100l-72 -410h159z" />
    <glyph glyph-name="two.osf" horiz-adv-x="572" 
d="M539 373q0 -72 -50.5 -126t-152.5 -110h176l-24 -137h-484l15 87l163 96q120 72 153 104t33 59q0 23 -15.5 38.5t-48.5 15.5q-37 0 -63.5 -22t-35.5 -60h-159q21 105 95.5 167.5t188.5 62.5q100 0 154.5 -50t54.5 -125z" />
    <glyph glyph-name="three.osf" horiz-adv-x="578" 
d="M450 200q63 -40 63 -116q0 -110 -76 -174.5t-211 -64.5q-109 0 -170.5 58.5t-57.5 155.5h157q3 -78 90 -78q47 0 78.5 25t31.5 62q0 31 -24.5 49t-64.5 18h-59l22 124h59l-4 -21l4 21q44 0 74 26t30 65q0 29 -19.5 46.5t-52.5 17.5q-82 0 -103 -79h-157q23 99 96.5 156.5
t184.5 57.5q94 0 149 -48t55 -126q0 -117 -95 -175z" />
    <glyph glyph-name="four.osf" horiz-adv-x="656" 
d="M583 0h-85l-21 -120h-159l21 120h-346l18 105l265 455h162l-233 -419h159l33 187h159l-33 -187h85z" />
    <glyph glyph-name="five.osf" horiz-adv-x="611" 
d="M269 399l-17 -94h84q98 0 152.5 -51.5t54.5 -134.5q0 -116 -88 -193.5t-219 -77.5q-113 0 -173 58t-57 156h159q4 -36 28 -57t68 -21q52 0 88.5 31.5t36.5 77.5q0 35 -26.5 56.5t-74.5 21.5h-212l66 372h450l-26 -144h-294z" />
    <glyph glyph-name="six.osf" horiz-adv-x="624" 
d="M542 680l-165 -203q98 -6 156 -63.5t58 -142.5q0 -119 -92.5 -202.5t-231.5 -83.5q-107 0 -170 60.5t-63 153.5q0 52 22 96.5t69 103.5l226 281h191zM291 120q57 0 97.5 38.5t40.5 87.5q0 39 -27 67t-72 28q-48 0 -83 -23l-5 -7q-30 -33 -40 -52.5t-10 -43.5
q0 -38 27.5 -66.5t71.5 -28.5z" />
    <glyph glyph-name="seven.osf" horiz-adv-x="524" 
d="M564 540l-17 -95l-364 -585h-183l332 529h-291l27 151h496z" />
    <glyph glyph-name="eight.osf" horiz-adv-x="623" 
d="M495 359q83 -47 83 -136q0 -105 -86.5 -171.5t-229.5 -66.5q-114 0 -177 49t-63 131q0 66 37 117t104 80q-60 42 -60 113q0 95 82 157.5t203 62.5q97 0 155.5 -47t58.5 -122q0 -109 -107 -167zM366 573q-46 0 -78 -28t-32 -68q0 -31 22 -51.5t58 -20.5q46 0 78 28.5
t32 67.5q0 31 -22 51.5t-58 20.5zM285 117q49 0 84.5 30.5t35.5 72.5q0 33 -24.5 54.5t-63.5 21.5q-50 0 -84.5 -29t-34.5 -72q0 -34 24 -56t63 -22z" />
    <glyph glyph-name="nine.osf" horiz-adv-x="624" 
d="M370 559q108 0 171 -60.5t63 -153.5q0 -52 -22 -96.5t-69 -103.5l-227 -281h-190l165 203q-98 6 -156 63.5t-58 142.5q0 119 92.5 202.5t230.5 83.5zM391 227l5 6q30 33 39.5 52.5t9.5 43.5q0 39 -27 67t-71 28q-57 0 -97.5 -38.5t-40.5 -87.5q0 -39 26.5 -67t71.5 -28
q48 0 84 24z" />
    <glyph glyph-name="zero.tf" horiz-adv-x="650" 
d="M401 695q120 0 185.5 -77t65.5 -203q0 -183 -104 -306.5t-273 -123.5q-120 0 -185.5 77t-65.5 204q0 182 104 305.5t273 123.5zM296 132q91 0 141.5 78.5t52.5 186.5q2 69 -25 110t-85 41q-91 0 -141.5 -78.5t-52.5 -186.5q-2 -69 25 -110t85 -41z" />
    <glyph glyph-name="one.tf" horiz-adv-x="650" 
d="M592 137l-25 -137h-544l25 137h188l65 365l-168 -45l25 146l236 77h100l-96 -543h194z" />
    <glyph glyph-name="two.tf" horiz-adv-x="650" 
d="M311 137h239l-24 -137h-485l14 80l251 251q14 13 36.5 35t32 31.5t23.5 24.5t19 24.5t9.5 21t4.5 22.5q0 24 -15.5 40.5t-47.5 16.5q-38 0 -64.5 -22t-35.5 -60h-159q21 104 95.5 167t188.5 63q101 0 158 -51.5t57 -129.5q0 -31 -7.5 -55t-34 -58.5t-53.5 -63t-90 -90.5z
" />
    <glyph glyph-name="three.tf" horiz-adv-x="650" 
d="M507 340q63 -40 63 -116q0 -110 -76.5 -174.5t-210.5 -64.5q-109 0 -171 58.5t-58 155.5h158q2 -78 89 -78q48 0 79 25t31 62q0 30 -24.5 48.5t-63.5 18.5h-59l21 124h59q45 0 75 26t30 65q0 29 -19.5 46.5t-53.5 17.5q-82 0 -102 -79h-158q24 99 97.5 156.5t183.5 57.5
q94 0 149.5 -48t55.5 -126q0 -117 -95 -175z" />
    <glyph glyph-name="four.tf" horiz-adv-x="650" 
d="M595 120h-85l-21 -120h-159l21 120h-346l18 105l265 455h162l-233 -419h159l33 187h159l-33 -187h85z" />
    <glyph glyph-name="five.tf" horiz-adv-x="650" 
d="M312 536l-17 -94h84q98 0 152.5 -51.5t54.5 -134.5q0 -116 -88 -193.5t-219 -77.5q-113 0 -173 58t-57 156h159q4 -36 28 -57t68 -21q52 0 88.5 31.5t36.5 77.5q0 35 -26.5 56.5t-74.5 21.5h-212l66 372h450l-26 -144h-294z" />
    <glyph glyph-name="six.tf" horiz-adv-x="650" 
d="M550 680l-165 -203q98 -6 156 -63.5t58 -142.5q0 -119 -92.5 -202.5t-230.5 -83.5q-108 0 -171 60.5t-63 153.5q0 52 22 96.5t69 103.5l227 281h190zM299 120q57 0 97.5 38.5t40.5 87.5q0 39 -26.5 67t-71.5 28q-48 0 -84 -24l-5 -6q-30 -33 -39.5 -52.5t-9.5 -43.5
q0 -39 27 -67t71 -28z" />
    <glyph glyph-name="seven.tf" horiz-adv-x="650" 
d="M658 680l-16 -95l-364 -585h-184l332 529h-290l26 151h496z" />
    <glyph glyph-name="eight.tf" horiz-adv-x="650" 
d="M512 359q83 -47 83 -136q0 -105 -86.5 -171.5t-229.5 -66.5q-114 0 -177 49t-63 131q0 66 37.5 117t103.5 80q-60 43 -60 113q0 95 82.5 157.5t202.5 62.5q97 0 155.5 -47t58.5 -122q0 -110 -107 -167zM383 573q-46 0 -78 -28t-32 -68q0 -31 22.5 -51.5t58.5 -20.5
q45 0 77 28.5t32 67.5q0 31 -22 51.5t-58 20.5zM303 117q49 0 84.5 30.5t35.5 72.5q0 33 -25 54.5t-64 21.5q-49 0 -84 -29.5t-35 -71.5q0 -34 24 -56t64 -22z" />
    <glyph glyph-name="nine.tf" horiz-adv-x="623" 
d="M390 695q108 0 171 -60.5t63 -153.5q0 -52 -22 -96.5t-69 -103.5l-227 -281h-190l165 203q-98 6 -156 63.5t-58 142.5q0 119 92.5 202.5t230.5 83.5zM411 363l5 6q30 33 39.5 52.5t9.5 43.5q0 39 -27 67t-71 28q-57 0 -97.5 -38.5t-40.5 -87.5q0 -39 26.5 -67t71.5 -28
q48 0 84 24z" />
    <glyph glyph-name="zero.zero" horiz-adv-x="718" 
d="M437 695q124 0 192 -79t68 -211q0 -177 -109 -298.5t-277 -121.5q-124 0 -192 79t-68 212q0 177 108.5 298t277.5 121zM411 548q-90 0 -143.5 -76t-53.5 -186v-13l257 260q-25 15 -60 15zM338 132q89 0 142.5 76t53.5 186q0 13 -2 35l-269 -272q30 -25 75 -25z" />
    <glyph glyph-name="zero.osf.zero" horiz-adv-x="641" 
d="M373 553q110 0 177.5 -65t67.5 -171q0 -143 -97 -236t-240 -93q-110 0 -178.5 65t-68.5 170q0 142 98 236t241 94zM352 413q-66 0 -115.5 -47.5t-49.5 -119.5l1 -16l217 171q-23 12 -53 12zM302 127q65 0 114 48t49 119q0 16 -3 31l-227 -178q28 -20 67 -20z" />
    <glyph glyph-name="zero.dnom" horiz-adv-x="455" 
d="M260 424q80 0 124.5 -49t44.5 -128q0 -108 -69 -182t-177 -74q-79 0 -123.5 48.5t-44.5 127.5q0 109 69 183t176 74zM202 95q50 0 80 41t30 97q0 38 -18 62.5t-52 24.5q-50 0 -80.5 -41t-30.5 -97q0 -39 18 -63t53 -24z" />
    <glyph glyph-name="one.dnom" horiz-adv-x="341" 
d="M303 97l-17 -97h-311l16 97h103l34 192l-102 -27l18 103l149 46h67l-55 -314h98z" />
    <glyph glyph-name="two.dnom" horiz-adv-x="373" 
d="M189 97h127l-17 -97h-311l10 57l167 156q38 36 49 49t11 28q0 26 -30 26q-42 0 -50 -41h-111q13 66 60 105.5t119 39.5q64 0 100 -31t36 -78q0 -34 -18.5 -64.5t-83.5 -93.5z" />
    <glyph glyph-name="three.dnom" horiz-adv-x="384" 
d="M294 205q35 -24 35 -68q0 -63 -49.5 -105t-129.5 -42q-71 0 -109.5 36.5t-35.5 99.5h112q4 -39 46 -39q24 0 39 12t15 30q0 30 -51 30l3 15l-3 -15h-33l15 88h33q26 0 41.5 12t15.5 31q0 30 -36 30q-38 0 -49 -40h-112q15 64 61.5 100t115.5 36q60 0 94.5 -30t34.5 -79
q0 -68 -53 -102z" />
    <glyph glyph-name="four.dnom" horiz-adv-x="420" 
d="M365 68h-49l-12 -68h-114l12 68h-208l13 75l157 268h116l-135 -243h75l16 93h114l-16 -93h47z" />
    <glyph glyph-name="five.dnom" horiz-adv-x="397" 
d="M181 312l-8 -43h40q64 0 97 -30t33 -80q0 -73 -54.5 -120.5t-136.5 -47.5q-70 0 -108 36t-33 96h113q5 -36 46 -36q26 0 44 15.5t18 37.5q0 38 -47 38h-137l42 233h280l-17 -99h-172z" />
    <glyph glyph-name="six.dnom" horiz-adv-x="396" 
d="M328 411l-97 -120q57 -7 89 -41t32 -84q0 -72 -58 -123.5t-143 -51.5q-66 0 -106 38t-40 93q0 54 59 125l129 164h135zM168 86q28 0 48.5 18.5t20.5 45.5q0 21 -13.5 34t-35.5 13q-26 0 -46 -15q-25 -27 -25 -48t14 -34.5t37 -13.5z" />
    <glyph glyph-name="seven.dnom" horiz-adv-x="347" 
d="M361 411l-12 -67l-215 -344h-131l193 304h-167l19 107h313z" />
    <glyph glyph-name="eight.dnom" horiz-adv-x="408" 
d="M307 217q46 -29 46 -81q0 -64 -53 -104.5t-143 -40.5q-72 0 -112.5 30t-40.5 80q0 78 82 118q-33 25 -33 65q0 59 51 97.5t128 38.5q62 0 99 -28.5t37 -76.5q0 -64 -61 -98zM217 334q-23 0 -39 -14t-16 -35q0 -16 11 -26t29 -10q22 0 38 14t16 36q0 16 -11 25.5t-28 9.5z
M173 84q24 0 41 14.5t17 36.5q0 17 -12 27t-31 10q-25 0 -41.5 -14.5t-16.5 -36.5q0 -17 11.5 -27t31.5 -10z" />
    <glyph glyph-name="nine.dnom" horiz-adv-x="396" 
d="M232 421q66 0 106 -38t40 -93q0 -54 -59 -125l-129 -164h-135l97 120q-57 7 -89 41t-32 84q0 72 58 123.5t143 51.5zM195 215q27 0 46 15q25 27 25 48t-14 34.5t-37 13.5q-28 0 -48.5 -18.5t-20.5 -45.5q0 -21 13.5 -34t35.5 -13z" />
    <glyph glyph-name="zero.numr" horiz-adv-x="455" 
d="M307 693q80 0 124.5 -49t44.5 -128q0 -108 -69 -182t-177 -74q-79 0 -123.5 48.5t-44.5 127.5q0 109 69 183t176 74zM249 364q50 0 80 41t30 97q0 38 -18 62.5t-52 24.5q-50 0 -80.5 -41t-30.5 -97q0 -39 18 -63t53 -24z" />
    <glyph glyph-name="one.numr" horiz-adv-x="341" 
d="M353 366l-17 -97h-311l16 97h103l34 192l-102 -27l18 103l149 46h67l-55 -314h98z" />
    <glyph glyph-name="two.numr" horiz-adv-x="373" 
d="M239 366h127l-17 -97h-311l10 57l167 156q38 36 49 49t11 28q0 26 -30 26q-42 0 -50 -41h-111q13 66 60 105.5t119 39.5q64 0 100 -31t36 -78q0 -34 -18.5 -64.5t-83.5 -93.5z" />
    <glyph glyph-name="three.numr" horiz-adv-x="384" 
d="M344 478q35 -24 35 -68q0 -63 -49.5 -105t-129.5 -42q-71 0 -109.5 36.5t-35.5 99.5h112q4 -39 46 -39q24 0 39 12t15 30q0 30 -51 30l3 15l-3 -15h-33l15 88h33q26 0 41.5 12t15.5 31q0 30 -36 30q-38 0 -49 -40h-112q15 64 61.5 100t115.5 36q60 0 94.5 -30t34.5 -79
q0 -68 -53 -102z" />
    <glyph glyph-name="four.numr" horiz-adv-x="420" 
d="M415 337h-49l-12 -68h-114l12 68h-208l13 75l157 268h116l-135 -243h75l16 93h114l-16 -93h47z" />
    <glyph glyph-name="five.numr" horiz-adv-x="397" 
d="M231 581l-8 -43h40q64 0 97 -30t33 -80q0 -73 -54.5 -120.5t-136.5 -47.5q-70 0 -108 36t-33 96h113q5 -36 46 -36q26 0 44 15.5t18 37.5q0 38 -47 38h-137l42 233h280l-17 -99h-172z" />
    <glyph glyph-name="six.numr" horiz-adv-x="396" 
d="M376 680l-97 -120q57 -7 89 -41t32 -84q0 -72 -58 -123.5t-143 -51.5q-66 0 -106 38t-40 93q0 54 59 125l129 164h135zM216 355q28 0 48.5 18.5t20.5 45.5q0 21 -13.5 34t-35.5 13q-26 0 -46 -15q-25 -27 -25 -48t14 -34.5t37 -13.5z" />
    <glyph glyph-name="seven.numr" horiz-adv-x="347" 
d="M411 680l-12 -67l-215 -344h-131l193 304h-167l19 107h313z" />
    <glyph glyph-name="eight.numr" horiz-adv-x="408" 
d="M357 490q46 -29 46 -81q0 -64 -53 -104.5t-143 -40.5q-72 0 -112.5 30t-40.5 80q0 78 82 118q-33 25 -33 65q0 59 51 97.5t128 38.5q62 0 99 -28.5t37 -76.5q0 -64 -61 -98zM267 607q-23 0 -39 -14t-16 -35q0 -16 11 -26t29 -10q22 0 38 14t16 36q0 16 -11 25.5t-28 9.5z
M223 357q24 0 41 14.5t17 36.5q0 17 -12 27t-31 10q-25 0 -41.5 -14.5t-16.5 -36.5q0 -17 11.5 -27t31.5 -10z" />
    <glyph glyph-name="nine.numr" horiz-adv-x="396" 
d="M282 694q66 0 106 -38t40 -93q0 -54 -59 -125l-129 -164h-135l97 120q-57 7 -89 41t-32 84q0 72 58 123.5t143 51.5zM245 488q27 0 46 15q25 27 25 48t-14 34.5t-37 13.5q-28 0 -48.5 -18.5t-20.5 -45.5q0 -21 13.5 -34t35.5 -13z" />
    <glyph glyph-name="backslash.case" horiz-adv-x="399" 
d="M8 730h162l220 -777h-162z" />
    <glyph glyph-name="bullet.case" horiz-adv-x="358" 
d="M193 181q-61 0 -106.5 45t-45.5 106t45.5 106t106.5 45q62 0 107.5 -45t45.5 -106t-45.5 -106t-107.5 -45z" />
    <glyph glyph-name="exclamdown.case" horiz-adv-x="296" 
d="M208 691q36 0 61.5 -24t25.5 -60t-25.5 -60t-61.5 -24t-62 24t-26 60t26 60t62 24zM109 458h142l-67 -458h-170z" />
    <glyph glyph-name="periodcentered.case" horiz-adv-x="235" 
d="M134 243q-38 0 -64.5 25t-26.5 63q0 36 26.5 61t64.5 25t64.5 -25t26.5 -61q0 -38 -26.5 -63t-64.5 -25z" />
    <glyph glyph-name="questiondown.case" horiz-adv-x="539" 
d="M360 523q-36 0 -62 24t-26 60t26 60t62 24t62 -24t26 -60t-26 -60t-62 -24zM235 -9q-102 0 -159 54.5t-51 145.5q4 86 67 142.5t162 69.5l16 58h122l-18 -163h-82q-49 0 -82.5 -28t-33.5 -73q0 -33 20 -52t55 -19q39 0 67 21.5t39 57.5h157q-24 -99 -97.5 -156.5
t-181.5 -57.5z" />
    <glyph glyph-name="slash.case" horiz-adv-x="399" 
d="M-42 -47l357 777h162l-357 -777h-162z" />
    <glyph glyph-name="braceleft.case" horiz-adv-x="368" 
d="M318 538l-16 -91q-7 -42 -28.5 -66.5t-66.5 -37.5q40 -13 53 -37.5t5 -67.5l-16 -90q-4 -24 13.5 -38.5t50.5 -14.5l-27 -151q-107 0 -162 52.5t-39 141.5l16 88q6 38 -7.5 45.5t-62.5 7.5l22 128q29 0 38.5 0.5t23 5.5t18.5 16t9 31l15 88q16 89 90 141.5t180 52.5
l-27 -151q-33 0 -55 -14.5t-27 -38.5z" />
    <glyph glyph-name="braceright.case" horiz-adv-x="368" 
d="M86 148l16 90q7 43 28.5 67.5t66.5 37.5q-41 13 -53.5 37t-4.5 67l15 91q5 23 -13 38t-51 15l27 151q107 0 162 -52.5t39 -141.5l-16 -88q-7 -42 15 -49q11 -4 56 -4l-23 -128q-23 0 -31.5 -0.5t-21.5 -2.5t-18 -8t-10 -16t-8 -26l-15 -88q-16 -89 -89 -141.5t-180 -52.5
l26 151q33 0 56 14.5t27 38.5z" />
    <glyph glyph-name="bracketleft.case" horiz-adv-x="405" 
d="M200 105h146l-28 -152h-307l137 777h308l-27 -151h-145z" />
    <glyph glyph-name="bracketright.case" horiz-adv-x="403" 
d="M239 579h-145l27 151h308l-137 -777h-308l27 152h145z" />
    <glyph glyph-name="parenleft.case" horiz-adv-x="383" 
d="M327 731l92 -117q-92 -81 -130.5 -134.5t-53.5 -133.5q-14 -80 5 -139.5t80 -141.5l-130 -104q-87 92 -118 188t-11 210q20 111 80.5 194t185.5 178z" />
    <glyph glyph-name="parenright.case" horiz-adv-x="383" 
d="M100 627l129 104q87 -92 118 -188t11 -210q-20 -111 -80.5 -194t-184.5 -178l-93 117q92 81 130.5 134.5t54.5 133.5q14 80 -5.5 139.5t-79.5 141.5z" />
    <glyph glyph-name="emdash.case" horiz-adv-x="1071" 
d="M974 252l27 155h-875l-27 -155h875z" />
    <glyph glyph-name="endash.case" horiz-adv-x="693" 
d="M596 252l27 155h-497l-27 -155h497z" />
    <glyph glyph-name="hyphen.case" horiz-adv-x="556" 
d="M459 251l27 154h-361l-27 -154h361z" />
    <glyph glyph-name="guillemotleft.case" horiz-adv-x="487" 
d="M300 489l-124 -166l67 -155h-144l-67 161l124 160h144zM504 489l-124 -166l67 -155h-144l-67 161l124 160h144z" />
    <glyph glyph-name="guillemotright.case" horiz-adv-x="487" 
d="M13 168l124 166l-67 155h144l67 -160l-124 -161h-144zM217 168l124 166l-67 155h144l67 -160l-124 -161h-144z" />
    <glyph glyph-name="guilsinglleft.case" horiz-adv-x="284" 
d="M300 489l-124 -166l67 -155h-144l-67 161l124 160h144z" />
    <glyph glyph-name="guilsinglright.case" horiz-adv-x="281" 
d="M4 168l124 166l-67 155h144l67 -160l-124 -161h-144z" />
    <glyph glyph-name="florin.tf" horiz-adv-x="650" 
d="M585 538q-72 0 -97 -80l-23 -73h153l-23 -129h-171l-48 -151q-34 -108 -99.5 -168t-156.5 -60q-57 0 -126 19l46 138q41 -9 73 -9q73 0 98 79l48 152h-122l22 129h140l23 73q35 108 100 167.5t156 59.5q62 0 127 -18l-46 -138q-43 9 -74 9z" />
    <glyph glyph-name="cent.tf" horiz-adv-x="650" 
d="M344 359q-51 0 -87 -32.5t-45 -83.5h1q-9 -53 15 -85t75 -32q37 0 66.5 20t42.5 53h153q-22 -79 -84 -134t-144 -70l-17 -99h-131l18 101q-85 20 -125 85.5t-23 160.5h-1q16 91 80.5 157t154.5 87l21 119h131l-21 -116q77 -15 119.5 -70t35.5 -134h-153q0 33 -22.5 53
t-59.5 20z" />
    <glyph glyph-name="dollar.tf" horiz-adv-x="650" 
d="M653 469h-169q1 40 -22 63t-73 23q-49 0 -79.5 -20.5t-30.5 -56.5q0 -22 16.5 -34.5t51.5 -20.5l91 -22q84 -19 129 -57.5t45 -105.5q0 -105 -77 -172t-203 -78l-17 -98h-131l18 105q-86 18 -135 76t-44 155h169q1 -96 126 -96q52 0 79.5 18.5t27.5 49.5q0 37 -62 50
l-108 25q-171 38 -165 180q4 96 69 157t165 78l20 111h131l-19 -107q41 -5 76 -19t65.5 -39t45.5 -67.5t10 -97.5z" />
    <glyph glyph-name="Euro.tf" horiz-adv-x="650" 
d="M341 132q67 0 98 42h180q-40 -88 -120.5 -138.5t-183.5 -50.5q-110 0 -176 63t-79 170h-57l16 89h39q4 34 7 51h-37l15 89h46q44 113 136.5 180.5t214.5 67.5q106 0 169.5 -54.5t70.5 -147.5h-173q-17 55 -93 55q-101 0 -157 -101h236l-38 -89h-229q-4 -26 -6 -51h214
l-38 -89h-166q26 -86 111 -86z" />
    <glyph glyph-name="sterling.tf" horiz-adv-x="650" 
d="M411 552q-43 0 -74 -27.5t-39 -74.5l-10 -55h182l-22 -126h-182l-23 -130h335l-26 -139h-550l25 139h55l23 130h-55l22 126h55l10 55q19 110 101 176t197 66q107 0 165.5 -58t50.5 -158h-162q-2 36 -22 56t-56 20z" />
    <glyph glyph-name="yen.tf" horiz-adv-x="650" 
d="M475 318h125l-18 -105h-175l-4 -7l-7 -35h178l-18 -105h-178l-12 -66h-170l12 66h-179l18 105h179l6 34l-2 8h-175l18 105h126l-106 362h187l68 -295l172 295h187z" />
    <glyph glyph-name="arrowdown.ss05" horiz-adv-x="704" 
d="M627 396l-275 -275l-95 95l-180 182l95 95l180 -182l180 180z" />
    <glyph glyph-name="arrowleft.ss05" horiz-adv-x="704" 
d="M532 122l-180 180l-180 -182l-95 95l180 182l95 95l275 -275z" />
    <glyph glyph-name="arrowright.ss05" horiz-adv-x="565" 
d="M277 335l180 -180l-95 -95l-275 275l95 95l182 180l95 -95z" />
    <glyph glyph-name="arrowup.ss05" horiz-adv-x="565" 
d="M384 240l-181 -180l-95 95l180 180l-181 180l95 95l182 -180l95 -95z" />
    <glyph glyph-name="at.case" horiz-adv-x="970" 
d="M578 743q164 0 266 -98.5t102 -251.5q0 -58 -13.5 -109t-40 -93.5t-72 -67.5t-104.5 -25q-103 0 -135 65q-71 -63 -158 -63q-74 0 -121 50t-47 127q0 101 73 173t170 72q63 0 107 -34l4 24h138l-43 -242q-12 -70 36 -70q49 0 74 52t25 129q0 116 -75.5 189t-200.5 73
q-105 0 -199 -52t-151.5 -140.5t-57.5 -189.5q0 -121 80 -200.5t204 -79.5q122 0 226 73l43 -87q-130 -87 -286 -87q-164 0 -270.5 104.5t-106.5 264.5q0 134 75.5 248.5t198 180t259.5 65.5zM472 215q54 0 96 46q1 18 7 54l8 49q-28 44 -77 44q-43 0 -77.5 -31.5
t-34.5 -81.5q0 -36 22.5 -58t55.5 -22z" />
    <glyph glyph-name="bar.case" horiz-adv-x="266" 
d="M292 730l-137 -777h-144l137 777h144z" />
    <glyph glyph-name="brokenbar.case" horiz-adv-x="266" 
d="M233 392h-144l59 338h144zM155 -47h-144l60 337h144z" />
    <glyph glyph-name="registered.ss07" horiz-adv-x="815" 
d="M417 695q150 0 257 -102t107 -253t-107 -253t-257 -102t-257 102t-107 253t107 253t257 102zM417 75q109 0 189 77t80 188t-80 188t-189 77q-110 0 -189.5 -77t-79.5 -188t79.5 -188t189.5 -77zM561 389q0 -59 -53 -89l68 -102h-106l-49 83h-39v-83h-87v303h135
q60 0 95.5 -30t35.5 -82zM382 354h47q41 0 41 36q0 15 -10.5 24.5t-30.5 9.5h-47v-70z" />
    <glyph glyph-name="caron.alt" 
d="M402 680l-73 -204h-115l40 204h148z" />
    <glyph glyph-name="acute.case" 
d="M513 877l-128 -160h-151l108 160h171z" />
    <glyph glyph-name="breve.case" 
d="M400 890h118q-15 -81 -69.5 -125t-132.5 -44t-120 44.5t-28 124.5h115q-12 -65 46 -65q25 0 45.5 16.5t25.5 48.5z" />
    <glyph glyph-name="caron.case" 
d="M548 873l-145 -160h-155l-89 160h137l43 -72l65 72h144z" />
    <glyph glyph-name="circumflex.case" 
d="M331 786l-61 -73h-146l145 164h153l88 -164h-136z" />
    <glyph glyph-name="dieresis.case" 
d="M216 903q37 0 62.5 -24.5t25.5 -60.5t-25.5 -60.5t-62.5 -24.5q-38 0 -63.5 24t-25.5 61q0 36 25.5 60.5t63.5 24.5zM438 903q37 0 63 -24.5t26 -60.5t-26 -60.5t-63 -24.5t-63 24.5t-26 60.5t26 60.5t63 24.5z" />
    <glyph glyph-name="dotaccent.case" 
d="M310 723q-38 0 -65 25.5t-27 62.5t27 62.5t65 25.5t64.5 -25.5t26.5 -62.5t-26.5 -62.5t-64.5 -25.5z" />
    <glyph glyph-name="grave.case" 
d="M412 717h-151l-100 160h172z" />
    <glyph glyph-name="hungarumlaut.case" 
d="M371 878l-84 -160h-128l64 160h148zM538 878l-84 -160h-127l63 160h148z" />
    <glyph glyph-name="macron.case" 
d="M476 846l-22 -116h-286l21 116h287z" />
    <glyph glyph-name="ring.case" 
d="M323 945q55 0 89.5 -31.5t34.5 -83.5t-34.5 -83.5t-89.5 -31.5t-89.5 31.5t-34.5 83.5t34.5 83.5t89.5 31.5zM323 787q20 0 32 11.5t12 31.5t-12 31.5t-32 11.5t-32 -11.5t-12 -31.5t12 -31.5t32 -11.5z" />
    <glyph glyph-name="tilde.case" 
d="M403 873h108q0 -49 -18.5 -82.5t-47.5 -45.5t-61 -11t-60 15l-26 13q-26 11 -38.5 3.5t-12.5 -28.5h-108q0 49 19 82t48 45t60.5 11t59.5 -15l26 -13q26 -11 38.5 -3t12.5 29z" />
    </font>
</defs>
</svg>
