<?xml version="1.0" standalone="no"?>
<!DOCTYPE svg PUBLIC "-//W3C//DTD SVG 1.1//EN" "http://www.w3.org/Graphics/SVG/1.1/DTD/svg11.dtd" >
<svg xmlns="http://www.w3.org/2000/svg" xmlns:xlink="http://www.w3.org/1999/xlink" version="1.1">
<metadata>
Created by FontForge 20170731 at Wed Feb 19 04:50:42 2014
 By Aleksey,,,
Copyright (c) 2014 by Rene' Bieder. All rights reserved.
</metadata>
<defs>
<font id="Campton-Book" horiz-adv-x="600" >
  <font-face 
    font-family="Campton Book"
    font-weight="475"
    font-stretch="normal"
    units-per-em="1000"
    panose-1="0 0 5 0 0 0 0 0 0 0"
    ascent="800"
    descent="-200"
    x-height="467"
    cap-height="680"
    bbox="-33 -243 1452 968"
    underline-thickness="50"
    underline-position="-200"
    unicode-range="U+0020-FB02"
  />
<missing-glyph horiz-adv-x="870" 
d="M770 680v-680h-670v680h670zM700 610h-481l481 -481v481zM170 70h477l-477 477v-477z" />
    <glyph glyph-name="fi" unicode="fi" horiz-adv-x="684" 
d="M598 467v-467h-92v390h-276v-390h-92v390h-134v77h134v76q0 99 54.5 157t143.5 58q65 0 158 -25q9 -3 13 -4l-17 -79q-92 23 -143 23q-55 0 -86 -34t-31 -96v-76h368z" />
    <glyph glyph-name="fl" unicode="fl" horiz-adv-x="663" 
d="M138 467v103q0 85 49 136.5t129 51.5q53 0 102 -14l-13 -80q-45 9 -72 9q-47 0 -75 -28.5t-28 -74.5v-103h165v-77h-165v-390h-92v390h-134v77h134zM586 710v-710h-91v710h91z" />
    <glyph glyph-name=".notdef" horiz-adv-x="870" 
d="M770 680v-680h-670v680h670zM700 610h-481l481 -481v481zM170 70h477l-477 477v-477z" />
    <glyph glyph-name=".null" horiz-adv-x="0" 
 />
    <glyph glyph-name="nonmarkingreturn" horiz-adv-x="333" 
 />
    <glyph glyph-name="space" unicode=" " horiz-adv-x="267" 
 />
    <glyph glyph-name="exclam" unicode="!" horiz-adv-x="271" 
d="M176 197h-82l-7 483h97zM135 -9q-24 0 -41.5 17t-17.5 41t17.5 40.5t41.5 16.5q25 0 42.5 -16.5t17.5 -40.5q0 -25 -17.5 -41.5t-42.5 -16.5z" />
    <glyph glyph-name="quotedbl" unicode="&#x22;" horiz-adv-x="324" 
d="M126 680v-272h-78v272h78zM277 680v-272h-79v272h79z" />
    <glyph glyph-name="numbersign" unicode="#" horiz-adv-x="749" 
d="M536 268h120v-82h-146l-58 -186h-95l58 186h-180l-58 -186h-95l58 186h-103v82h129l42 134h-116v82h141l62 197h95l-62 -197h180l62 197h95l-62 -197h108v-82h-133zM303 402l-42 -134h180l42 134h-180z" />
    <glyph glyph-name="dollar" unicode="$" horiz-adv-x="664" 
d="M310 395l94 -19q197 -38 197 -181q0 -85 -58 -140.5t-157 -66.5v-114h-83v114q-107 10 -172.5 70.5t-75.5 161.5h95q11 -70 62 -109.5t136 -39.5q71 0 113 30.5t42 81.5q0 80 -114 101l-115 22q-190 35 -190 186q0 85 60 139.5t159 62.5v116h83v-119q88 -12 146.5 -62.5
t69.5 -141.5h-94q-23 126 -170 126q-70 0 -111.5 -31t-41.5 -83q0 -81 125 -104z" />
    <glyph glyph-name="percent" unicode="%" horiz-adv-x="1085" 
d="M279 695q82 0 136.5 -53.5t54.5 -137.5q0 -85 -54.5 -138.5t-136.5 -53.5q-83 0 -138 53.5t-55 138.5q0 84 55 137.5t138 53.5zM342 0h-67l457 680h67zM278 379q51 0 86 35.5t35 89.5q0 53 -35 88.5t-86 35.5t-86.5 -35.5t-35.5 -88.5q0 -54 35.5 -89.5t86.5 -35.5z
M807 368q83 0 137.5 -53.5t54.5 -137.5q0 -85 -54.5 -138.5t-137.5 -53.5q-82 0 -137 54t-55 138t55 137.5t137 53.5zM806 53q52 0 87 35t35 89t-35 89t-87 35q-50 0 -85.5 -35t-35.5 -89t35.5 -89t85.5 -35z" />
    <glyph glyph-name="ampersand" unicode="&#x26;" horiz-adv-x="726" 
d="M580 0l-79 72q-89 -86 -212 -86q-110 0 -177.5 57t-67.5 148q0 63 35.5 111.5t95.5 74.5q-57 67 -57 134q0 81 57.5 132.5t145.5 51.5q85 0 138.5 -50.5t63.5 -137.5h-92q-7 51 -36.5 78.5t-74.5 27.5q-47 0 -77 -29t-30 -75q0 -44 31.5 -82t119.5 -117q7 -6 10 -9
l120 -110l100 148h96l-129 -195l-6 -9l147 -135h-122zM290 68q83 0 150 59l-146 133q-46 42 -62 58q-98 -42 -98 -126q0 -52 44 -88t112 -36z" />
    <glyph glyph-name="quotesingle" unicode="'" horiz-adv-x="174" 
d="M126 680v-272h-78v272h78z" />
    <glyph glyph-name="parenleft" unicode="(" horiz-adv-x="354" 
d="M155 303q0 -117 42 -203t127 -167l-59 -60q-204 169 -204 430q0 259 204 430l59 -60q-85 -82 -127 -168t-42 -202z" />
    <glyph glyph-name="parenright" unicode=")" horiz-adv-x="354" 
d="M31 673l59 60q204 -172 204 -430q0 -260 -204 -430l-59 60q85 81 127 167t42 203q0 116 -42 202t-127 168z" />
    <glyph glyph-name="asterisk" unicode="*" horiz-adv-x="404" 
d="M357 467l-26 -45l-102 60v-108h-54v108l-101 -60l-27 45l103 63l-103 62l27 47l101 -61v107h54v-107l102 61l26 -47l-103 -62z" />
    <glyph glyph-name="plus" unicode="+" horiz-adv-x="689" 
d="M389 284v-185h-88v185h-190v85h190v185h88v-185h190v-85h-190z" />
    <glyph glyph-name="comma" unicode="," horiz-adv-x="204" 
d="M37 -127l49 121q-37 13 -37 49q0 23 17 39.5t42 16.5t42 -16.5t17 -39.5q0 -19 -19 -56l-54 -114h-57z" />
    <glyph glyph-name="hyphen" unicode="-" horiz-adv-x="558" 
d="M447 221v92h-336v-92h336z" />
    <glyph glyph-name="period" unicode="." horiz-adv-x="193" 
d="M96 -15q-24 0 -41.5 17t-17.5 41t17.5 40.5t41.5 16.5q25 0 42.5 -16.5t17.5 -40.5q0 -25 -17.5 -41.5t-42.5 -16.5z" />
    <glyph glyph-name="slash" unicode="/" horiz-adv-x="404" 
d="M136 -160h-89l260 890h89z" />
    <glyph glyph-name="zero" unicode="0" horiz-adv-x="718" 
d="M359 695q139 0 218.5 -98t79.5 -257t-79.5 -257t-218.5 -98q-138 0 -218 98.5t-80 256.5t80 256.5t218 98.5zM359 71q96 0 149 74.5t53 194.5t-53 194.5t-149 74.5t-149 -74.5t-53 -194.5t53 -194.5t149 -74.5z" />
    <glyph glyph-name="one" unicode="1" horiz-adv-x="511" 
d="M500 79v-79h-455v79h187v497l-176 -58v82l217 80h54v-601h173z" />
    <glyph glyph-name="two" unicode="2" horiz-adv-x="560" 
d="M510 79v-79h-452v50l215 240q83 91 102 119q29 45 29 84q0 50 -35 85t-97 35q-58 0 -95.5 -34t-44.5 -92h-94q4 94 66 151t164 57q106 0 168.5 -58.5t62.5 -144.5q0 -55 -32 -104t-114 -138l-154 -171h311z" />
    <glyph glyph-name="three" unicode="3" horiz-adv-x="562" 
d="M415 344q105 -47 105 -159q0 -87 -64.5 -143t-168.5 -56q-107 0 -169 50.5t-74 137.5h92q23 -106 151 -106q64 0 104 32.5t40 84.5q0 53 -40.5 85t-107.5 32h-54v77h54q57 0 91.5 32t34.5 83q0 53 -34.5 85t-92.5 32q-52 0 -87.5 -29t-41.5 -76h-93q8 84 68 135t153 51
q98 0 157.5 -54.5t59.5 -142.5q0 -102 -83 -151z" />
    <glyph glyph-name="four" unicode="4" horiz-adv-x="641" 
d="M597 144h-102v-144h-91v144h-360v59l202 477h97l-187 -454h248v211h91v-211h102v-82z" />
    <glyph glyph-name="five" unicode="5" horiz-adv-x="588" 
d="M181 426h119q105 0 169.5 -59t64.5 -153q0 -99 -67.5 -164t-174.5 -65t-172.5 53t-81.5 145h93q29 -116 161 -116q67 0 110 41.5t43 102.5q0 59 -42.5 96t-113.5 37l-196 -1l1 337h408v-85h-321v-169z" />
    <glyph glyph-name="six" unicode="6" horiz-adv-x="616" 
d="M309 459q111 0 183 -66.5t72 -167.5q0 -104 -72.5 -172t-183.5 -68q-112 0 -184 68t-72 169q0 73 58 163l201 295h112l-150 -223q22 2 36 2zM308 62q71 0 117 45.5t46 112.5q0 66 -46 110.5t-117 44.5q-72 0 -117 -40l-3 -4q-43 -57 -43 -113q0 -66 46 -111t117 -45z" />
    <glyph glyph-name="seven" unicode="7" horiz-adv-x="503" 
d="M482 680v-58l-300 -622h-106l287 591h-349v89h468z" />
    <glyph glyph-name="eight" unicode="8" horiz-adv-x="624" 
d="M449 359q59 -23 91 -67.5t32 -102.5q0 -91 -71 -147.5t-189 -56.5t-189 56.5t-71 147.5q0 58 32 102.5t91 67.5q-94 46 -94 148q0 82 65 135t166 53t166 -53t65 -135q0 -102 -94 -148zM312 620q-60 0 -99 -34t-39 -84q0 -52 38.5 -84.5t99.5 -32.5t99.5 32.5t38.5 84.5
q0 50 -39 84t-99 34zM312 64q68 0 112 37.5t44 93.5q0 54 -43.5 89.5t-112.5 35.5t-112.5 -35.5t-43.5 -89.5q0 -57 43.5 -94t112.5 -37z" />
    <glyph glyph-name="nine" unicode="9" horiz-adv-x="616" 
d="M308 695q112 0 184 -68t72 -169q0 -73 -58 -162l-201 -296h-112l151 224q-24 -2 -37 -2q-111 0 -183 66t-72 167q0 104 72.5 172t183.5 68zM425 345l3 4q43 57 43 113q0 66 -46 111t-117 45t-117 -45.5t-46 -112.5q0 -66 46 -110.5t117 -44.5t117 40z" />
    <glyph glyph-name="colon" unicode=":" horiz-adv-x="193" 
d="M96 366q-24 0 -41.5 17t-17.5 41t17.5 40.5t41.5 16.5q25 0 42.5 -16.5t17.5 -40.5q0 -25 -17.5 -41.5t-42.5 -16.5zM96 -15q-24 0 -41.5 17t-17.5 41t17.5 40.5t41.5 16.5q25 0 42.5 -16.5t17.5 -40.5q0 -25 -17.5 -41.5t-42.5 -16.5z" />
    <glyph glyph-name="semicolon" unicode=";" horiz-adv-x="197" 
d="M98 366q-24 0 -41.5 17t-17.5 41t17.5 40.5t41.5 16.5q25 0 42.5 -16.5t17.5 -40.5q0 -25 -17.5 -41.5t-42.5 -16.5zM28 -127l49 121q-36 14 -36 49q0 23 17 39.5t41 16.5q25 0 42 -16.5t17 -39.5q0 -19 -19 -56l-54 -114h-57z" />
    <glyph glyph-name="less" unicode="&#x3c;" horiz-adv-x="549" 
d="M476 547v-93l-321 -151l321 -151v-92l-422 197v93z" />
    <glyph glyph-name="equal" unicode="=" horiz-adv-x="703" 
d="M593 380h-482v86h482v-86zM593 184h-482v85h482v-85z" />
    <glyph glyph-name="greater" unicode="&#x3e;" horiz-adv-x="549" 
d="M496 257l-422 -197v92l320 151l-320 151v93l422 -197v-93z" />
    <glyph glyph-name="question" unicode="?" horiz-adv-x="551" 
d="M207 198l-8 150h55q61 0 101.5 37.5t40.5 94.5t-37.5 94t-96.5 37q-49 0 -85.5 -28.5t-44.5 -74.5h-92q10 84 68.5 134t149.5 50q98 0 163 -60t65 -152q0 -83 -55.5 -136.5t-147.5 -60.5l-4 -85h-72zM241 -9q-24 0 -41.5 17t-17.5 41t17.5 40.5t41.5 16.5
q25 0 42.5 -16.5t17.5 -40.5q0 -25 -17.5 -41.5t-42.5 -16.5z" />
    <glyph glyph-name="at" unicode="@" horiz-adv-x="994" 
d="M690 424v-222q0 -100 69 -100q47 0 71.5 38.5t24.5 104.5q0 146 -102.5 244.5t-251.5 98.5t-254.5 -101.5t-105.5 -247.5q0 -148 105 -248.5t251 -100.5q127 0 227 78l38 -57q-113 -87 -264 -87q-178 0 -302.5 119t-124.5 296q0 176 125 295.5t305 119.5t301 -116
t121 -291q0 -96 -40.5 -155t-123.5 -59q-95 0 -130 67q-56 -69 -150 -69q-84 0 -141.5 58t-57.5 144q0 87 57.5 145t141.5 58q76 0 129 -47v35h82zM492 105q76 0 118 68q-2 30 -2 47v78q-43 65 -116 65q-52 0 -90 -35.5t-38 -93.5t38 -93.5t90 -35.5z" />
    <glyph glyph-name="A" unicode="A" horiz-adv-x="748" 
d="M544 175h-340l-76 -175h-102l303 684h90l303 -684h-102zM506 263l-132 306l-132 -306h264z" />
    <glyph glyph-name="B" unicode="B" horiz-adv-x="699" 
d="M504 352q69 -13 105 -57.5t36 -108.5q0 -84 -67 -135t-180 -51h-312v680h302q104 0 164 -47t60 -127q0 -55 -28.5 -96.5t-79.5 -57.5zM181 596v-212h190q72 0 111 29t39 81q0 48 -37.5 75t-105.5 27h-197zM181 84h213q74 0 115.5 31.5t41.5 81.5q0 49 -40.5 75.5
t-113.5 26.5h-216v-215z" />
    <glyph glyph-name="C" unicode="C" horiz-adv-x="802" 
d="M415 78q87 0 147 46t81 127h98q-24 -119 -112.5 -192t-213.5 -73q-148 0 -251 102t-103 252t103 252t251 102q125 0 213.5 -73t112.5 -192h-98q-21 81 -81 127t-147 46q-110 0 -184 -74.5t-74 -187.5t74 -187.5t184 -74.5z" />
    <glyph glyph-name="D" unicode="D" horiz-adv-x="746" 
d="M86 680h246q157 0 258.5 -95t101.5 -241q0 -150 -101.5 -247t-258.5 -97h-246v680zM181 88h151q113 0 187.5 72.5t74.5 183.5q0 107 -74.5 177.5t-187.5 70.5h-151v-504z" />
    <glyph glyph-name="E" unicode="E" horiz-adv-x="625" 
d="M181 592v-211h348v-88h-348v-205h388v-88h-483v680h483v-88h-388z" />
    <glyph glyph-name="F" unicode="F" horiz-adv-x="592" 
d="M181 592v-229h337v-88h-337v-275h-95v680h475v-88h-380z" />
    <glyph glyph-name="G" unicode="G" horiz-adv-x="826" 
d="M747 340v-340h-76l-7 125q-78 -139 -251 -139q-150 0 -251 102t-101 246q0 155 103.5 257.5t253.5 102.5q115 0 206 -64.5t119 -178.5h-102q-25 76 -86.5 113.5t-135.5 37.5q-112 0 -187 -75t-75 -193q0 -106 72.5 -181t183.5 -75q93 0 154 54.5t78 143.5h-239v88h341
v-24z" />
    <glyph glyph-name="H" unicode="H" horiz-adv-x="738" 
d="M652 680v-680h-96v291h-375v-291h-95v680h95v-301h375v301h96z" />
    <glyph glyph-name="I" unicode="I" horiz-adv-x="267" 
d="M181 680v-680h-95v680h95z" />
    <glyph glyph-name="J" unicode="J" horiz-adv-x="596" 
d="M519 680v-431q0 -125 -68.5 -194.5t-185.5 -69.5q-103 0 -170.5 59t-77.5 161h97q7 -62 49.5 -96.5t107.5 -34.5q67 0 109 47.5t42 129.5v429h97z" />
    <glyph glyph-name="K" unicode="K" horiz-adv-x="707" 
d="M306 303l-125 -135v-168h-95v680h95v-381l359 381h115l-283 -306l316 -374h-121z" />
    <glyph glyph-name="L" unicode="L" horiz-adv-x="578" 
d="M550 86v-86h-464v680h95v-594h369z" />
    <glyph glyph-name="M" unicode="M" horiz-adv-x="849" 
d="M763 680v-680h-96v469l-212 -348h-61l-214 351l2 -472h-96v680h70l268 -441l268 441h71z" />
    <glyph glyph-name="N" unicode="N" horiz-adv-x="761" 
d="M675 680v-680h-78l-416 504v-504h-95v680h75l418 -512v512h96z" />
    <glyph glyph-name="O" unicode="O" horiz-adv-x="830" 
d="M415 694q147 0 250.5 -103.5t103.5 -250.5t-103.5 -250.5t-250.5 -103.5t-250.5 103.5t-103.5 250.5t103.5 250.5t250.5 103.5zM415 75q108 0 182.5 77.5t74.5 187.5t-74.5 187.5t-182.5 77.5q-109 0 -183.5 -77.5t-74.5 -187.5t74.5 -187.5t183.5 -77.5z" />
    <glyph glyph-name="P" unicode="P" horiz-adv-x="630" 
d="M86 680h246q119 0 192 -63t73 -167q0 -108 -76 -173.5t-201 -65.5h-139v-211h-95v680zM181 299h148q78 0 126 41.5t48 109.5q0 64 -48 103t-126 39h-148v-293z" />
    <glyph glyph-name="Q" unicode="Q" horiz-adv-x="830" 
d="M769 340q0 -88 -39.5 -163.5t-108.5 -124.5l121 -147l-70 -65l-137 167q-57 -21 -120 -21q-147 0 -250.5 103.5t-103.5 250.5t103.5 250.5t250.5 103.5t250.5 -103.5t103.5 -250.5zM414 75q109 0 183.5 77.5t74.5 187.5t-74.5 187.5t-183.5 77.5q-108 0 -182.5 -77.5
t-74.5 -187.5t74.5 -187.5t182.5 -77.5z" />
    <glyph glyph-name="R" unicode="R" horiz-adv-x="679" 
d="M333 235h-152v-235h-95v680h266q116 0 188.5 -60.5t72.5 -161.5q0 -80 -46 -135.5t-125 -76.5l206 -246h-117zM181 323h168q74 0 122 36.5t48 98.5q0 61 -48 97.5t-122 36.5h-168v-269z" />
    <glyph glyph-name="S" unicode="S" horiz-adv-x="664" 
d="M332 695q106 0 182.5 -51.5t88.5 -156.5h-95q-22 126 -170 126q-69 0 -111 -31t-42 -83q0 -81 125 -104l95 -19q97 -19 146.5 -62.5t49.5 -118.5q0 -94 -71 -151.5t-187 -57.5q-124 0 -201 62t-87 172h95q11 -71 62 -110t136 -39q72 0 113.5 30.5t41.5 81.5
q0 80 -114 101l-115 22q-190 36 -190 186q0 91 68 147t180 56z" />
    <glyph glyph-name="T" unicode="T" horiz-adv-x="641" 
d="M613 592h-245v-592h-95v592h-245v88h585v-88z" />
    <glyph glyph-name="U" unicode="U" horiz-adv-x="742" 
d="M666 680v-385q0 -139 -81 -224.5t-214 -85.5t-214 85.5t-81 224.5v385h95v-385q0 -97 55.5 -159t144.5 -62t144.5 62t55.5 159v385h95z" />
    <glyph glyph-name="V" unicode="V" horiz-adv-x="758" 
d="M734 680l-311 -684h-88l-311 684h105l250 -556l251 556h104z" />
    <glyph glyph-name="W" unicode="W" horiz-adv-x="1071" 
d="M1034 680l-229 -684h-94l-175 514l-176 -514h-93l-230 684h101l175 -537l182 537h82l181 -537l176 537h100z" />
    <glyph glyph-name="X" unicode="X" horiz-adv-x="666" 
d="M535 0l-202 266l-202 -266h-111l249 337l-242 343h116l190 -267l189 267h117l-243 -343l250 -337h-111z" />
    <glyph glyph-name="Y" unicode="Y" horiz-adv-x="677" 
d="M664 680l-277 -444v-236h-97v236l-277 444h106l219 -352l220 352h106z" />
    <glyph glyph-name="Z" unicode="Z" horiz-adv-x="654" 
d="M598 87v-87h-545v47l403 546h-390v87h528v-47l-392 -546h396z" />
    <glyph glyph-name="bracketleft" unicode="[" horiz-adv-x="349" 
d="M167 -41h141v-88h-233v859h233v-88h-141v-683z" />
    <glyph glyph-name="backslash" unicode="\" horiz-adv-x="404" 
d="M116 730l260 -890h-88l-260 890h88z" />
    <glyph glyph-name="bracketright" unicode="]" horiz-adv-x="349" 
d="M32 642v88h233v-859h-233v88h141v683h-141z" />
    <glyph glyph-name="asciicircum" unicode="^" horiz-adv-x="403" 
d="M376 444h-85l-89 167l-90 -167h-85l133 236h83z" />
    <glyph glyph-name="underscore" unicode="_" horiz-adv-x="642" 
d="M37 -114h568v-81h-568v81z" />
    <glyph glyph-name="grave" unicode="`" 
d="M379 560h-84l-96 146h102z" />
    <glyph glyph-name="a" unicode="a" horiz-adv-x="615" 
d="M539 467v-467h-92v41q-64 -53 -156 -53q-99 0 -168.5 71.5t-69.5 173.5q0 103 69.5 174.5t168.5 71.5q92 0 156 -53v41h92zM304 68q92 0 143 75v181q-51 75 -143 75q-67 0 -113 -49t-46 -117q0 -67 46 -116t113 -49z" />
    <glyph glyph-name="b" unicode="b" horiz-adv-x="615" 
d="M324 479q99 0 169 -71.5t70 -173.5t-70 -173.5t-169 -71.5q-92 0 -156 53v-42h-92v710h92v-284q64 53 156 53zM311 68q67 0 113.5 49t46.5 117t-46.5 116.5t-113.5 48.5q-91 0 -143 -76v-179q53 -76 143 -76z" />
    <glyph glyph-name="c" unicode="c" horiz-adv-x="576" 
d="M299 72q50 0 85 25.5t45 67.5h94q-13 -79 -75.5 -128t-148.5 -49q-106 0 -176 70.5t-70 174.5q0 105 70 175.5t176 70.5q86 0 148.5 -49.5t75.5 -128.5h-94q-10 43 -45 68.5t-85 25.5q-69 0 -111.5 -46.5t-42.5 -115.5q0 -68 42.5 -114.5t111.5 -46.5z" />
    <glyph glyph-name="d" unicode="d" horiz-adv-x="615" 
d="M539 710v-710h-92v42q-62 -53 -156 -53q-99 0 -168.5 71.5t-69.5 173.5t69.5 173.5t168.5 71.5q94 0 156 -53v284h92zM304 68q91 0 143 75v181q-51 75 -143 75q-67 0 -113 -48.5t-46 -116.5t46 -117t113 -49z" />
    <glyph glyph-name="e" unicode="e" horiz-adv-x="578" 
d="M526 238q0 -27 -2 -40l-2 1v-1h-378q10 -58 51 -95t106 -37q83 0 114 58h99q-20 -62 -78.5 -99t-137.5 -37q-108 0 -176.5 70t-68.5 175q0 106 68.5 176t176.5 70q99 0 163 -67.5t65 -173.5zM294 400q-62 0 -101.5 -37t-48.5 -96h289q-7 61 -44 97t-95 36z" />
    <glyph glyph-name="f" unicode="f" horiz-adv-x="418" 
d="M230 467h186v-77h-186v-390h-92v390h-134v77h134v103q0 85 49 136.5t129 51.5q53 0 102 -14l-13 -80q-45 9 -72 9q-47 0 -75 -28.5t-28 -74.5v-103z" />
    <glyph glyph-name="g" unicode="g" horiz-adv-x="618" 
d="M539 467v-474q0 -106 -65.5 -169t-170.5 -63q-94 0 -159 51t-76 133h93q8 -46 46 -73.5t96 -27.5q65 0 104.5 40t39.5 109v69q-67 -54 -160 -54q-98 0 -166.5 69.5t-68.5 165.5q0 104 67.5 173t167.5 69q94 0 160 -55v37h92zM300 87q94 0 147 78v163q-53 77 -147 77
q-68 0 -112 -46.5t-44 -115.5q0 -61 45 -108.5t111 -47.5z" />
    <glyph glyph-name="h" unicode="h" horiz-adv-x="589" 
d="M326 482q91 0 146.5 -59.5t55.5 -158.5v-264h-91v259q0 66 -34.5 103t-94.5 37q-79 0 -140 -78v-321h-92v710h92v-290q67 62 158 62z" />
    <glyph glyph-name="i" unicode="i" horiz-adv-x="266" 
d="M133 583q-26 0 -43 16.5t-17 41.5t17 41.5t43 16.5q25 0 42.5 -16.5t17.5 -41.5t-17.5 -41.5t-42.5 -16.5zM179 467v-467h-91v467h91z" />
    <glyph glyph-name="j" unicode="j" horiz-adv-x="259" 
d="M126 583q-25 0 -42.5 16.5t-17.5 41.5t17.5 41.5t42.5 16.5t42 -16.5t17 -41.5t-17 -41.5t-42 -16.5zM172 467v-449q0 -105 -41.5 -153.5t-146.5 -49.5l-7 80q58 3 80.5 27.5t22.5 84.5v460h92z" />
    <glyph glyph-name="k" unicode="k" horiz-adv-x="569" 
d="M263 208l-91 -91v-117h-92v710h92v-472l234 229h117l-195 -195l227 -272h-119z" />
    <glyph glyph-name="l" unicode="l" horiz-adv-x="244" 
d="M168 710v-710h-92v710h92z" />
    <glyph glyph-name="m" unicode="m" horiz-adv-x="907" 
d="M646 482q86 0 141.5 -60t55.5 -158v-264h-91v259q0 67 -32.5 103.5t-91.5 36.5q-78 0 -128 -77q6 -27 6 -58v-264h-92v259q0 67 -32.5 103.5t-91.5 36.5q-71 0 -122 -75v-324h-92v467h92v-42q55 57 140 57q102 0 157 -78q75 78 181 78z" />
    <glyph glyph-name="n" unicode="n" horiz-adv-x="589" 
d="M326 482q91 0 146.5 -59.5t55.5 -158.5v-264h-91v259q0 66 -34.5 103t-94.5 37q-79 0 -140 -78v-321h-92v467h92v-47q67 62 158 62z" />
    <glyph glyph-name="o" unicode="o" horiz-adv-x="602" 
d="M302 479q105 0 176.5 -70.5t71.5 -175.5q0 -106 -71.5 -177t-176.5 -71q-106 0 -177.5 71t-71.5 177t71 176t178 70zM302 69q67 0 111 47.5t44 116.5q0 68 -44 115t-111 47q-68 0 -112.5 -47t-44.5 -115q0 -69 44.5 -116.5t112.5 -47.5z" />
    <glyph glyph-name="p" unicode="p" horiz-adv-x="615" 
d="M324 479q99 0 169 -71.5t70 -174.5q0 -102 -70 -173.5t-169 -71.5q-92 0 -156 54v-285h-92v710h92v-42q64 54 156 54zM311 68q67 0 113.5 49t46.5 116q0 68 -46 117t-114 49q-91 0 -143 -76v-179q52 -76 143 -76z" />
    <glyph glyph-name="q" unicode="q" horiz-adv-x="615" 
d="M539 467v-710h-92v284q-64 -53 -156 -53q-99 0 -168.5 71.5t-69.5 173.5q0 103 69.5 174.5t168.5 71.5q92 0 156 -53v41h92zM304 68q92 0 143 75v181q-51 75 -143 75q-67 0 -113 -49t-46 -117q0 -67 46 -116t113 -49z" />
    <glyph glyph-name="r" unicode="r" horiz-adv-x="372" 
d="M168 467v-69q69 80 176 80v-87q-112 -3 -176 -92v-299h-92v467h92z" />
    <glyph glyph-name="s" unicode="s" horiz-adv-x="519" 
d="M44 152l86 -1q18 -91 134 -91q50 0 80.5 18.5t30.5 49.5q0 50 -69 61l-104 18q-139 23 -139 130q0 66 53 105t139 39q78 0 138 -36t67 -116l-85 -1q-5 40 -37 60.5t-82 20.5q-48 0 -75 -18t-27 -46q0 -49 79 -63l90 -15q140 -24 140 -132q0 -70 -56 -110t-146 -40
q-91 0 -149.5 41t-67.5 126z" />
    <glyph glyph-name="t" unicode="t" horiz-adv-x="438" 
d="M386 82l14 -79q-60 -18 -109 -18q-82 0 -127 49t-45 140v216h-115v77h115v172h92v-172h175v-77h-175v-216q0 -104 97 -104q37 0 78 12z" />
    <glyph glyph-name="u" unicode="u" horiz-adv-x="589" 
d="M513 467v-467h-92v46q-67 -61 -158 -61t-146.5 59.5t-55.5 159.5v263h92v-258q0 -67 34.5 -103.5t93.5 -36.5q81 0 140 77v321h92z" />
    <glyph glyph-name="v" unicode="v" horiz-adv-x="575" 
d="M548 467l-219 -467h-82l-219 467h97l163 -350l162 350h98z" />
    <glyph glyph-name="w" unicode="w" horiz-adv-x="786" 
d="M758 467l-175 -467h-82l-108 319l-108 -319h-82l-175 467h99l116 -322l110 322h79l110 -322l117 322h99z" />
    <glyph glyph-name="x" unicode="x" horiz-adv-x="544" 
d="M408 0l-136 171l-136 -171h-110l184 235l-182 233h112l132 -166l131 166h113l-183 -233l185 -235h-110z" />
    <glyph glyph-name="y" unicode="y" horiz-adv-x="607" 
d="M573 468l-316 -710h-97l99 222l-236 488h99l184 -381l170 381h97z" />
    <glyph glyph-name="z" unicode="z" horiz-adv-x="495" 
d="M453 416l-275 -339h275v-77h-411v45l279 345h-270v77h402v-51z" />
    <glyph glyph-name="braceleft" unicode="{" horiz-adv-x="355" 
d="M221 566v-135q0 -56 -15.5 -84.5t-58.5 -42.5q43 -14 58.5 -42.5t15.5 -83.5v-135q0 -41 25.5 -65.5t67.5 -24.5v-89q-83 0 -134 49t-51 130v132q0 53 -20.5 71t-73.5 18v81q53 0 73.5 18t20.5 70v133q0 80 51 129.5t134 49.5v-89q-42 0 -67.5 -25t-25.5 -65z" />
    <glyph glyph-name="bar" unicode="|" horiz-adv-x="315" 
d="M201 730v-890h-87v890h87z" />
    <glyph glyph-name="braceright" unicode="}" horiz-adv-x="364" 
d="M144 431v135q0 40 -26 65t-68 25v89q83 0 134.5 -49.5t51.5 -129.5v-133q0 -52 20.5 -70t72.5 -18v-81q-52 0 -72.5 -18t-20.5 -71v-132q0 -81 -51.5 -130t-134.5 -49v89q43 0 68.5 24.5t25.5 65.5v135q0 55 15 83.5t58 42.5q-43 14 -58 42.5t-15 84.5z" />
    <glyph glyph-name="asciitilde" unicode="~" horiz-adv-x="451" 
d="M333 400h81q0 -44 -17.5 -74t-44 -41.5t-55.5 -10t-53 15.5l-60 39q-27 16 -46.5 5t-19.5 -39h-81q0 43 18 73t44 41.5t55 10t53 -15.5l60 -39q28 -16 47 -5t19 40z" />
    <glyph glyph-name="exclamdown" unicode="&#xa1;" horiz-adv-x="271" 
d="M135 480q25 0 42.5 -16.5t17.5 -41.5q0 -24 -17.5 -40.5t-42.5 -16.5q-24 0 -41.5 16.5t-17.5 40.5t17.5 41t41.5 17zM87 -209l7 483h82l8 -483h-97z" />
    <glyph glyph-name="cent" unicode="&#xa2;" horiz-adv-x="576" 
d="M298 72q50 0 85 25.5t45 67.5h95q-12 -69 -61.5 -116t-121.5 -58v-110h-83v110q-90 14 -147.5 81.5t-57.5 160.5t57.5 161t147.5 82v123h83v-123q72 -11 121.5 -58.5t61.5 -116.5h-95q-10 43 -45 68.5t-85 25.5q-68 0 -111 -46.5t-43 -115.5q0 -68 43 -114.5t111 -46.5z
" />
    <glyph glyph-name="sterling" unicode="&#xa3;" horiz-adv-x="623" 
d="M200 80h376v-80h-537v80h69v200h-69v80h69v101q0 105 66 169.5t174 64.5q99 0 162.5 -54.5t74.5 -146.5h-93q-9 55 -47.5 87t-96.5 32q-67 0 -107.5 -41.5t-40.5 -110.5v-101h222v-80h-222v-200z" />
    <glyph glyph-name="yen" unicode="&#xa5;" horiz-adv-x="677" 
d="M412 277h156v-68h-181v-59h181v-69h-181v-81h-97v81h-181v69h181v59h-181v68h155l-251 403h106l219 -352l219 352h106z" />
    <glyph glyph-name="brokenbar" unicode="&#xa6;" horiz-adv-x="315" 
d="M201 336h-87v394h87v-394zM201 -160h-87v394h87v-394z" />
    <glyph glyph-name="section" unicode="&#xa7;" horiz-adv-x="543" 
d="M506 226q0 -87 -83 -124q38 -43 38 -102q0 -74 -53.5 -116.5t-136.5 -42.5q-88 0 -144 47.5t-67 128.5h100q5 -43 33.5 -68t76.5 -25q43 0 69.5 21t26.5 58q0 30 -19 50.5t-63 40.5l-109 51q-75 34 -106.5 72t-31.5 88q0 87 84 125q-39 42 -39 101q0 74 53.5 116.5
t136.5 42.5q88 0 144 -48t67 -128h-100q-5 43 -33.5 68.5t-76.5 25.5q-42 0 -69 -21.5t-27 -58.5q0 -29 19 -49.5t63 -41.5l109 -51q75 -36 106.5 -73t31.5 -87zM330 165l19 -10q28 5 46 24t18 46q0 26 -20 46.5t-66 41.5l-114 53l-19 10q-28 -5 -46 -23.5t-18 -46.5
q0 -26 20 -46.5t66 -41.5z" />
    <glyph glyph-name="dieresis" unicode="&#xa8;" 
d="M202 676q26 0 43.5 -17t17.5 -42t-17.5 -42t-43.5 -17t-43.5 17t-17.5 42t17.5 42t43.5 17zM399 676q26 0 43.5 -17t17.5 -42t-17.5 -42t-43.5 -17t-43.5 17t-17.5 42t17.5 42t43.5 17z" />
    <glyph glyph-name="copyright" unicode="&#xa9;" horiz-adv-x="850" 
d="M425 695q150 0 257 -102t107 -253t-107 -253t-257 -102t-257 102t-107 253t107 253t257 102zM424 47q122 0 210.5 85t88.5 208t-88.5 208t-210.5 85t-210 -85t-88 -208t88 -208t210 -85zM425 450q-46 0 -77.5 -32.5t-31.5 -78.5q0 -47 31.5 -79.5t77.5 -32.5
q35 0 62 18.5t36 48.5h73q-12 -59 -59 -95.5t-111 -36.5q-76 0 -128 51t-52 126t52 126t128 51q64 0 111 -36.5t59 -95.5h-73q-9 29 -36 47.5t-62 18.5z" />
    <glyph glyph-name="ordfeminine" unicode="&#xaa;" horiz-adv-x="353" 
d="M178 685q64 0 101 -37t37 -102v-181h-64v20q-47 -27 -98 -27q-59 0 -94 26.5t-35 73.5q0 42 31.5 65t88.5 23h107q0 83 -74 83q-28 0 -48.5 -13t-24.5 -36h-64q4 51 44 78t93 27zM158 412q51 0 94 32v54h-111q-26 0 -40 -10.5t-14 -26.5q0 -21 18.5 -35t52.5 -14z" />
    <glyph glyph-name="guillemotleft" unicode="&#xab;" horiz-adv-x="440" 
d="M230 402l-103 -150l103 -150h-90l-103 150l103 150h90zM402 402l-102 -150l102 -150h-90l-102 150l102 150h90z" />
    <glyph glyph-name="registered" unicode="&#xae;" horiz-adv-x="560" 
d="M280 693q100 0 171.5 -68.5t71.5 -168.5t-71.5 -168t-171.5 -68t-171.5 68t-71.5 168t71.5 168.5t171.5 68.5zM279 269q77 0 133.5 54.5t56.5 132.5q0 79 -56.5 134t-133.5 55t-133 -55t-56 -134q0 -78 56 -132.5t133 -54.5zM376 496q0 -51 -52 -68l59 -76h-50l-55 71
h-39v-71h-39v219h92q36 0 60 -21t24 -54zM239 459h52q20 0 32 10.5t12 27.5q0 16 -12 26.5t-32 10.5h-52v-75z" />
    <glyph glyph-name="macron" unicode="&#xaf;" 
d="M439 655v-75h-279v75h279z" />
    <glyph glyph-name="degree" unicode="&#xb0;" horiz-adv-x="479" 
d="M239 695q73 0 121.5 -47.5t48.5 -118.5t-48.5 -118.5t-121.5 -47.5t-121.5 47.5t-48.5 118.5t48.5 118.5t121.5 47.5zM239 433q41 0 69.5 28t28.5 68t-28.5 68.5t-69.5 28.5q-40 0 -68.5 -28.5t-28.5 -68.5t28.5 -68t68.5 -28z" />
    <glyph glyph-name="plusminus" unicode="&#xb1;" horiz-adv-x="689" 
d="M578 323h-189v-148h-88v148h-190v85h190v149h88v-149h189v-85zM578 126v-86h-467v86h467z" />
    <glyph glyph-name="twosuperior" unicode="&#xb2;" horiz-adv-x="363" 
d="M326 356v-59h-281v37l139 144q37 37 51 57t14 42q0 26 -18 41.5t-48 15.5q-32 0 -50.5 -17t-20.5 -46h-70q2 58 38.5 92t100.5 34q65 0 101.5 -33.5t36.5 -82.5q0 -31 -17 -61.5t-59 -73.5l-86 -90h169z" />
    <glyph glyph-name="threesuperior" unicode="&#xb3;" horiz-adv-x="375" 
d="M276 497q57 -27 57 -88q0 -51 -40 -84.5t-104 -33.5q-63 0 -102.5 31t-47.5 84h70q14 -53 81 -53q33 0 54.5 16t21.5 40q0 57 -81 57h-33v57h33q30 0 48.5 16t18.5 41t-17.5 40.5t-49.5 15.5q-28 0 -45.5 -14.5t-19.5 -37.5h-70q5 53 41 83.5t94 30.5q61 0 97.5 -32.5
t36.5 -84.5q0 -55 -43 -84z" />
    <glyph glyph-name="acute" unicode="&#xb4;" 
d="M426 706l-96 -146h-84l78 146h102z" />
    <glyph glyph-name="paragraph" unicode="&#xb6;" horiz-adv-x="752" 
d="M676 680v-840h-95v758h-118v-758h-95v382h-88q-107 0 -178 65t-71 168q0 100 71 162.5t178 62.5h396zM368 598h-88q-68 0 -112 -40t-44 -103q0 -65 44 -106t112 -41h88v290z" />
    <glyph glyph-name="periodcentered" unicode="&#xb7;" horiz-adv-x="193" 
d="M96 209q-24 0 -41.5 16.5t-17.5 40.5t17.5 40.5t41.5 16.5q25 0 42.5 -16.5t17.5 -40.5t-17.5 -40.5t-42.5 -16.5z" />
    <glyph glyph-name="cedilla" unicode="&#xb8;" 
d="M298 -213h-80l45 150h91z" />
    <glyph glyph-name="onesuperior" unicode="&#xb9;" horiz-adv-x="321" 
d="M311 359v-59h-281v59h110v255l-105 -30v61l134 42h38v-328h104z" />
    <glyph glyph-name="ordmasculine" unicode="&#xba;" horiz-adv-x="388" 
d="M194 687q70 0 117.5 -47t47.5 -117q0 -72 -47 -119.5t-118 -47.5t-118 47.5t-47 119.5q0 70 47.5 117t117.5 47zM194 416q43 0 71 31t28 76q0 43 -28 73.5t-71 30.5q-44 0 -72 -30t-28 -74q0 -46 28 -76.5t72 -30.5z" />
    <glyph glyph-name="guillemotright" unicode="&#xbb;" horiz-adv-x="440" 
d="M230 252l-103 -150h-89l102 150l-102 150h89zM402 252l-102 -150h-90l102 150l-102 150h90z" />
    <glyph glyph-name="onequarter" unicode="&#xbc;" horiz-adv-x="895" 
d="M712 680l-457 -680h-68l458 680h67zM30 290v59h110v255l-105 -30v61l134 42h38v-328h104v-59h-281zM858 79h-57v-79h-69v79h-214v44l119 268h73l-107 -251h129v115h69v-115h57v-61z" />
    <glyph glyph-name="onehalf" unicode="&#xbd;" horiz-adv-x="888" 
d="M716 680l-458 -680h-67l458 680h67zM30 290v59h110v255l-105 -30v61l134 42h38v-328h104v-59h-281zM851 59v-59h-281v37l139 144q37 37 51 57t14 42q0 26 -18 41.5t-48 15.5q-32 0 -50.5 -17t-20.5 -46h-70q2 58 38.5 92t100.5 34q65 0 101.5 -33.5t36.5 -82.5
q0 -31 -17 -61.5t-59 -73.5l-86 -90h169z" />
    <glyph glyph-name="threequarters" unicode="&#xbe;" horiz-adv-x="882" 
d="M334 403q0 -51 -40 -84.5t-104 -33.5q-63 0 -102.5 31t-47.5 84h70q14 -53 81 -53q33 0 54.5 16t21.5 40q0 57 -81 57h-33v57h33q30 0 48.5 16t18.5 41t-17.5 40.5t-49.5 15.5q-28 0 -45.5 -14.5t-19.5 -37.5h-70q5 53 41 83.5t94 30.5q61 0 97.5 -32.5t36.5 -84.5
q0 -55 -43 -84q57 -27 57 -88zM700 680l-458 -680h-67l458 680h67zM845 79h-57v-79h-69v79h-214v44l119 268h73l-107 -251h129v115h69v-115h57v-61z" />
    <glyph glyph-name="questiondown" unicode="&#xbf;" horiz-adv-x="551" 
d="M309 550q25 0 42 -16.5t17 -41.5q0 -24 -17 -40.5t-42 -16.5q-24 0 -41.5 16.5t-17.5 40.5t17.5 41t41.5 17zM344 343l7 -150h-54q-62 0 -102 -37t-40 -95q0 -57 37.5 -94t96.5 -37q49 0 85.5 28.5t43.5 74.5h93q-10 -84 -68.5 -134t-149.5 -50q-99 0 -163.5 59.5
t-64.5 152.5q0 83 55 136.5t148 60.5l3 85h73z" />
    <glyph glyph-name="Agrave" unicode="&#xc0;" horiz-adv-x="748" 
d="M343 757l-96 146h102l78 -146h-84zM545 175h-341l-76 -175h-102l304 684h89l303 -684h-101zM507 263l-133 307l-132 -307h265z" />
    <glyph glyph-name="Aacute" unicode="&#xc1;" horiz-adv-x="748" 
d="M412 757h-84l78 146h102zM545 175h-341l-76 -175h-102l304 684h89l303 -684h-101zM507 263l-133 307l-132 -307h265z" />
    <glyph glyph-name="Acircumflex" unicode="&#xc2;" horiz-adv-x="748" 
d="M296 758h-88l121 149h90l121 -149h-87l-78 90zM545 175h-341l-76 -175h-102l304 684h89l303 -684h-101zM507 263l-133 307l-132 -307h265z" />
    <glyph glyph-name="Atilde" unicode="&#xc3;" horiz-adv-x="748" 
d="M384 787l-45 28q-26 16 -43 6.5t-17 -34.5h-75q0 39 16 66t40 37t51 8.5t49 -15.5l44 -28q28 -17 44.5 -7t16.5 35h74q0 -39 -15.5 -66t-39 -37.5t-50.5 -8.5t-50 16zM545 175h-341l-76 -175h-102l304 684h89l303 -684h-101zM507 263l-133 307l-132 -307h265z" />
    <glyph glyph-name="Adieresis" unicode="&#xc4;" horiz-adv-x="748" 
d="M276 762q-26 0 -43.5 17t-17.5 42t17.5 42t43.5 17t43.5 -17t17.5 -42t-17.5 -42t-43.5 -17zM473 762q-26 0 -43.5 17t-17.5 42t17.5 42t43.5 17t43.5 -17t17.5 -42t-17.5 -42t-43.5 -17zM545 175h-341l-76 -175h-102l304 684h89l303 -684h-101zM507 263l-133 307
l-132 -307h265z" />
    <glyph glyph-name="Aring" unicode="&#xc5;" horiz-adv-x="748" 
d="M374 767q-46 0 -76 28.5t-30 72.5t29.5 72t76.5 28t76.5 -28t29.5 -72t-29.5 -72.5t-76.5 -28.5zM374 919q-22 0 -37 -14.5t-15 -36.5t15 -37t37 -15t37 15t15 37t-15 36.5t-37 14.5zM545 175h-341l-76 -175h-102l304 684h89l303 -684h-101zM507 263l-133 307l-132 -307
h265z" />
    <glyph glyph-name="AE" unicode="&#xc6;" horiz-adv-x="1106" 
d="M663 592v-211h348v-88h-348v-205h388v-88h-483v175h-288l-134 -175h-117l529 680h493v-88h-388zM568 263v286l-220 -286h220z" />
    <glyph glyph-name="Ccedilla" unicode="&#xc7;" horiz-adv-x="802" 
d="M415 78q87 0 147.5 46t80.5 127h99q-24 -119 -113 -192t-214 -73q-148 0 -251 102t-103 252t103 252t251 102q125 0 214 -73t113 -192h-99q-20 81 -80.5 127t-147.5 46q-110 0 -183.5 -74.5t-73.5 -187.5t73.5 -187.5t183.5 -74.5zM375 -63h91l-56 -150h-80z" />
    <glyph glyph-name="Egrave" unicode="&#xc8;" horiz-adv-x="625" 
d="M294 757l-96 146h102l78 -146h-84zM181 592v-211h348v-88h-348v-205h388v-88h-483v680h483v-88h-388z" />
    <glyph glyph-name="Eacute" unicode="&#xc9;" horiz-adv-x="625" 
d="M363 757h-84l78 146h102zM181 592v-211h348v-88h-348v-205h388v-88h-483v680h483v-88h-388z" />
    <glyph glyph-name="Ecircumflex" unicode="&#xca;" horiz-adv-x="625" 
d="M246 758h-88l121 149h90l121 -149h-87l-78 90zM181 592v-211h348v-88h-348v-205h388v-88h-483v680h483v-88h-388z" />
    <glyph glyph-name="Edieresis" unicode="&#xcb;" horiz-adv-x="625" 
d="M226 762q-26 0 -43.5 17t-17.5 42t17.5 42t43.5 17t43.5 -17t17.5 -42t-17.5 -42t-43.5 -17zM423 762q-26 0 -43.5 17t-17.5 42t17.5 42t43.5 17t43.5 -17t17.5 -42t-17.5 -42t-43.5 -17zM181 592v-211h348v-88h-348v-205h388v-88h-483v680h483v-88h-388z" />
    <glyph glyph-name="Igrave" unicode="&#xcc;" horiz-adv-x="267" 
d="M187 757h-84l-96 146h102zM181 680v-680h-95v680h95z" />
    <glyph glyph-name="Iacute" unicode="&#xcd;" horiz-adv-x="267" 
d="M267 903l-96 -146h-84l78 146h102zM181 680v-680h-95v680h95z" />
    <glyph glyph-name="Icircumflex" unicode="&#xce;" horiz-adv-x="267" 
d="M134 848l-79 -90h-88l121 149h90l121 -149h-87zM181 680v-680h-95v680h95z" />
    <glyph glyph-name="Idieresis" unicode="&#xcf;" horiz-adv-x="267" 
d="M35 880q26 0 43.5 -17t17.5 -42t-17.5 -42t-43.5 -17t-43.5 17t-17.5 42t17.5 42t43.5 17zM232 880q26 0 43.5 -17t17.5 -42t-17.5 -42t-43.5 -17t-43.5 17t-17.5 42t17.5 42t43.5 17zM181 680v-680h-95v680h95z" />
    <glyph glyph-name="Eth" unicode="&#xd0;" horiz-adv-x="746" 
d="M86 680h246q157 0 258.5 -95t101.5 -241q0 -150 -101.5 -247t-258.5 -97h-246v291h-67v88h67v301zM181 88h151q113 0 187.5 72.5t74.5 183.5q0 107 -74.5 177.5t-187.5 70.5h-151v-213h158v-88h-158v-203z" />
    <glyph glyph-name="Ntilde" unicode="&#xd1;" horiz-adv-x="761" 
d="M390 787l-45 28q-26 16 -43 6.5t-17 -34.5h-75q0 39 16 66t40 37t51 8.5t49 -15.5l44 -28q28 -17 44.5 -7t16.5 35h74q0 -39 -15.5 -66t-39 -37.5t-50.5 -8.5t-50 16zM674 680v-680h-76l-417 504v-504h-95v680h75l418 -512v512h95z" />
    <glyph glyph-name="Ograve" unicode="&#xd2;" horiz-adv-x="830" 
d="M468 757h-84l-96 146h102zM415 694q147 0 250.5 -103.5t103.5 -250.5t-103.5 -250.5t-250.5 -103.5t-250.5 103.5t-103.5 250.5t103.5 250.5t250.5 103.5zM414 75q109 0 183.5 77.5t74.5 187.5t-74.5 187.5t-183.5 77.5q-108 0 -182.5 -77.5t-74.5 -187.5t74.5 -187.5
t182.5 -77.5z" />
    <glyph glyph-name="Oacute" unicode="&#xd3;" horiz-adv-x="830" 
d="M549 903l-96 -146h-84l78 146h102zM415 694q147 0 250.5 -103.5t103.5 -250.5t-103.5 -250.5t-250.5 -103.5t-250.5 103.5t-103.5 250.5t103.5 250.5t250.5 103.5zM414 75q109 0 183.5 77.5t74.5 187.5t-74.5 187.5t-183.5 77.5q-108 0 -182.5 -77.5t-74.5 -187.5
t74.5 -187.5t182.5 -77.5z" />
    <glyph glyph-name="Ocircumflex" unicode="&#xd4;" horiz-adv-x="830" 
d="M415 848l-79 -90h-88l121 149h90l121 -149h-87zM415 694q147 0 250.5 -103.5t103.5 -250.5t-103.5 -250.5t-250.5 -103.5t-250.5 103.5t-103.5 250.5t103.5 250.5t250.5 103.5zM414 75q109 0 183.5 77.5t74.5 187.5t-74.5 187.5t-183.5 77.5q-108 0 -182.5 -77.5
t-74.5 -187.5t74.5 -187.5t182.5 -77.5z" />
    <glyph glyph-name="Otilde" unicode="&#xd5;" horiz-adv-x="830" 
d="M505 883h74q0 -39 -15.5 -66t-39 -37.5t-50.5 -8.5t-50 16l-45 28q-26 16 -43 6.5t-17 -34.5h-75q0 39 16 66t40 37t51 8.5t49 -15.5l44 -28q28 -17 44.5 -7t16.5 35zM415 694q147 0 250.5 -103.5t103.5 -250.5t-103.5 -250.5t-250.5 -103.5t-250.5 103.5t-103.5 250.5
t103.5 250.5t250.5 103.5zM414 75q109 0 183.5 77.5t74.5 187.5t-74.5 187.5t-183.5 77.5q-108 0 -182.5 -77.5t-74.5 -187.5t74.5 -187.5t182.5 -77.5z" />
    <glyph glyph-name="Odieresis" unicode="&#xd6;" horiz-adv-x="830" 
d="M316 880q26 0 43.5 -17t17.5 -42t-17.5 -42t-43.5 -17t-43.5 17t-17.5 42t17.5 42t43.5 17zM513 880q26 0 43.5 -17t17.5 -42t-17.5 -42t-43.5 -17t-43.5 17t-17.5 42t17.5 42t43.5 17zM415 694q147 0 250.5 -103.5t103.5 -250.5t-103.5 -250.5t-250.5 -103.5
t-250.5 103.5t-103.5 250.5t103.5 250.5t250.5 103.5zM414 75q109 0 183.5 77.5t74.5 187.5t-74.5 187.5t-183.5 77.5q-108 0 -182.5 -77.5t-74.5 -187.5t74.5 -187.5t182.5 -77.5z" />
    <glyph glyph-name="multiply" unicode="&#xd7;" horiz-adv-x="670" 
d="M547 168l-60 -60l-152 152l-152 -152l-60 60l152 152l-152 152l60 60l152 -151l152 151l60 -60l-151 -152z" />
    <glyph glyph-name="Oslash" unicode="&#xd8;" horiz-adv-x="830" 
d="M720 646l-50 -60q99 -102 99 -246q0 -147 -103.5 -250.5t-250.5 -103.5q-110 0 -198 60l-56 -66l-58 49l56 66q-98 103 -98 245q0 147 103.5 250.5t250.5 103.5q107 0 196 -59l50 59zM157 340q0 -98 62 -173l333 397q-62 41 -138 41q-108 0 -182.5 -77.5t-74.5 -187.5z
M414 75q109 0 183.5 77.5t74.5 187.5q0 100 -63 174l-334 -398q63 -41 139 -41z" />
    <glyph glyph-name="Ugrave" unicode="&#xd9;" horiz-adv-x="742" 
d="M425 757h-84l-96 146h102zM666 680v-385q0 -139 -81 -224.5t-214 -85.5t-214 85.5t-81 224.5v385h95v-385q0 -97 55.5 -159t144.5 -62t144.5 62t55.5 159v385h95z" />
    <glyph glyph-name="Uacute" unicode="&#xda;" horiz-adv-x="742" 
d="M505 903l-96 -146h-84l78 146h102zM666 680v-385q0 -139 -81 -224.5t-214 -85.5t-214 85.5t-81 224.5v385h95v-385q0 -97 55.5 -159t144.5 -62t144.5 62t55.5 159v385h95z" />
    <glyph glyph-name="Ucircumflex" unicode="&#xdb;" horiz-adv-x="742" 
d="M372 848l-79 -90h-88l121 149h90l121 -149h-87zM666 680v-385q0 -139 -81 -224.5t-214 -85.5t-214 85.5t-81 224.5v385h95v-385q0 -97 55.5 -159t144.5 -62t144.5 62t55.5 159v385h95z" />
    <glyph glyph-name="Udieresis" unicode="&#xdc;" horiz-adv-x="742" 
d="M273 880q26 0 43.5 -17t17.5 -42t-17.5 -42t-43.5 -17t-43.5 17t-17.5 42t17.5 42t43.5 17zM470 880q26 0 43.5 -17t17.5 -42t-17.5 -42t-43.5 -17t-43.5 17t-17.5 42t17.5 42t43.5 17zM666 680v-385q0 -139 -81 -224.5t-214 -85.5t-214 85.5t-81 224.5v385h95v-385
q0 -97 55.5 -159t144.5 -62t144.5 62t55.5 159v385h95z" />
    <glyph glyph-name="Yacute" unicode="&#xdd;" horiz-adv-x="677" 
d="M376 757h-84l78 146h102zM663 680l-276 -444v-236h-97v236l-277 444h106l219 -352l219 352h106z" />
    <glyph glyph-name="Thorn" unicode="&#xde;" horiz-adv-x="630" 
d="M181 577h151q119 0 192 -63t73 -167q0 -108 -76 -173.5t-201 -65.5h-139v-108h-95v680h95v-103zM181 196h148q78 0 126 41.5t48 109.5q0 64 -48 103t-126 39h-148v-293z" />
    <glyph glyph-name="germandbls" unicode="&#xdf;" horiz-adv-x="636" 
d="M569 409l-165 -199q90 -8 145 -61t55 -136q0 -95 -66 -156t-178 -61q-90 0 -170 32v83q79 -33 167 -33q78 0 118 38.5t40 94.5q0 55 -39 87t-101 32h-102v45l167 207h-276v-382h-91v564q0 85 51.5 136.5t136.5 51.5v-90q-44 0 -70.5 -27t-26.5 -71v-97h405v-58z" />
    <glyph glyph-name="agrave" unicode="&#xe0;" horiz-adv-x="615" 
d="M285 553l-96 146h102l78 -146h-84zM539 467v-467h-92v42q-64 -54 -156 -54q-100 0 -169.5 71.5t-69.5 173.5q0 103 69.5 174.5t169.5 71.5q92 0 156 -54v42h92zM304 68q91 0 143 76v179q-52 76 -143 76q-68 0 -114 -49t-46 -117q0 -67 46 -116t114 -49z" />
    <glyph glyph-name="aacute" unicode="&#xe1;" horiz-adv-x="615" 
d="M354 552h-84l78 146h102zM539 467v-467h-92v42q-64 -54 -156 -54q-100 0 -169.5 71.5t-69.5 173.5q0 103 69.5 174.5t169.5 71.5q92 0 156 -54v42h92zM304 68q91 0 143 76v179q-52 76 -143 76q-68 0 -114 -49t-46 -117q0 -67 46 -116t114 -49z" />
    <glyph glyph-name="acircumflex" unicode="&#xe2;" horiz-adv-x="615" 
d="M237 544h-88l121 149h90l121 -149h-87l-78 90zM539 467v-467h-92v42q-64 -54 -156 -54q-100 0 -169.5 71.5t-69.5 173.5q0 103 69.5 174.5t169.5 71.5q92 0 156 -54v42h92zM304 68q91 0 143 76v179q-52 76 -143 76q-68 0 -114 -49t-46 -117q0 -67 46 -116t114 -49z" />
    <glyph glyph-name="atilde" unicode="&#xe3;" horiz-adv-x="615" 
d="M334 583l-45 28q-26 16 -43 6.5t-17 -34.5h-75q0 39 16 66t40 37t51 8.5t49 -15.5l44 -28q28 -17 44.5 -7t16.5 35h74q0 -39 -15.5 -66t-39 -37.5t-50.5 -8.5t-50 16zM539 467v-467h-92v42q-64 -54 -156 -54q-100 0 -169.5 71.5t-69.5 173.5q0 103 69.5 174.5t169.5 71.5
q92 0 156 -54v42h92zM304 68q91 0 143 76v179q-52 76 -143 76q-68 0 -114 -49t-46 -117q0 -67 46 -116t114 -49z" />
    <glyph glyph-name="adieresis" unicode="&#xe4;" horiz-adv-x="615" 
d="M218 565q-26 0 -43.5 17t-17.5 42t17.5 42t43.5 17t43.5 -17t17.5 -42t-17.5 -42t-43.5 -17zM415 565q-26 0 -43.5 17t-17.5 42t17.5 42t43.5 17t43.5 -17t17.5 -42t-17.5 -42t-43.5 -17zM539 467v-467h-92v42q-64 -54 -156 -54q-100 0 -169.5 71.5t-69.5 173.5
q0 103 69.5 174.5t169.5 71.5q92 0 156 -54v42h92zM304 68q91 0 143 76v179q-52 76 -143 76q-68 0 -114 -49t-46 -117q0 -67 46 -116t114 -49z" />
    <glyph glyph-name="aring" unicode="&#xe5;" horiz-adv-x="615" 
d="M316 543q-46 0 -76 28.5t-30 72.5t29.5 72t76.5 28t76.5 -28t29.5 -72t-29.5 -72.5t-76.5 -28.5zM316 695q-22 0 -37 -14.5t-15 -36.5t15 -37t37 -15t37 15t15 37t-15 36.5t-37 14.5zM539 467v-467h-92v42q-64 -54 -156 -54q-100 0 -169.5 71.5t-69.5 173.5
q0 103 69.5 174.5t169.5 71.5q92 0 156 -54v42h92zM304 68q91 0 143 76v179q-52 76 -143 76q-68 0 -114 -49t-46 -117q0 -67 46 -116t114 -49z" />
    <glyph glyph-name="ae" unicode="&#xe6;" horiz-adv-x="915" 
d="M863 238q0 -27 -2 -40l-3 2v-2h-377q10 -58 50.5 -95t105.5 -37q84 0 115 58h99q-20 -62 -78.5 -99t-137.5 -37q-121 0 -191 86q-95 -85 -206 -85q-88 0 -141 40t-53 109q0 62 46 95.5t129 33.5h171q0 133 -120 133q-45 0 -74.5 -20t-35.5 -55h-93q7 75 65 114.5
t138 39.5q121 0 176 -83q72 83 189 83q98 0 162.5 -68t65.5 -173zM481 267h289q-7 61 -44 97t-95 36q-61 0 -100.5 -36.5t-49.5 -94.5v-2zM243 66q89 0 166 66q-13 29 -18 66h-178q-39 0 -60 -15t-21 -41q0 -33 29 -54.5t82 -21.5z" />
    <glyph glyph-name="ccedilla" unicode="&#xe7;" horiz-adv-x="576" 
d="M298 72q50 0 85 25.5t45 67.5h95q-14 -79 -76 -128t-149 -49q-105 0 -175.5 70.5t-70.5 174.5q0 105 70.5 175.5t175.5 70.5q87 0 149 -49t76 -129h-95q-10 43 -45 68.5t-85 25.5q-68 0 -111 -46.5t-43 -115.5q0 -68 43 -114.5t111 -46.5zM250 -63h91l-56 -150h-80z" />
    <glyph glyph-name="egrave" unicode="&#xe8;" horiz-adv-x="578" 
d="M264 553l-96 146h102l78 -146h-84zM525 238q0 -27 -1 -40l-2 1v-1h-378q10 -58 50.5 -95t105.5 -37q84 0 115 58h98q-20 -62 -78.5 -99t-137.5 -37q-108 0 -176.5 70t-68.5 175t68.5 175.5t176.5 70.5q99 0 163.5 -68t64.5 -173zM294 400q-62 0 -101.5 -37t-48.5 -96h288
q-6 61 -42.5 97t-95.5 36z" />
    <glyph glyph-name="eacute" unicode="&#xe9;" horiz-adv-x="578" 
d="M333 552h-84l78 146h102zM525 238q0 -27 -1 -40l-2 1v-1h-378q10 -58 50.5 -95t105.5 -37q84 0 115 58h98q-20 -62 -78.5 -99t-137.5 -37q-108 0 -176.5 70t-68.5 175t68.5 175.5t176.5 70.5q99 0 163.5 -68t64.5 -173zM294 400q-62 0 -101.5 -37t-48.5 -96h288
q-6 61 -42.5 97t-95.5 36z" />
    <glyph glyph-name="ecircumflex" unicode="&#xea;" horiz-adv-x="578" 
d="M216 544h-88l121 149h90l121 -149h-87l-78 90zM525 238q0 -27 -1 -40l-2 1v-1h-378q10 -58 50.5 -95t105.5 -37q84 0 115 58h98q-20 -62 -78.5 -99t-137.5 -37q-108 0 -176.5 70t-68.5 175t68.5 175.5t176.5 70.5q99 0 163.5 -68t64.5 -173zM294 400q-62 0 -101.5 -37
t-48.5 -96h288q-6 61 -42.5 97t-95.5 36z" />
    <glyph glyph-name="edieresis" unicode="&#xeb;" horiz-adv-x="578" 
d="M197 565q-26 0 -43.5 17t-17.5 42t17.5 42t43.5 17t43.5 -17t17.5 -42t-17.5 -42t-43.5 -17zM394 565q-26 0 -43.5 17t-17.5 42t17.5 42t43.5 17t43.5 -17t17.5 -42t-17.5 -42t-43.5 -17zM525 238q0 -27 -1 -40l-2 1v-1h-378q10 -58 50.5 -95t105.5 -37q84 0 115 58h98
q-20 -62 -78.5 -99t-137.5 -37q-108 0 -176.5 70t-68.5 175t68.5 175.5t176.5 70.5q99 0 163.5 -68t64.5 -173zM294 400q-62 0 -101.5 -37t-48.5 -96h288q-6 61 -42.5 97t-95.5 36z" />
    <glyph glyph-name="igrave" unicode="&#xec;" horiz-adv-x="266" 
d="M186 553h-84l-96 146h102zM180 467v-467h-92v467h92z" />
    <glyph glyph-name="iacute" unicode="&#xed;" horiz-adv-x="266" 
d="M267 698l-96 -146h-84l78 146h102zM180 467v-467h-92v467h92z" />
    <glyph glyph-name="icircumflex" unicode="&#xee;" horiz-adv-x="266" 
d="M134 634l-79 -90h-88l121 149h90l121 -149h-87zM180 467v-467h-92v467h92z" />
    <glyph glyph-name="idieresis" unicode="&#xef;" horiz-adv-x="266" 
d="M35 683q26 0 43.5 -17t17.5 -42t-17.5 -42t-43.5 -17t-43.5 17t-17.5 42t17.5 42t43.5 17zM232 683q26 0 43.5 -17t17.5 -42t-17.5 -42t-43.5 -17t-43.5 17t-17.5 42t17.5 42t43.5 17zM180 467v-467h-92v467h92z" />
    <glyph glyph-name="eth" unicode="&#xf0;" horiz-adv-x="592" 
d="M447 622l-55 -20q75 -71 116.5 -165.5t41.5 -203.5q0 -106 -71.5 -177t-176.5 -71q-106 0 -177.5 71t-71.5 177t71 176t178 70q56 0 105 -30q-37 68 -102 121l-156 -58l-24 63l112 41q-52 31 -112 54l95 40q60 -24 111 -60l92 34zM302 69q67 0 111 47.5t44 116.5
q0 68 -44 115t-111 47q-68 0 -112.5 -47t-44.5 -115q0 -69 44.5 -116.5t112.5 -47.5z" />
    <glyph glyph-name="ntilde" unicode="&#xf1;" horiz-adv-x="589" 
d="M318 583l-45 28q-26 16 -43 6.5t-17 -34.5h-75q0 39 16 66t40 37t51 8.5t49 -15.5l44 -28q28 -17 44.5 -7t16.5 35h74q0 -39 -15.5 -66t-39 -37.5t-50.5 -8.5t-50 16zM326 482q91 0 146.5 -59.5t55.5 -158.5v-264h-91v259q0 66 -34.5 103t-94.5 37q-80 0 -140 -77v-322
h-92v467h92v-47q67 62 158 62z" />
    <glyph glyph-name="ograve" unicode="&#xf2;" horiz-adv-x="602" 
d="M355 553h-84l-96 146h102zM301 479q105 0 176.5 -70.5t71.5 -175.5q0 -106 -71.5 -177t-176.5 -71q-106 0 -177.5 71t-71.5 177q0 105 71.5 175.5t177.5 70.5zM302 69q67 0 111.5 47.5t44.5 116.5q0 68 -44.5 115t-111.5 47q-68 0 -112.5 -47t-44.5 -115
q0 -69 44.5 -116.5t112.5 -47.5z" />
    <glyph glyph-name="oacute" unicode="&#xf3;" horiz-adv-x="602" 
d="M435 698l-96 -146h-84l78 146h102zM301 479q105 0 176.5 -70.5t71.5 -175.5q0 -106 -71.5 -177t-176.5 -71q-106 0 -177.5 71t-71.5 177q0 105 71.5 175.5t177.5 70.5zM302 69q67 0 111.5 47.5t44.5 116.5q0 68 -44.5 115t-111.5 47q-68 0 -112.5 -47t-44.5 -115
q0 -69 44.5 -116.5t112.5 -47.5z" />
    <glyph glyph-name="ocircumflex" unicode="&#xf4;" horiz-adv-x="602" 
d="M302 634l-79 -90h-88l121 149h90l121 -149h-87zM301 479q105 0 176.5 -70.5t71.5 -175.5q0 -106 -71.5 -177t-176.5 -71q-106 0 -177.5 71t-71.5 177q0 105 71.5 175.5t177.5 70.5zM302 69q67 0 111.5 47.5t44.5 116.5q0 68 -44.5 115t-111.5 47q-68 0 -112.5 -47
t-44.5 -115q0 -69 44.5 -116.5t112.5 -47.5z" />
    <glyph glyph-name="otilde" unicode="&#xf5;" horiz-adv-x="602" 
d="M400 679h74q0 -39 -15.5 -66t-39 -37.5t-50.5 -8.5t-50 16l-45 28q-26 16 -43 6.5t-17 -34.5h-75q0 39 16 66t40 37t51 8.5t49 -15.5l44 -28q29 -17 45 -7t16 35zM301 479q105 0 176.5 -70.5t71.5 -175.5q0 -106 -71.5 -177t-176.5 -71q-106 0 -177.5 71t-71.5 177
q0 105 71.5 175.5t177.5 70.5zM302 69q67 0 111.5 47.5t44.5 116.5q0 68 -44.5 115t-111.5 47q-68 0 -112.5 -47t-44.5 -115q0 -69 44.5 -116.5t112.5 -47.5z" />
    <glyph glyph-name="odieresis" unicode="&#xf6;" horiz-adv-x="602" 
d="M204 683q26 0 43.5 -17t17.5 -42t-17.5 -42t-43.5 -17t-43.5 17t-17.5 42t17.5 42t43.5 17zM401 683q26 0 43.5 -17t17.5 -42t-17.5 -42t-43.5 -17t-43.5 17t-17.5 42t17.5 42t43.5 17zM301 479q105 0 176.5 -70.5t71.5 -175.5q0 -106 -71.5 -177t-176.5 -71
q-106 0 -177.5 71t-71.5 177q0 105 71.5 175.5t177.5 70.5zM302 69q67 0 111.5 47.5t44.5 116.5q0 68 -44.5 115t-111.5 47q-68 0 -112.5 -47t-44.5 -115q0 -69 44.5 -116.5t112.5 -47.5z" />
    <glyph glyph-name="divide" unicode="&#xf7;" horiz-adv-x="689" 
d="M345 460q-24 0 -40.5 16t-16.5 39q0 24 16.5 40t40.5 16t40.5 -16t16.5 -40q0 -23 -17 -39t-40 -16zM111 369h467v-85h-467v85zM345 85q-24 0 -40.5 16t-16.5 39q0 24 16.5 40t40.5 16t40.5 -16t16.5 -40q0 -23 -17 -39t-40 -16z" />
    <glyph glyph-name="oslash" unicode="&#xf8;" horiz-adv-x="602" 
d="M510 438l-28 -34q67 -69 67 -171q0 -106 -71.5 -177t-176.5 -71q-76 0 -137 39l-30 -36l-50 42l30 36q-62 68 -62 167q0 105 71.5 175.5t177.5 70.5q71 0 131 -35l29 35zM145 233q0 -55 29 -96l201 240q-32 18 -73 18q-68 0 -112.5 -47t-44.5 -115zM302 69
q67 0 111.5 47.5t44.5 116.5q0 60 -34 102l-204 -243q37 -23 82 -23z" />
    <glyph glyph-name="ugrave" unicode="&#xf9;" horiz-adv-x="589" 
d="M260 553l-96 146h102l78 -146h-84zM513 467v-467h-92v46q-67 -61 -158 -61t-146.5 59.5t-55.5 159.5v263h92v-258q0 -67 34.5 -103.5t93.5 -36.5q81 0 140 77v321h92z" />
    <glyph glyph-name="uacute" unicode="&#xfa;" horiz-adv-x="589" 
d="M329 552h-84l78 146h102zM513 467v-467h-92v46q-67 -61 -158 -61t-146.5 59.5t-55.5 159.5v263h92v-258q0 -67 34.5 -103.5t93.5 -36.5q81 0 140 77v321h92z" />
    <glyph glyph-name="ucircumflex" unicode="&#xfb;" horiz-adv-x="589" 
d="M213 544h-88l121 149h90l121 -149h-87l-78 90zM513 467v-467h-92v46q-67 -61 -158 -61t-146.5 59.5t-55.5 159.5v263h92v-258q0 -67 34.5 -103.5t93.5 -36.5q81 0 140 77v321h92z" />
    <glyph glyph-name="udieresis" unicode="&#xfc;" horiz-adv-x="589" 
d="M193 565q-26 0 -43.5 17t-17.5 42t17.5 42t43.5 17t43.5 -17t17.5 -42t-17.5 -42t-43.5 -17zM390 565q-26 0 -43.5 17t-17.5 42t17.5 42t43.5 17t43.5 -17t17.5 -42t-17.5 -42t-43.5 -17zM513 467v-467h-92v46q-67 -61 -158 -61t-146.5 59.5t-55.5 159.5v263h92v-258
q0 -67 34.5 -103.5t93.5 -36.5q81 0 140 77v321h92z" />
    <glyph glyph-name="yacute" unicode="&#xfd;" horiz-adv-x="607" 
d="M340 552h-84l78 146h102zM574 468l-317 -710h-97l98 221l-235 489h99l184 -382l170 382h98z" />
    <glyph glyph-name="thorn" unicode="&#xfe;" horiz-adv-x="609" 
d="M324 479q99 0 169 -71.5t70 -174.5q0 -102 -70 -173.5t-169 -71.5q-92 0 -156 54v-285h-92v923h92v-255q64 54 156 54zM311 68q67 0 113.5 49t46.5 116q0 68 -46 117t-114 49q-91 0 -143 -76v-179q52 -76 143 -76z" />
    <glyph glyph-name="ydieresis" unicode="&#xff;" horiz-adv-x="607" 
d="M204 565q-26 0 -43.5 17t-17.5 42t17.5 42t43.5 17t43.5 -17t17.5 -42t-17.5 -42t-43.5 -17zM401 565q-26 0 -43.5 17t-17.5 42t17.5 42t43.5 17t43.5 -17t17.5 -42t-17.5 -42t-43.5 -17zM574 468l-317 -710h-97l98 221l-235 489h99l184 -382l170 382h98z" />
    <glyph glyph-name="Amacron" unicode="&#x100;" horiz-adv-x="748" 
d="M513 765h-279v75h279v-75zM545 175h-341l-76 -175h-102l304 684h89l303 -684h-101zM507 263l-133 307l-132 -307h265z" />
    <glyph glyph-name="amacron" unicode="&#x101;" horiz-adv-x="615" 
d="M455 573h-279v75h279v-75zM539 467v-467h-92v42q-64 -54 -156 -54q-100 0 -169.5 71.5t-69.5 173.5q0 103 69.5 174.5t169.5 71.5q92 0 156 -54v42h92zM304 68q91 0 143 76v179q-52 76 -143 76q-68 0 -114 -49t-46 -117q0 -67 46 -116t114 -49z" />
    <glyph glyph-name="Abreve" unicode="&#x102;" horiz-adv-x="748" 
d="M374 761q-65 0 -107 38.5t-42 108.5h69q0 -43 23 -63.5t57 -20.5t57 20.5t23 63.5h69q0 -70 -42 -108.5t-107 -38.5zM545 175h-341l-76 -175h-102l304 684h89l303 -684h-101zM507 263l-133 307l-132 -307h265z" />
    <glyph glyph-name="abreve" unicode="&#x103;" horiz-adv-x="615" 
d="M316 539q-65 0 -107 38.5t-42 108.5h69q0 -43 23 -63.5t57 -20.5t57 20.5t23 63.5h69q0 -70 -42 -108.5t-107 -38.5zM539 467v-467h-92v42q-64 -54 -156 -54q-100 0 -169.5 71.5t-69.5 173.5q0 103 69.5 174.5t169.5 71.5q92 0 156 -54v42h92zM304 68q91 0 143 76v179
q-52 76 -143 76q-68 0 -114 -49t-46 -117q0 -67 46 -116t114 -49z" />
    <glyph glyph-name="Aogonek" unicode="&#x104;" horiz-adv-x="748" 
d="M729 -101l9 -69q-20 -9 -58 -9q-61 0 -98.5 30t-37.5 79q0 59 67 93l-66 152h-341l-76 -175h-102l304 684h89l303 -684h-37q-63 -19 -63 -60q0 -45 70 -45q18 0 37 4zM507 263l-133 307l-132 -307h265z" />
    <glyph glyph-name="aogonek" unicode="&#x105;" horiz-adv-x="615" 
d="M569 -105l9 -69q-20 -9 -58 -9q-61 0 -98.5 30t-37.5 79q0 57 63 91v25q-64 -54 -156 -54q-100 0 -169.5 71.5t-69.5 173.5q0 103 69.5 174.5t169.5 71.5q92 0 156 -54v42h92v-467q-77 -19 -77 -64t70 -45q18 0 37 4zM304 68q91 0 143 76v179q-52 76 -143 76
q-68 0 -114 -49t-46 -117q0 -67 46 -116t114 -49z" />
    <glyph glyph-name="Cacute" unicode="&#x106;" horiz-adv-x="802" 
d="M453 757h-84l78 146h102zM415 78q87 0 147.5 46t80.5 127h99q-24 -119 -113 -192t-214 -73q-148 0 -251 102t-103 252t103 252t251 102q125 0 214 -73t113 -192h-99q-20 81 -80.5 127t-147.5 46q-110 0 -183.5 -74.5t-73.5 -187.5t73.5 -187.5t183.5 -74.5z" />
    <glyph glyph-name="cacute" unicode="&#x107;" horiz-adv-x="576" 
d="M331 552h-84l78 146h102zM298 72q50 0 85 25.5t45 67.5h95q-14 -79 -76 -128t-149 -49q-105 0 -175.5 70.5t-70.5 174.5q0 105 70.5 175.5t175.5 70.5q87 0 149 -49t76 -129h-95q-10 43 -45 68.5t-85 25.5q-68 0 -111 -46.5t-43 -115.5q0 -68 43 -114.5t111 -46.5z" />
    <glyph glyph-name="Cdotaccent" unicode="&#x10a;" horiz-adv-x="802" 
d="M415 762q-26 0 -43.5 17t-17.5 42t17.5 42t43.5 17t43.5 -17t17.5 -42t-17.5 -42t-43.5 -17zM415 78q87 0 147.5 46t80.5 127h99q-24 -119 -113 -192t-214 -73q-148 0 -251 102t-103 252t103 252t251 102q125 0 214 -73t113 -192h-99q-20 81 -80.5 127t-147.5 46
q-110 0 -183.5 -74.5t-73.5 -187.5t73.5 -187.5t183.5 -74.5z" />
    <glyph glyph-name="cdotaccent" unicode="&#x10b;" horiz-adv-x="576" 
d="M293 565q-26 0 -43.5 17t-17.5 42t17.5 42t43.5 17t43.5 -17t17.5 -42t-17.5 -42t-43.5 -17zM298 72q50 0 85 25.5t45 67.5h95q-14 -79 -76 -128t-149 -49q-105 0 -175.5 70.5t-70.5 174.5q0 105 70.5 175.5t175.5 70.5q87 0 149 -49t76 -129h-95q-10 43 -45 68.5
t-85 25.5q-68 0 -111 -46.5t-43 -115.5q0 -68 43 -114.5t111 -46.5z" />
    <glyph glyph-name="Ccaron" unicode="&#x10c;" horiz-adv-x="802" 
d="M370 752l-121 149h88l79 -90l78 90h87l-121 -149h-90zM415 78q87 0 147.5 46t80.5 127h99q-24 -119 -113 -192t-214 -73q-148 0 -251 102t-103 252t103 252t251 102q125 0 214 -73t113 -192h-99q-20 81 -80.5 127t-147.5 46q-110 0 -183.5 -74.5t-73.5 -187.5
t73.5 -187.5t183.5 -74.5z" />
    <glyph glyph-name="ccaron" unicode="&#x10d;" horiz-adv-x="576" 
d="M247 544l-121 149h88l79 -90l78 90h87l-121 -149h-90zM298 72q50 0 85 25.5t45 67.5h95q-14 -79 -76 -128t-149 -49q-105 0 -175.5 70.5t-70.5 174.5q0 105 70.5 175.5t175.5 70.5q87 0 149 -49t76 -129h-95q-10 43 -45 68.5t-85 25.5q-68 0 -111 -46.5t-43 -115.5
q0 -68 43 -114.5t111 -46.5z" />
    <glyph glyph-name="Dcaron" unicode="&#x10e;" horiz-adv-x="746" 
d="M298 752l-121 149h88l79 -90l78 90h87l-121 -149h-90zM86 680h246q157 0 258.5 -95t101.5 -241q0 -150 -101.5 -247t-258.5 -97h-246v680zM181 88h151q113 0 187.5 72.5t74.5 183.5q0 107 -74.5 177.5t-187.5 70.5h-151v-504z" />
    <glyph glyph-name="dcaron" unicode="&#x10f;" horiz-adv-x="615" 
d="M447 710h92v-710h-92v42q-64 -53 -156 -53q-100 0 -169.5 71.5t-69.5 173.5t69.5 173.5t169.5 71.5q92 0 156 -53v284zM719 710l-31 -192h-71l8 192h94zM304 68q90 0 143 76v179q-52 76 -143 76q-68 0 -114 -48.5t-46 -116.5t46 -117t114 -49z" />
    <glyph glyph-name="Dcroat" unicode="&#x110;" horiz-adv-x="746" 
d="M86 680h246q157 0 258.5 -95t101.5 -241q0 -150 -101.5 -247t-258.5 -97h-246v291h-67v88h67v301zM181 88h151q113 0 187.5 72.5t74.5 183.5q0 107 -74.5 177.5t-187.5 70.5h-151v-213h158v-88h-158v-203z" />
    <glyph glyph-name="dcroat" unicode="&#x111;" horiz-adv-x="615" 
d="M575 563h-36v-563h-92v42q-64 -53 -156 -53q-100 0 -169.5 71.5t-69.5 173.5t69.5 173.5t169.5 71.5q92 0 156 -53v137h-181v76h181v71h92v-71h36v-76zM304 68q90 0 143 76v179q-52 76 -143 76q-68 0 -114 -48.5t-46 -116.5t46 -117t114 -49z" />
    <glyph glyph-name="Emacron" unicode="&#x112;" horiz-adv-x="625" 
d="M464 765h-279v75h279v-75zM181 592v-211h348v-88h-348v-205h388v-88h-483v680h483v-88h-388z" />
    <glyph glyph-name="emacron" unicode="&#x113;" horiz-adv-x="578" 
d="M434 573h-279v75h279v-75zM525 238q0 -27 -1 -40l-2 1v-1h-378q10 -58 50.5 -95t105.5 -37q84 0 115 58h98q-20 -62 -78.5 -99t-137.5 -37q-108 0 -176.5 70t-68.5 175t68.5 175.5t176.5 70.5q99 0 163.5 -68t64.5 -173zM294 400q-62 0 -101.5 -37t-48.5 -96h288
q-6 61 -42.5 97t-95.5 36z" />
    <glyph glyph-name="Edotaccent" unicode="&#x116;" horiz-adv-x="625" 
d="M325 762q-26 0 -43.5 17t-17.5 42t17.5 42t43.5 17t43.5 -17t17.5 -42t-17.5 -42t-43.5 -17zM181 592v-211h348v-88h-348v-205h388v-88h-483v680h483v-88h-388z" />
    <glyph glyph-name="edotaccent" unicode="&#x117;" horiz-adv-x="578" 
d="M295 565q-26 0 -43.5 17t-17.5 42t17.5 42t43.5 17t43.5 -17t17.5 -42t-17.5 -42t-43.5 -17zM525 238q0 -27 -1 -40l-2 1v-1h-378q10 -58 50.5 -95t105.5 -37q84 0 115 58h98q-20 -62 -78.5 -99t-137.5 -37q-108 0 -176.5 70t-68.5 175t68.5 175.5t176.5 70.5
q99 0 163.5 -68t64.5 -173zM294 400q-62 0 -101.5 -37t-48.5 -96h288q-6 61 -42.5 97t-95.5 36z" />
    <glyph glyph-name="Eogonek" unicode="&#x118;" horiz-adv-x="625" 
d="M599 -105l9 -69q-20 -9 -58 -9q-61 0 -98.5 30t-37.5 79q0 42 38 74h-366v680h483v-88h-388v-211h348v-88h-348v-205h388v-88q-77 -19 -77 -64t70 -45q18 0 37 4z" />
    <glyph glyph-name="eogonek" unicode="&#x119;" horiz-adv-x="578" 
d="M525 238q0 -27 -1 -40l-2 1v-1h-378q10 -58 50.5 -95t105.5 -37q84 0 115 58h98q-15 -50 -57 -84q-36 -29 -48 -48t-12 -44q0 -51 69 -51q19 0 38 4l9 -69q-27 -9 -59 -9q-61 0 -98 30t-37 79q0 29 16 58q-24 -2 -37 -2q-108 0 -176.5 70t-68.5 175t68.5 175.5
t176.5 70.5q99 0 163.5 -68t64.5 -173zM294 400q-62 0 -101.5 -37t-48.5 -96h288q-6 61 -42.5 97t-95.5 36z" />
    <glyph glyph-name="Ecaron" unicode="&#x11a;" horiz-adv-x="625" 
d="M279 752l-121 149h88l79 -90l78 90h87l-121 -149h-90zM181 592v-211h348v-88h-348v-205h388v-88h-483v680h483v-88h-388z" />
    <glyph glyph-name="ecaron" unicode="&#x11b;" horiz-adv-x="578" 
d="M249 544l-121 149h88l79 -90l78 90h87l-121 -149h-90zM525 238q0 -27 -1 -40l-2 1v-1h-378q10 -58 50.5 -95t105.5 -37q84 0 115 58h98q-20 -62 -78.5 -99t-137.5 -37q-108 0 -176.5 70t-68.5 175t68.5 175.5t176.5 70.5q99 0 163.5 -68t64.5 -173zM294 400
q-62 0 -101.5 -37t-48.5 -96h288q-6 61 -42.5 97t-95.5 36z" />
    <glyph glyph-name="Gbreve" unicode="&#x11e;" horiz-adv-x="826" 
d="M416 761q-65 0 -107 38.5t-42 108.5h69q0 -43 23 -63.5t57 -20.5t57 20.5t23 63.5h69q0 -70 -42 -108.5t-107 -38.5zM747 340v-340h-76l-7 125q-78 -139 -251 -139q-150 0 -251 102t-101 246q0 155 103.5 257.5t253.5 102.5q115 0 206 -64t120 -179h-103
q-24 76 -86 113.5t-135 37.5q-113 0 -187.5 -75t-74.5 -193q0 -106 72 -181t183 -75q93 0 154 54.5t78 143.5h-239v88h342z" />
    <glyph glyph-name="gbreve" unicode="&#x11f;" horiz-adv-x="618" 
d="M314 539q-65 0 -107 38.5t-42 108.5h69q0 -43 23 -63.5t57 -20.5t57 20.5t23 63.5h69q0 -70 -42 -108.5t-107 -38.5zM539 467v-474q0 -106 -65 -169t-170 -63q-95 0 -160 51t-76 133h94q8 -46 46 -73.5t96 -27.5q64 0 103.5 40t39.5 109v69q-67 -54 -160 -54
q-98 0 -166.5 69.5t-68.5 165.5q0 104 67.5 173t167.5 69q94 0 160 -55v37h92zM300 87q94 0 147 78v163q-53 77 -147 77q-68 0 -112 -46.5t-44 -115.5q0 -61 45 -108.5t111 -47.5z" />
    <glyph glyph-name="Gdotaccent" unicode="&#x120;" horiz-adv-x="826" 
d="M416 762q-26 0 -43.5 17t-17.5 42t17.5 42t43.5 17t43.5 -17t17.5 -42t-17.5 -42t-43.5 -17zM747 340v-340h-76l-7 125q-78 -139 -251 -139q-150 0 -251 102t-101 246q0 155 103.5 257.5t253.5 102.5q115 0 206 -64t120 -179h-103q-24 76 -86 113.5t-135 37.5
q-113 0 -187.5 -75t-74.5 -193q0 -106 72 -181t183 -75q93 0 154 54.5t78 143.5h-239v88h342z" />
    <glyph glyph-name="gdotaccent" unicode="&#x121;" horiz-adv-x="618" 
d="M314 565q-26 0 -43.5 17t-17.5 42t17.5 42t43.5 17t43.5 -17t17.5 -42t-17.5 -42t-43.5 -17zM539 467v-474q0 -106 -65 -169t-170 -63q-95 0 -160 51t-76 133h94q8 -46 46 -73.5t96 -27.5q64 0 103.5 40t39.5 109v69q-67 -54 -160 -54q-98 0 -166.5 69.5t-68.5 165.5
q0 104 67.5 173t167.5 69q94 0 160 -55v37h92zM300 87q94 0 147 78v163q-53 77 -147 77q-68 0 -112 -46.5t-44 -115.5q0 -61 45 -108.5t111 -47.5z" />
    <glyph glyph-name="Gcommaaccent" unicode="&#x122;" horiz-adv-x="826" 
d="M747 340v-340h-76l-7 125q-78 -139 -251 -139q-150 0 -251 102t-101 246q0 155 103.5 257.5t253.5 102.5q115 0 206 -64t120 -179h-103q-24 76 -86 113.5t-135 37.5q-113 0 -187.5 -75t-74.5 -193q0 -106 72 -181t183 -75q93 0 154 54.5t78 143.5h-239v88h342zM410 -58
q23 0 39.5 -15.5t16.5 -38.5q0 -15 -7.5 -32.5t-39.5 -74.5q-8 -15 -13 -23h-52l37 83q-38 12 -38 48q0 22 17 37.5t40 15.5z" />
    <glyph glyph-name="gcommaaccent" unicode="&#x123;" horiz-adv-x="618" 
d="M309 562q-23 0 -40 15.5t-17 38.5q0 4 0.5 7t0.5 6t1.5 6.5l3 7t4.5 10t5.5 11.5t8 15t9.5 18t12 22.5t15 27.5h53l-37 -84q37 -12 37 -47q0 -22 -16.5 -38t-39.5 -16zM539 467v-474q0 -106 -65 -169t-170 -63q-95 0 -160 51t-76 133h94q8 -46 46 -73.5t96 -27.5
q64 0 103.5 40t39.5 109v69q-67 -54 -160 -54q-98 0 -166.5 69.5t-68.5 165.5q0 104 67.5 173t167.5 69q94 0 160 -55v37h92zM300 87q94 0 147 78v163q-53 77 -147 77q-68 0 -112 -46.5t-44 -115.5q0 -61 45 -108.5t111 -47.5z" />
    <glyph glyph-name="Hbar" unicode="&#x126;" horiz-adv-x="738" 
d="M697 493h-46v-493h-95v291h-375v-291h-95v493h-52v79h52v108h95v-108h375v108h95v-108h46v-79zM556 493h-375v-114h375v114z" />
    <glyph glyph-name="hbar" unicode="&#x127;" horiz-adv-x="586" 
d="M326 482q91 0 146.5 -59.5t55.5 -158.5v-264h-91v259q0 66 -34.5 103t-94.5 37q-80 0 -140 -77v-322h-92v582h-47v66h47v62h92v-62h159v-66h-159v-162q67 62 158 62z" />
    <glyph glyph-name="Imacron" unicode="&#x12a;" horiz-adv-x="267" 
d="M273 840v-75h-279v75h279zM181 680v-680h-95v680h95z" />
    <glyph glyph-name="imacron" unicode="&#x12b;" horiz-adv-x="266" 
d="M272 648v-75h-279v75h279zM180 467v-467h-92v467h92z" />
    <glyph glyph-name="Iogonek" unicode="&#x12e;" horiz-adv-x="267" 
d="M211 -105l9 -69q-20 -9 -58 -9q-61 0 -98.5 30t-37.5 79q0 54 60 90v664h95v-680q-77 -19 -77 -64t70 -45q18 0 37 4z" />
    <glyph glyph-name="iogonek" unicode="&#x12f;" horiz-adv-x="266" 
d="M133 583q-26 0 -43 16.5t-17 41.5t17 41.5t43 16.5q25 0 42 -16.5t17 -41.5t-17 -41.5t-42 -16.5zM209 -105l9 -69q-20 -9 -58 -9q-61 0 -98.5 30t-37.5 79q0 56 64 92v449h92v-467h-1q-77 -19 -77 -64t70 -45q18 0 37 4z" />
    <glyph glyph-name="Idotaccent" unicode="&#x130;" horiz-adv-x="267" 
d="M134 764q-26 0 -44.5 17.5t-18.5 43.5q0 25 18.5 43t44.5 18t44.5 -18t18.5 -43q0 -26 -18.5 -43.5t-44.5 -17.5zM181 680v-680h-95v680h95z" />
    <glyph glyph-name="dotlessi" unicode="&#x131;" horiz-adv-x="266" 
d="M179 467v-467h-91v467h91z" />
    <glyph glyph-name="IJ" unicode="&#x132;" horiz-adv-x="863" 
d="M181 680v-680h-95v680h95zM786 680v-431q0 -125 -68.5 -194.5t-185.5 -69.5q-103 0 -170.5 59t-77.5 161h97q7 -62 49.5 -96.5t107.5 -34.5q67 0 109 47.5t42 129.5v429h97z" />
    <glyph glyph-name="ij" unicode="&#x133;" horiz-adv-x="525" 
d="M133 583q-26 0 -43 16.5t-17 41.5t17 41.5t43 16.5q25 0 42 -16.5t17 -41.5t-17 -41.5t-42 -16.5zM392 583q-25 0 -42.5 16.5t-17.5 41.5t17.5 41.5t42.5 16.5t42 -16.5t17 -41.5t-17 -41.5t-42 -16.5zM180 467v-467h-92v467h92zM438 467v-449q0 -105 -41.5 -153.5
t-146.5 -49.5l-7 80q58 3 80.5 27.5t22.5 84.5v460h92z" />
    <glyph glyph-name="Kcommaaccent" unicode="&#x136;" horiz-adv-x="707" 
d="M688 0h-120l-262 303l-125 -135v-168h-95v680h95v-381l358 381h116l-283 -306zM350 -58q23 0 39.5 -15.5t16.5 -38.5q0 -15 -7.5 -32.5t-39.5 -74.5q-8 -15 -13 -23h-52l37 83q-38 12 -38 48q0 22 17 37.5t40 15.5z" />
    <glyph glyph-name="kcommaaccent" unicode="&#x137;" horiz-adv-x="569" 
d="M556 0h-120l-173 208l-91 -91v-117h-92v710h92v-472l234 229h117l-195 -194zM288 -58q23 0 39.5 -15.5t16.5 -38.5q0 -15 -7.5 -32.5t-39.5 -74.5q-8 -15 -13 -23h-52l37 83q-38 12 -38 48q0 22 17 37.5t40 15.5z" />
    <glyph glyph-name="Lacute" unicode="&#x139;" horiz-adv-x="578" 
d="M171 757h-84l78 146h102zM550 86v-86h-464v680h95v-594h369z" />
    <glyph glyph-name="lacute" unicode="&#x13a;" horiz-adv-x="244" 
d="M263 941l-96 -146h-84l78 146h102zM168 710v-710h-92v710h92z" />
    <glyph glyph-name="Lcommaaccent" unicode="&#x13b;" horiz-adv-x="578" 
d="M550 86v-86h-464v680h95v-594h369zM326 -58q23 0 39.5 -15.5t16.5 -38.5q0 -15 -7.5 -32.5t-39.5 -74.5q-8 -15 -13 -23h-52l37 83q-38 12 -38 48q0 22 17 37.5t40 15.5z" />
    <glyph glyph-name="lcommaaccent" unicode="&#x13c;" horiz-adv-x="244" 
d="M168 710v-710h-92v710h92zM63 -242l37 83q-38 12 -38 48q0 22 17 37.5t40 15.5t39.5 -15.5t16.5 -38.5q0 -15 -7.5 -32.5t-39.5 -74.5q-8 -15 -13 -23h-52z" />
    <glyph glyph-name="Lcaron" unicode="&#x13d;" horiz-adv-x="578" 
d="M550 86v-86h-464v680h95v-594h369zM393 488h-71l8 192h94z" />
    <glyph glyph-name="lcaron" unicode="&#x13e;" horiz-adv-x="252" 
d="M168 710v-710h-92v710h92zM326 710l-31 -192h-71l8 192h94z" />
    <glyph glyph-name="Ldot" unicode="&#x13f;" horiz-adv-x="578" 
d="M550 86v-86h-464v680h95v-594h369zM381 273q-26 0 -43.5 17t-17.5 42t17.5 42t43.5 17t43.5 -17t17.5 -42t-17.5 -42t-43.5 -17z" />
    <glyph glyph-name="ldot" unicode="&#x140;" horiz-adv-x="368" 
d="M168 710v-710h-92v710h92zM266 264q-26 0 -43.5 17t-17.5 42t17.5 42t43.5 17t43.5 -17t17.5 -42t-17.5 -42t-43.5 -17z" />
    <glyph glyph-name="Lslash" unicode="&#x141;" horiz-adv-x="578" 
d="M550 86v-86h-464v244l-69 -31v82l69 31v354h95v-311l161 73v-81l-161 -73v-202h369z" />
    <glyph glyph-name="lslash" unicode="&#x142;" horiz-adv-x="244" 
d="M237 372l-69 -32v-340h-92v297l-69 -32v95l69 32v318h92v-276l69 32v-94z" />
    <glyph glyph-name="Nacute" unicode="&#x143;" horiz-adv-x="761" 
d="M418 757h-84l78 146h102zM674 680v-680h-76l-417 504v-504h-95v680h75l418 -512v512h95z" />
    <glyph glyph-name="nacute" unicode="&#x144;" horiz-adv-x="589" 
d="M338 552h-84l78 146h102zM326 482q91 0 146.5 -59.5t55.5 -158.5v-264h-91v259q0 66 -34.5 103t-94.5 37q-80 0 -140 -77v-322h-92v467h92v-47q67 62 158 62z" />
    <glyph glyph-name="Ncommaaccent" unicode="&#x145;" horiz-adv-x="761" 
d="M674 680v-680h-76l-417 504v-504h-95v680h75l418 -512v512h95zM370 -58q23 0 39.5 -15.5t16.5 -38.5q0 -15 -7.5 -32.5t-39.5 -74.5q-8 -15 -13 -23h-52l37 83q-38 12 -38 48q0 22 17 37.5t40 15.5z" />
    <glyph glyph-name="ncommaaccent" unicode="&#x146;" horiz-adv-x="589" 
d="M326 482q91 0 146.5 -59.5t55.5 -158.5v-264h-91v259q0 66 -34.5 103t-94.5 37q-80 0 -140 -77v-322h-92v467h92v-47q67 62 158 62zM301 -58q23 0 39.5 -15.5t16.5 -38.5q0 -15 -7.5 -32.5t-39.5 -74.5q-8 -15 -13 -23h-52l37 83q-38 12 -38 48q0 22 17 37.5t40 15.5z
" />
    <glyph glyph-name="Ncaron" unicode="&#x147;" horiz-adv-x="761" 
d="M335 752l-121 149h88l79 -90l78 90h87l-121 -149h-90zM674 680v-680h-76l-417 504v-504h-95v680h75l418 -512v512h95z" />
    <glyph glyph-name="ncaron" unicode="&#x148;" horiz-adv-x="589" 
d="M255 544l-121 149h88l79 -90l78 90h87l-121 -149h-90zM326 482q91 0 146.5 -59.5t55.5 -158.5v-264h-91v259q0 66 -34.5 103t-94.5 37q-80 0 -140 -77v-322h-92v467h92v-47q67 62 158 62z" />
    <glyph glyph-name="Omacron" unicode="&#x14c;" horiz-adv-x="830" 
d="M554 840v-75h-279v75h279zM415 694q147 0 250.5 -103.5t103.5 -250.5t-103.5 -250.5t-250.5 -103.5t-250.5 103.5t-103.5 250.5t103.5 250.5t250.5 103.5zM414 75q109 0 183.5 77.5t74.5 187.5t-74.5 187.5t-183.5 77.5q-108 0 -182.5 -77.5t-74.5 -187.5t74.5 -187.5
t182.5 -77.5z" />
    <glyph glyph-name="omacron" unicode="&#x14d;" horiz-adv-x="602" 
d="M441 648v-75h-279v75h279zM301 479q105 0 176.5 -70.5t71.5 -175.5q0 -106 -71.5 -177t-176.5 -71q-106 0 -177.5 71t-71.5 177q0 105 71.5 175.5t177.5 70.5zM302 69q67 0 111.5 47.5t44.5 116.5q0 68 -44.5 115t-111.5 47q-68 0 -112.5 -47t-44.5 -115
q0 -69 44.5 -116.5t112.5 -47.5z" />
    <glyph glyph-name="Ohungarumlaut" unicode="&#x150;" horiz-adv-x="830" 
d="M460 903l-83 -146h-78l65 146h96zM600 903l-82 -146h-78l65 146h95zM415 694q147 0 250.5 -103.5t103.5 -250.5t-103.5 -250.5t-250.5 -103.5t-250.5 103.5t-103.5 250.5t103.5 250.5t250.5 103.5zM414 75q109 0 183.5 77.5t74.5 187.5t-74.5 187.5t-183.5 77.5
q-108 0 -182.5 -77.5t-74.5 -187.5t74.5 -187.5t182.5 -77.5z" />
    <glyph glyph-name="ohungarumlaut" unicode="&#x151;" horiz-adv-x="602" 
d="M346 699l-83 -146h-78l65 146h96zM486 699l-82 -146h-78l65 146h95zM301 479q105 0 176.5 -70.5t71.5 -175.5q0 -106 -71.5 -177t-176.5 -71q-106 0 -177.5 71t-71.5 177q0 105 71.5 175.5t177.5 70.5zM302 69q67 0 111.5 47.5t44.5 116.5q0 68 -44.5 115t-111.5 47
q-68 0 -112.5 -47t-44.5 -115q0 -69 44.5 -116.5t112.5 -47.5z" />
    <glyph glyph-name="OE" unicode="&#x152;" horiz-adv-x="1007" 
d="M564 592v-211h348v-88h-348v-205h388v-88h-532q-165 0 -271.5 96.5t-106.5 243.5t106.5 243.5t271.5 96.5h532v-88h-388zM469 90v501h-49q-126 0 -203.5 -70.5t-77.5 -180.5t77.5 -180.5t203.5 -70.5z" />
    <glyph glyph-name="oe" unicode="&#x153;" horiz-adv-x="984" 
d="M932 238q0 -27 -2 -40l-3 2v-2h-377q10 -58 50.5 -95t105.5 -37q84 0 115 58h98q-19 -62 -77.5 -99t-137.5 -37q-131 0 -201 98q-34 -47 -86.5 -74t-115.5 -27q-106 0 -177.5 71t-71.5 177q0 105 71.5 175.5t177.5 70.5q62 0 115 -26.5t87 -72.5q68 99 201 99
q98 0 162.5 -68t65.5 -173zM700 400q-62 0 -101.5 -37t-48.5 -96h288q-6 61 -42.5 97t-95.5 36zM302 69q67 0 111.5 47.5t44.5 116.5q0 68 -44.5 115t-111.5 47q-68 0 -112.5 -47t-44.5 -115q0 -69 44.5 -116.5t112.5 -47.5z" />
    <glyph glyph-name="Racute" unicode="&#x154;" horiz-adv-x="679" 
d="M349 757h-84l78 146h102zM333 235h-152v-235h-95v680h266q116 0 189 -60.5t73 -161.5q0 -80 -46 -135.5t-126 -76.5l206 -246h-117zM181 323h168q74 0 122 36.5t48 98.5q0 61 -48 97.5t-122 36.5h-168v-269z" />
    <glyph glyph-name="racute" unicode="&#x155;" horiz-adv-x="372" 
d="M242 552h-84l78 146h102zM168 467v-68q68 79 176 79v-87q-114 -3 -176 -91v-300h-92v467h92z" />
    <glyph glyph-name="Rcommaaccent" unicode="&#x156;" horiz-adv-x="679" 
d="M648 0h-117l-198 235h-152v-235h-95v680h266q116 0 189 -60.5t73 -161.5q0 -80 -46 -135.5t-126 -76.5zM181 323h168q74 0 122 36.5t48 98.5q0 61 -48 97.5t-122 36.5h-168v-269zM333 -58q23 0 39.5 -15.5t16.5 -38.5q0 -15 -7.5 -32.5t-39.5 -74.5q-8 -15 -13 -23h-52
l37 83q-38 12 -38 48q0 22 17 37.5t40 15.5z" />
    <glyph glyph-name="rcommaaccent" unicode="&#x157;" horiz-adv-x="372" 
d="M168 467v-68q68 79 176 79v-87q-114 -3 -176 -91v-300h-92v467h92zM119 -58q23 0 39.5 -15.5t16.5 -38.5q0 -15 -7.5 -32.5t-39.5 -74.5q-8 -15 -13 -23h-52l37 83q-38 12 -38 48q0 22 17 37.5t40 15.5z" />
    <glyph glyph-name="Rcaron" unicode="&#x158;" horiz-adv-x="679" 
d="M265 752l-121 149h88l79 -90l78 90h87l-121 -149h-90zM333 235h-152v-235h-95v680h266q116 0 189 -60.5t73 -161.5q0 -80 -46 -135.5t-126 -76.5l206 -246h-117zM181 323h168q74 0 122 36.5t48 98.5q0 61 -48 97.5t-122 36.5h-168v-269z" />
    <glyph glyph-name="rcaron" unicode="&#x159;" horiz-adv-x="372" 
d="M159 544l-121 149h88l79 -90l78 90h87l-121 -149h-90zM168 467v-68q68 79 176 79v-87q-114 -3 -176 -91v-300h-92v467h92z" />
    <glyph glyph-name="Sacute" unicode="&#x15a;" horiz-adv-x="664" 
d="M466 903l-96 -146h-84l78 146h102zM331 695q106 0 182.5 -51.5t88.5 -156.5h-94q-23 126 -170 126q-70 0 -111.5 -31t-41.5 -83q0 -81 125 -104l94 -19q197 -38 197 -181q0 -94 -71 -151.5t-187 -57.5q-124 0 -201 62t-87 172h95q11 -70 62 -109.5t136 -39.5
q71 0 113 30.5t42 81.5q0 80 -114 101l-115 22q-190 35 -190 186q0 91 68 147t179 56z" />
    <glyph glyph-name="sacute" unicode="&#x15b;" horiz-adv-x="519" 
d="M393 698l-96 -146h-84l78 146h102zM44 152l85 -1q18 -91 134 -91q50 0 80.5 18.5t30.5 49.5q0 50 -68 61l-105 18q-138 22 -138 130q0 66 53 105t139 39q78 0 138 -36t67 -116l-86 -1q-4 40 -36 60.5t-83 20.5q-47 0 -74 -18t-27 -46q0 -50 79 -63l90 -15
q139 -24 139 -132q0 -70 -56 -110t-145 -40q-91 0 -149.5 41t-67.5 126z" />
    <glyph glyph-name="Scedilla" unicode="&#x15e;" horiz-adv-x="664" 
d="M331 695q106 0 182.5 -51.5t88.5 -156.5h-94q-23 126 -170 126q-70 0 -111.5 -31t-41.5 -83q0 -81 125 -104l94 -19q197 -38 197 -181q0 -94 -71 -151.5t-187 -57.5q-124 0 -201 62t-87 172h95q11 -70 62 -109.5t136 -39.5q71 0 113 30.5t42 81.5q0 80 -114 101l-115 22
q-190 35 -190 186q0 91 68 147t179 56zM340 -213h-80l45 150h91z" />
    <glyph glyph-name="scedilla" unicode="&#x15f;" horiz-adv-x="519" 
d="M44 152l85 -1q18 -91 134 -91q50 0 80.5 18.5t30.5 49.5q0 50 -68 61l-105 18q-138 22 -138 130q0 66 53 105t139 39q78 0 138 -36t67 -116l-86 -1q-4 40 -36 60.5t-83 20.5q-47 0 -74 -18t-27 -46q0 -50 79 -63l90 -15q139 -24 139 -132q0 -70 -56 -110t-145 -40
q-91 0 -149.5 41t-67.5 126zM254 -213h-80l45 150h91z" />
    <glyph glyph-name="Scaron" unicode="&#x160;" horiz-adv-x="664" 
d="M497 901l-121 -149h-90l-121 149h88l79 -90l78 90h87zM331 695q106 0 182.5 -51.5t88.5 -156.5h-94q-23 126 -170 126q-70 0 -111.5 -31t-41.5 -83q0 -81 125 -104l94 -19q197 -38 197 -181q0 -94 -71 -151.5t-187 -57.5q-124 0 -201 62t-87 172h95q11 -70 62 -109.5
t136 -39.5q71 0 113 30.5t42 81.5q0 80 -114 101l-115 22q-190 35 -190 186q0 91 68 147t179 56z" />
    <glyph glyph-name="scaron" unicode="&#x161;" horiz-adv-x="519" 
d="M425 693l-121 -149h-90l-121 149h88l79 -90l78 90h87zM44 152l85 -1q18 -91 134 -91q50 0 80.5 18.5t30.5 49.5q0 50 -68 61l-105 18q-138 22 -138 130q0 66 53 105t139 39q78 0 138 -36t67 -116l-86 -1q-4 40 -36 60.5t-83 20.5q-47 0 -74 -18t-27 -46q0 -50 79 -63
l90 -15q139 -24 139 -132q0 -70 -56 -110t-145 -40q-91 0 -149.5 41t-67.5 126z" />
    <glyph glyph-name="Tcedilla" unicode="&#x162;" horiz-adv-x="641" 
d="M613 592h-245v-592h-95v592h-245v88h585v-88zM277 -63h91l-56 -150h-80z" />
    <glyph glyph-name="tcedilla" unicode="&#x163;" horiz-adv-x="438" 
d="M386 82l13 -79q-60 -18 -108 -18q-83 0 -127.5 49t-44.5 140v216h-115v77h115v172h92v-172h175v-77h-175v-216q0 -104 96 -104q36 0 79 12zM222 -63h91l-56 -150h-80z" />
    <glyph glyph-name="Tcaron" unicode="&#x164;" horiz-adv-x="641" 
d="M275 752l-121 149h88l79 -90l78 90h87l-121 -149h-90zM613 592h-245v-592h-95v592h-245v88h585v-88z" />
    <glyph glyph-name="tcaron" unicode="&#x165;" horiz-adv-x="438" 
d="M339 520h-71l8 192h94zM386 82l13 -79q-60 -18 -108 -18q-83 0 -127.5 49t-44.5 140v216h-115v77h115v172h92v-172h175v-77h-175v-216q0 -104 96 -104q36 0 79 12z" />
    <glyph glyph-name="Umacron" unicode="&#x16a;" horiz-adv-x="742" 
d="M510 840v-75h-279v75h279zM666 680v-385q0 -139 -81 -224.5t-214 -85.5t-214 85.5t-81 224.5v385h95v-385q0 -97 55.5 -159t144.5 -62t144.5 62t55.5 159v385h95z" />
    <glyph glyph-name="umacron" unicode="&#x16b;" horiz-adv-x="589" 
d="M430 573h-279v75h279v-75zM513 467v-467h-92v46q-67 -61 -158 -61t-146.5 59.5t-55.5 159.5v263h92v-258q0 -67 34.5 -103.5t93.5 -36.5q81 0 140 77v321h92z" />
    <glyph glyph-name="Uring" unicode="&#x16e;" horiz-adv-x="742" 
d="M371 968q47 0 76.5 -28t29.5 -72t-29.5 -72.5t-76.5 -28.5q-46 0 -76 28.5t-30 72.5t29.5 72t76.5 28zM371 816q23 0 37.5 15t14.5 37t-15 36.5t-37 14.5t-37 -14.5t-15 -36.5t14.5 -37t37.5 -15zM666 680v-385q0 -139 -81 -224.5t-214 -85.5t-214 85.5t-81 224.5v385h95
v-385q0 -97 55.5 -159t144.5 -62t144.5 62t55.5 159v385h95z" />
    <glyph glyph-name="uring" unicode="&#x16f;" horiz-adv-x="589" 
d="M291 543q-46 0 -76 28.5t-30 72.5t29.5 72t76.5 28t76.5 -28t29.5 -72t-29.5 -72.5t-76.5 -28.5zM291 695q-22 0 -37 -14.5t-15 -36.5t14.5 -37t37.5 -15t37.5 15t14.5 37t-15 36.5t-37 14.5zM513 467v-467h-92v46q-67 -61 -158 -61t-146.5 59.5t-55.5 159.5v263h92v-258
q0 -67 34.5 -103.5t93.5 -36.5q81 0 140 77v321h92z" />
    <glyph glyph-name="Uhungarumlaut" unicode="&#x170;" horiz-adv-x="742" 
d="M416 903l-83 -146h-78l65 146h96zM556 903l-82 -146h-78l65 146h95zM666 680v-385q0 -139 -81 -224.5t-214 -85.5t-214 85.5t-81 224.5v385h95v-385q0 -97 55.5 -159t144.5 -62t144.5 62t55.5 159v385h95z" />
    <glyph glyph-name="uhungarumlaut" unicode="&#x171;" horiz-adv-x="589" 
d="M253 553h-78l65 146h96zM316 553l65 146h95l-82 -146h-78zM513 467v-467h-92v46q-67 -61 -158 -61t-146.5 59.5t-55.5 159.5v263h92v-258q0 -67 34.5 -103.5t93.5 -36.5q81 0 140 77v321h92z" />
    <glyph glyph-name="Uogonek" unicode="&#x172;" horiz-adv-x="742" 
d="M666 680v-385q0 -102 -45 -177t-124 -109q-74 -50 -74 -94q0 -22 17 -36t50 -14q15 0 37 5l9 -78q-26 -7 -58 -7q-61 0 -97 29.5t-36 79.5q0 45 45 92l-19 -1q-133 0 -214 85.5t-81 224.5v385h95v-385q0 -97 55.5 -159t144.5 -62t144.5 62t55.5 159v385h95z" />
    <glyph glyph-name="uogonek" unicode="&#x173;" horiz-adv-x="589" 
d="M543 -105l9 -69q-20 -9 -58 -9q-61 0 -98.5 30t-37.5 79q0 57 63 91v29q-67 -61 -158 -61t-146.5 59.5t-55.5 159.5v263h92v-258q0 -67 34.5 -103.5t93.5 -36.5q81 0 140 77v321h92v-467q-77 -19 -77 -64t70 -45q18 0 37 4z" />
    <glyph glyph-name="Wcircumflex" unicode="&#x174;" horiz-adv-x="1071" 
d="M457 758h-88l121 149h90l121 -149h-87l-78 90zM1034 680l-229 -684h-94l-175 514l-176 -514h-94l-229 684h100l176 -537l181 537h83l181 -536l176 536h100z" />
    <glyph glyph-name="wcircumflex" unicode="&#x175;" horiz-adv-x="786" 
d="M314 544h-88l121 149h90l121 -149h-87l-78 90zM759 467l-176 -467h-82l-108 319l-109 -319h-81l-176 467h100l116 -323l110 323h79l110 -322l117 322h100z" />
    <glyph glyph-name="Ycircumflex" unicode="&#x176;" horiz-adv-x="677" 
d="M260 758h-88l121 149h90l121 -149h-87l-78 90zM663 680l-276 -444v-236h-97v236l-277 444h106l219 -352l219 352h106z" />
    <glyph glyph-name="ycircumflex" unicode="&#x177;" horiz-adv-x="607" 
d="M223 544h-88l121 149h90l121 -149h-87l-78 90zM574 468l-317 -710h-97l98 221l-235 489h99l184 -382l170 382h98z" />
    <glyph glyph-name="Ydieresis" unicode="&#x178;" horiz-adv-x="677" 
d="M240 762q-26 0 -43.5 17t-17.5 42t17.5 42t43.5 17t43.5 -17t17.5 -42t-17.5 -42t-43.5 -17zM437 762q-26 0 -43.5 17t-17.5 42t17.5 42t43.5 17t43.5 -17t17.5 -42t-17.5 -42t-43.5 -17zM663 680l-276 -444v-236h-97v236l-277 444h106l219 -352l219 352h106z" />
    <glyph glyph-name="Zacute" unicode="&#x179;" horiz-adv-x="654" 
d="M365 757h-84l78 146h102zM597 87v-87h-544v47l403 546h-390v87h528v-47l-392 -546h395z" />
    <glyph glyph-name="zacute" unicode="&#x17a;" horiz-adv-x="495" 
d="M285 552h-84l78 146h102zM453 416l-275 -339h275v-77h-411v45l279 345h-270v77h402v-51z" />
    <glyph glyph-name="Zdotaccent" unicode="&#x17b;" horiz-adv-x="654" 
d="M327 762q-26 0 -43.5 17t-17.5 42t17.5 42t43.5 17t43.5 -17t17.5 -42t-17.5 -42t-43.5 -17zM597 87v-87h-544v47l403 546h-390v87h528v-47l-392 -546h395z" />
    <glyph glyph-name="zdotaccent" unicode="&#x17c;" horiz-adv-x="495" 
d="M248 565q-26 0 -43.5 17t-17.5 42t17.5 42t43.5 17t43.5 -17t17.5 -42t-17.5 -42t-43.5 -17zM453 416l-275 -339h275v-77h-411v45l279 345h-270v77h402v-51z" />
    <glyph glyph-name="Zcaron" unicode="&#x17d;" horiz-adv-x="654" 
d="M282 752l-121 149h88l79 -90l78 90h87l-121 -149h-90zM597 87v-87h-544v47l403 546h-390v87h528v-47l-392 -546h395z" />
    <glyph glyph-name="zcaron" unicode="&#x17e;" horiz-adv-x="495" 
d="M202 544l-121 149h88l79 -90l78 90h87l-121 -149h-90zM453 416l-275 -339h275v-77h-411v45l279 345h-270v77h402v-51z" />
    <glyph glyph-name="florin" unicode="&#x192;" horiz-adv-x="527" 
d="M412 600q-45 0 -71 -27.5t-32 -75.5l-17 -126h169v-78h-179l-26 -201q-12 -88 -58 -138.5t-124 -50.5q-48 0 -102 15l14 80q40 -10 72 -10q90 0 103 104l26 201h-130v78h140l17 126q12 87 58 137.5t124 50.5q48 0 102 -15l-13 -79q-45 9 -73 9z" />
    <glyph glyph-name="Acaron" unicode="&#x1cd;" horiz-adv-x="748" 
d="M329 752l-121 149h88l79 -90l78 90h87l-121 -149h-90zM545 175h-341l-76 -175h-102l304 684h89l303 -684h-101zM507 263l-133 307l-132 -307h265z" />
    <glyph glyph-name="acaron" unicode="&#x1ce;" horiz-adv-x="615" 
d="M270 544l-121 149h88l79 -90l78 90h87l-121 -149h-90zM539 467v-467h-92v42q-64 -54 -156 -54q-100 0 -169.5 71.5t-69.5 173.5q0 103 69.5 174.5t169.5 71.5q92 0 156 -54v42h92zM304 68q91 0 143 76v179q-52 76 -143 76q-68 0 -114 -49t-46 -117q0 -67 46 -116t114 -49
z" />
    <glyph glyph-name="Scommaaccent" unicode="&#x218;" horiz-adv-x="664" 
d="M331 695q106 0 182.5 -51.5t88.5 -156.5h-94q-23 126 -170 126q-70 0 -111.5 -31t-41.5 -83q0 -81 125 -104l94 -19q197 -38 197 -181q0 -94 -71 -151.5t-187 -57.5q-124 0 -201 62t-87 172h95q11 -70 62 -109.5t136 -39.5q71 0 113 30.5t42 81.5q0 80 -114 101l-115 22
q-190 35 -190 186q0 91 68 147t179 56zM288 -242l37 83q-37 12 -37 48q0 22 16.5 37.5t39.5 15.5t40 -15.5t17 -38.5q0 -15 -7.5 -32.5t-39.5 -74.5q-8 -15 -13 -23h-53z" />
    <glyph glyph-name="scommaaccent" unicode="&#x219;" horiz-adv-x="519" 
d="M44 152l85 -1q18 -91 134 -91q50 0 80.5 18.5t30.5 49.5q0 50 -68 61l-105 18q-138 22 -138 130q0 66 53 105t139 39q78 0 138 -36t67 -116l-86 -1q-4 40 -36 60.5t-83 20.5q-47 0 -74 -18t-27 -46q0 -50 79 -63l90 -15q139 -24 139 -132q0 -70 -56 -110t-145 -40
q-91 0 -149.5 41t-67.5 126zM184 -242l37 83q-38 12 -38 48q0 22 17 37.5t40 15.5t39.5 -15.5t16.5 -38.5q0 -15 -7.5 -32.5t-39.5 -74.5q-8 -15 -13 -23h-52z" />
    <glyph glyph-name="uni021A" unicode="&#x21a;" horiz-adv-x="641" 
d="M613 592h-245v-592h-95v592h-245v88h585v-88zM305 -58q23 0 39.5 -15.5t16.5 -38.5q0 -15 -7.5 -32.5t-39.5 -74.5q-8 -15 -13 -23h-52l37 83q-38 12 -38 48q0 22 17 37.5t40 15.5z" />
    <glyph glyph-name="uni021B" unicode="&#x21b;" horiz-adv-x="438" 
d="M386 82l13 -79q-60 -18 -108 -18q-83 0 -127.5 49t-44.5 140v216h-115v77h115v172h92v-172h175v-77h-175v-216q0 -104 96 -104q36 0 79 12zM242 -58q23 0 39.5 -15.5t16.5 -38.5q0 -15 -7.5 -32.5t-39.5 -74.5q-8 -15 -13 -23h-52l37 83q-38 12 -38 48q0 22 17 37.5
t40 15.5z" />
    <glyph glyph-name="circumflex" unicode="&#x2c6;" 
d="M301 645l-79 -90h-88l121 149h90l121 -149h-87z" />
    <glyph glyph-name="caron" unicode="&#x2c7;" 
d="M466 704l-121 -149h-90l-121 149h88l79 -90l78 90h87z" />
    <glyph glyph-name="breve" unicode="&#x2d8;" 
d="M380 691h69q0 -70 -42 -108.5t-107 -38.5t-107 38.5t-42 108.5h69q0 -43 23 -63.5t57 -20.5t57 20.5t23 63.5z" />
    <glyph glyph-name="dotaccent" unicode="&#x2d9;" 
d="M300 558q-26 0 -43.5 17t-17.5 42t17.5 42t43.5 17t43.5 -17t17.5 -42t-17.5 -42t-43.5 -17z" />
    <glyph glyph-name="ring" unicode="&#x2da;" 
d="M298 751q47 0 76.5 -28t29.5 -72t-29.5 -72.5t-76.5 -28.5q-46 0 -76 28.5t-30 72.5t29.5 72t76.5 28zM298 599q22 0 37 14.5t15 37.5q0 22 -15 36.5t-37 14.5t-37 -14.5t-15 -36.5q0 -23 15 -37.5t37 -14.5z" />
    <glyph glyph-name="ogonek" unicode="&#x2db;" 
d="M356 45l11 -44q-77 -19 -77 -64t70 -45q18 0 37 4l9 -69q-20 -9 -58 -9q-61 0 -98.5 30t-37.5 79q0 45 40.5 76.5t103.5 41.5z" />
    <glyph glyph-name="tilde" unicode="&#x2dc;" 
d="M391 686h74q0 -39 -15.5 -66t-39 -37.5t-50.5 -8.5t-50 16l-45 28q-26 16 -43 6.5t-17 -34.5h-75q0 39 16 66t40 37t51 8.5t49 -15.5l44 -28q28 -17 44.5 -7t16.5 35z" />
    <glyph glyph-name="hungarumlaut" unicode="&#x2dd;" 
d="M347 706l-83 -146h-78l65 146h96zM487 706l-82 -146h-78l65 146h95z" />
    <glyph glyph-name="uni0326" unicode="&#x326;" horiz-adv-x="0" 
d="M237 -242l37 83q-38 12 -38 48q0 22 17 37.5t40 15.5t39.5 -15.5t16.5 -38.5q0 -15 -7.5 -32.5t-39.5 -74.5q-8 -15 -13 -23h-52z" />
    <glyph glyph-name="Wgrave" unicode="&#x1e80;" horiz-adv-x="1071" 
d="M505 757l-96 146h102l78 -146h-84zM1034 680l-229 -684h-94l-175 514l-176 -514h-94l-229 684h100l176 -537l181 537h83l181 -536l176 536h100z" />
    <glyph glyph-name="wgrave" unicode="&#x1e81;" horiz-adv-x="786" 
d="M362 553l-96 146h102l78 -146h-84zM759 467l-176 -467h-82l-108 319l-109 -319h-81l-176 467h100l116 -323l110 323h79l110 -322l117 322h100z" />
    <glyph glyph-name="Wacute" unicode="&#x1e82;" horiz-adv-x="1071" 
d="M574 757h-84l78 146h102zM1034 680l-229 -684h-94l-175 514l-176 -514h-94l-229 684h100l176 -537l181 537h83l181 -536l176 536h100z" />
    <glyph glyph-name="wacute" unicode="&#x1e83;" horiz-adv-x="786" 
d="M431 552h-84l78 146h102zM759 467l-176 -467h-82l-108 319l-109 -319h-81l-176 467h100l116 -323l110 323h79l110 -322l117 322h100z" />
    <glyph glyph-name="Wdieresis" unicode="&#x1e84;" horiz-adv-x="1071" 
d="M437 762q-26 0 -43.5 17t-17.5 42t17.5 42t43.5 17t43.5 -17t17.5 -42t-17.5 -42t-43.5 -17zM634 762q-26 0 -43.5 17t-17.5 42t17.5 42t43.5 17t43.5 -17t17.5 -42t-17.5 -42t-43.5 -17zM1034 680l-229 -684h-94l-175 514l-176 -514h-94l-229 684h100l176 -537l181 537
h83l181 -536l176 536h100z" />
    <glyph glyph-name="wdieresis" unicode="&#x1e85;" horiz-adv-x="786" 
d="M295 565q-26 0 -43.5 17t-17.5 42t17.5 42t43.5 17t43.5 -17t17.5 -42t-17.5 -42t-43.5 -17zM492 565q-26 0 -43.5 17t-17.5 42t17.5 42t43.5 17t43.5 -17t17.5 -42t-17.5 -42t-43.5 -17zM759 467l-176 -467h-82l-108 319l-109 -319h-81l-176 467h100l116 -323l110 323
h79l110 -322l117 322h100z" />
    <glyph glyph-name="Ygrave" unicode="&#x1ef2;" horiz-adv-x="677" 
d="M308 757l-96 146h102l78 -146h-84zM663 680l-276 -444v-236h-97v236l-277 444h106l219 -352l219 352h106z" />
    <glyph glyph-name="ygrave" unicode="&#x1ef3;" horiz-adv-x="607" 
d="M271 553l-96 146h102l78 -146h-84zM574 468l-317 -710h-97l98 221l-235 489h99l184 -382l170 382h98z" />
    <glyph glyph-name="endash" unicode="&#x2013;" horiz-adv-x="718" 
d="M608 222v92h-497v-92h497z" />
    <glyph glyph-name="emdash" unicode="&#x2014;" horiz-adv-x="987" 
d="M894 222v92h-801v-92h801z" />
    <glyph glyph-name="quoteleft" unicode="&#x2018;" horiz-adv-x="197" 
d="M159 679l-48 -121q36 -14 36 -48q0 -23 -17 -39.5t-41 -16.5q-25 0 -42 16.5t-17 39.5q0 19 19 55l54 114h56z" />
    <glyph glyph-name="quoteright" unicode="&#x2019;" horiz-adv-x="204" 
d="M37 461l49 121q-37 13 -37 48q0 24 17 40.5t42 16.5t42 -16.5t17 -40.5q0 -18 -19 -55l-54 -114h-57z" />
    <glyph glyph-name="quotesinglbase" unicode="&#x201a;" horiz-adv-x="204" 
d="M37 -127l49 121q-37 13 -37 49q0 23 17 39.5t41 16.5q25 0 42 -16.5t17 -39.5q0 -21 -18 -56l-54 -114h-57z" />
    <glyph glyph-name="quotedblleft" unicode="&#x201c;" horiz-adv-x="376" 
d="M167 679l-49 -121q37 -14 37 -48q0 -23 -17.5 -39.5t-41.5 -16.5q-25 0 -42 16.5t-17 39.5q0 19 19 55l54 114h57zM339 679l-49 -121q37 -13 37 -48q0 -23 -17 -39.5t-42 -16.5t-42 16.5t-17 39.5q0 19 19 55l54 114h57z" />
    <glyph glyph-name="quotedblright" unicode="&#x201d;" horiz-adv-x="376" 
d="M37 461l49 121q-37 13 -37 48q0 24 17 40.5t42 16.5t42 -16.5t17 -40.5q0 -18 -19 -55l-54 -114h-57zM210 461l48 121q-36 14 -36 48q0 24 17 40.5t41 16.5q25 0 42 -16.5t17 -40.5q0 -18 -19 -55l-54 -114h-56z" />
    <glyph glyph-name="quotedblbase" unicode="&#x201e;" horiz-adv-x="378" 
d="M37 -127l49 121q-37 13 -37 49q0 23 17 39.5t41 16.5q25 0 42 -16.5t17 -39.5q0 -21 -18 -56l-54 -114h-57zM212 -127l48 121q-36 14 -36 49q0 23 17 39.5t41 16.5q25 0 42 -16.5t17 -39.5q0 -19 -19 -56l-54 -114h-56z" />
    <glyph glyph-name="dagger" unicode="&#x2020;" horiz-adv-x="407" 
d="M235 538v-218h-63v218h-122v63h122v121h63v-121h121v-63h-121z" />
    <glyph glyph-name="daggerdbl" unicode="&#x2021;" horiz-adv-x="407" 
d="M235 489h121v-62h-121v-107h-63v107h-122v62h122v70h-122v63h122v100h63v-100h121v-63h-121v-70z" />
    <glyph glyph-name="bullet" unicode="&#x2022;" horiz-adv-x="324" 
d="M162 175q-49 0 -86 36.5t-37 85.5t36.5 85.5t86.5 36.5t86.5 -36.5t36.5 -85.5t-37 -85.5t-86 -36.5z" />
    <glyph glyph-name="ellipsis" unicode="&#x2026;" horiz-adv-x="616" 
d="M96 -15q-24 0 -41.5 17t-17.5 41t17.5 40.5t41.5 16.5q25 0 42.5 -16.5t17.5 -40.5q0 -25 -17.5 -41.5t-42.5 -16.5zM305 -15q-25 0 -42 16.5t-17 41.5q0 24 17 40.5t42 16.5t42 -16.5t17 -40.5q0 -25 -17 -41.5t-42 -16.5zM519 -15q-24 0 -41.5 17t-17.5 41t17.5 40.5
t41.5 16.5q25 0 42.5 -16.5t17.5 -40.5q0 -25 -17.5 -41.5t-42.5 -16.5z" />
    <glyph glyph-name="perthousand" unicode="&#x2030;" horiz-adv-x="1538" 
d="M279 695q82 0 136.5 -53.5t54.5 -137.5q0 -85 -54.5 -138.5t-136.5 -53.5q-83 0 -138 53.5t-55 138.5q0 84 55 137.5t138 53.5zM342 0h-67l457 680h67zM278 379q51 0 86 35.5t35 89.5q0 53 -35 88.5t-86 35.5t-86.5 -35.5t-35.5 -88.5q0 -54 35.5 -89.5t86.5 -35.5z
M807 368q83 0 137.5 -53.5t54.5 -137.5q0 -85 -54.5 -138.5t-137.5 -53.5q-82 0 -137 54t-55 138t55 137.5t137 53.5zM1260 368q83 0 137.5 -53.5t54.5 -137.5q0 -85 -54.5 -138.5t-137.5 -53.5q-82 0 -137 54t-55 138t55 137.5t137 53.5zM806 53q52 0 87 35t35 89t-35 89
t-87 35q-50 0 -85.5 -35t-35.5 -89t35.5 -89t85.5 -35zM1259 53q52 0 87 35t35 89t-35 89t-87 35q-50 0 -85.5 -35t-35.5 -89t35.5 -89t85.5 -35z" />
    <glyph glyph-name="guilsinglleft" unicode="&#x2039;" horiz-adv-x="268" 
d="M230 402l-103 -150l103 -150h-90l-102 150l102 150h90z" />
    <glyph glyph-name="guilsinglright" unicode="&#x203a;" horiz-adv-x="268" 
d="M230 252l-103 -150h-89l102 150l-102 150h89z" />
    <glyph glyph-name="fraction" unicode="&#x2044;" horiz-adv-x="465" 
d="M37 0h-67l458 680h67z" />
    <glyph glyph-name="zerosuperior" unicode="&#x2070;" horiz-adv-x="441" 
d="M221 697q85 0 134 -57.5t49 -147.5q0 -89 -49 -146.5t-134 -57.5t-134.5 57.5t-49.5 146.5t49.5 147t134.5 58zM221 353q53 0 82 39.5t29 99.5q0 61 -29 100.5t-82 39.5t-82.5 -39.5t-29.5 -100.5q0 -60 29.5 -99.5t82.5 -39.5z" />
    <glyph glyph-name="foursuperior" unicode="&#x2074;" horiz-adv-x="407" 
d="M377 379h-57v-79h-69v79h-214v44l119 268h73l-107 -251h129v115h69v-115h57v-61z" />
    <glyph glyph-name="fivesuperior" unicode="&#x2075;" horiz-adv-x="384" 
d="M132 550h61q68 0 105.5 -34.5t37.5 -91.5t-41 -95t-107 -38q-64 0 -104 31t-49 85h70q16 -54 83 -54q36 0 58.5 20t22.5 50t-20 48t-57 18h-125v202h251v-64h-186v-77z" />
    <glyph glyph-name="sixsuperior" unicode="&#x2076;" horiz-adv-x="379" 
d="M183 567h7q68 0 110.5 -38.5t42.5 -97.5q0 -60 -43 -100t-111 -40q-67 0 -111 40t-44 98q0 43 37 98l112 164h83zM189 349q37 0 61 22t24 56t-24 56t-61 22q-38 0 -62 -21l-2 -3q-22 -26 -22 -53q0 -34 24.5 -56.5t61.5 -22.5z" />
    <glyph glyph-name="sevensuperior" unicode="&#x2077;" horiz-adv-x="324" 
d="M306 691v-43l-173 -348h-79l161 324h-195v67h286z" />
    <glyph glyph-name="eightsuperior" unicode="&#x2078;" horiz-adv-x="401" 
d="M292 503q65 -29 65 -96q0 -53 -42.5 -86t-114.5 -33q-71 0 -113.5 33t-42.5 86q0 66 66 96q-50 28 -50 83q0 49 39.5 80t100.5 31q62 0 101.5 -31t39.5 -80q0 -55 -49 -83zM200 641q-30 0 -50 -17t-20 -42q0 -27 19.5 -43.5t50.5 -16.5t51 16.5t20 43.5q0 26 -20 42.5
t-51 16.5zM200 348q36 0 57.5 17.5t21.5 45.5t-21.5 45t-57.5 17q-35 0 -56.5 -17t-21.5 -45t21.5 -45.5t56.5 -17.5z" />
    <glyph glyph-name="ninesuperior" unicode="&#x2079;" horiz-adv-x="379" 
d="M190 701q67 0 111 -40t44 -98q0 -43 -37 -97l-112 -165h-83l83 124h-7q-68 0 -110.5 38.5t-42.5 97.5q0 60 43 100t111 40zM252 508l2 3q22 26 22 53q0 34 -24.5 56.5t-61.5 22.5q-36 0 -60.5 -22t-24.5 -56t24.5 -56t60.5 -22q38 0 62 21z" />
    <glyph glyph-name="zeroinferior" unicode="&#x2080;" horiz-adv-x="441" 
d="M225 220q85 0 134 -57.5t49 -147.5q0 -89 -49 -146.5t-134 -57.5t-134.5 57.5t-49.5 146.5t49.5 147t134.5 58zM225 -124q53 0 82 39.5t29 99.5q0 61 -29 100.5t-82 39.5t-82.5 -39.5t-29.5 -100.5q0 -60 29.5 -99.5t82.5 -39.5z" />
    <glyph glyph-name="oneinferior" unicode="&#x2081;" horiz-adv-x="321" 
d="M311 -121v-59h-281v59h110v255l-105 -30v61l134 42h38v-328h104z" />
    <glyph glyph-name="twoinferior" unicode="&#x2082;" horiz-adv-x="363" 
d="M326 -121v-59h-281v37l139 144q37 37 51 57t14 42q0 26 -18 41.5t-48 15.5q-32 0 -50.5 -17t-20.5 -46h-70q2 58 38.5 92t100.5 34q65 0 101.5 -33.5t36.5 -82.5q0 -31 -17 -61.5t-59 -73.5l-86 -90h169z" />
    <glyph glyph-name="threeinferior" unicode="&#x2083;" horiz-adv-x="375" 
d="M276 17q57 -27 57 -88q0 -51 -40 -84.5t-104 -33.5q-63 0 -102.5 31t-47.5 83h70q14 -52 81 -52q34 0 55 15.5t21 40.5q0 27 -21.5 42t-59.5 15h-33v57h33q30 0 48.5 16t18.5 41t-17.5 40.5t-49.5 15.5q-28 0 -45.5 -14.5t-19.5 -37.5h-70q5 53 41 83.5t94 30.5
q61 0 97.5 -32.5t36.5 -84.5q0 -55 -43 -84z" />
    <glyph glyph-name="fourinferior" unicode="&#x2084;" horiz-adv-x="407" 
d="M377 -102h-57v-78h-69v78h-214v45l119 268h73l-107 -251h129v115h69v-115h57v-62z" />
    <glyph glyph-name="fiveinferior" unicode="&#x2085;" horiz-adv-x="384" 
d="M132 70h61q68 0 105.5 -34.5t37.5 -91.5t-41 -95t-107 -38q-64 0 -104 31t-49 85h70q16 -54 83 -54q36 0 58.5 20t22.5 49q0 31 -20 49t-57 18h-125v202h251v-64h-186v-77z" />
    <glyph glyph-name="sixinferior" unicode="&#x2086;" horiz-adv-x="379" 
d="M183 87h7q68 0 110.5 -38.5t42.5 -97.5q0 -60 -43 -100t-111 -40q-67 0 -111 40t-44 98q0 42 37 98l112 164h83zM189 -131q37 0 61 22t24 56t-24 56t-61 22q-38 0 -62 -21l-2 -3q-22 -26 -22 -53q0 -34 24.5 -56.5t61.5 -22.5z" />
    <glyph glyph-name="seveninferior" unicode="&#x2087;" horiz-adv-x="324" 
d="M306 211v-43l-173 -348h-79l161 324h-195v67h286z" />
    <glyph glyph-name="eightinferior" unicode="&#x2088;" horiz-adv-x="401" 
d="M292 26q65 -29 65 -96q0 -53 -42.5 -86t-114.5 -33q-71 0 -113.5 33t-42.5 86q0 66 66 96q-50 28 -50 83q0 49 39.5 80t100.5 31q62 0 101.5 -31t39.5 -80q0 -55 -49 -83zM200 164q-30 0 -50 -17t-20 -42q0 -27 19.5 -43.5t50.5 -16.5t51 16.5t20 43.5q0 26 -20 42.5
t-51 16.5zM200 -129q36 0 57.5 17.5t21.5 45.5t-21.5 45t-57.5 17q-35 0 -56.5 -17t-21.5 -45t21.5 -45.5t56.5 -17.5z" />
    <glyph glyph-name="nineinferior" unicode="&#x2089;" horiz-adv-x="379" 
d="M190 221q67 0 111 -40t44 -98q0 -43 -37 -97l-112 -165h-83l83 124h-7q-68 0 -110.5 38.5t-42.5 97.5q0 60 43 100t111 40zM252 28l2 3q22 26 22 53q0 34 -24.5 56.5t-61.5 22.5q-36 0 -60.5 -22t-24.5 -56t24.5 -56t60.5 -22q38 0 62 21z" />
    <glyph glyph-name="Euro" unicode="&#x20ac;" horiz-adv-x="874" 
d="M487 78q87 0 147.5 46t80.5 127h99q-24 -119 -113 -192t-214 -73q-115 0 -207 65t-128 171h-110v67h94q-3 25 -3 51q0 21 1 32h-92v67h104q32 114 126 184.5t215 70.5q125 0 214 -73t113 -192h-99q-20 81 -80.5 127t-147.5 46q-83 0 -147.5 -44.5t-92.5 -118.5h306
l-18 -67h-303q-2 -20 -2 -32q0 -30 4 -51h281l-16 -67h-244q31 -67 93 -105.5t139 -38.5z" />
    <glyph glyph-name="uni2116" unicode="&#x2116;" horiz-adv-x="1389" 
d="M579 680h95v-680h-76l-417 504v-504h-95v680h75l418 -512v512zM1055 162q-106 0 -177.5 71t-71.5 177q0 105 71.5 175t177.5 70q105 0 176.5 -70t71.5 -175q0 -106 -71.5 -177t-176.5 -71zM1055 572q-68 0 -112.5 -47t-44.5 -115q0 -69 45 -117t112 -48t111.5 48
t44.5 117q0 68 -44.5 115t-111.5 47zM818 82h472v-82h-472v82z" />
    <glyph glyph-name="uni2117" unicode="&#x2117;" horiz-adv-x="850" 
d="M425 695q150 0 257 -102t107 -253t-107 -253t-257 -102t-257 102t-107 253t107 253t257 102zM424 633q-122 0 -210 -85t-88 -208t88 -208t210 -85t210.5 85t88.5 208t-88.5 208t-210.5 85zM312 518h134q62 0 99.5 -32t37.5 -84q0 -53 -37.5 -83.5t-100.5 -30.5h-76v-112
h-57v342zM369 464v-125h77q36 0 57 17t21 46q0 28 -21 45t-57 17h-77z" />
    <glyph glyph-name="trademark" unicode="&#x2122;" horiz-adv-x="688" 
d="M286 679v-51h-103v-241h-53v241h-104v51h260zM640 679v-292h-54v181l-90 -144h-29l-92 146l1 -183h-53v292h41l117 -183l117 183h42z" />
    <glyph glyph-name="oneeighth" unicode="&#x215b;" horiz-adv-x="923" 
d="M716 680l-458 -680h-67l458 680h67zM30 290v59h110v255l-105 -30v61l134 42h38v-328h104v-59h-281zM814 206q66 -30 66 -96q0 -53 -42.5 -86t-114.5 -33t-114.5 33t-42.5 86q0 66 66 96q-50 29 -50 83q0 49 39.5 80t101.5 31t101.5 -31t39.5 -80q0 -55 -50 -83zM723 344
q-30 0 -50.5 -17t-20.5 -42q0 -27 20 -43.5t51 -16.5t50.5 16.5t19.5 43.5q0 25 -20 42t-50 17zM723 51q35 0 56.5 17.5t21.5 45.5t-21.5 45t-56.5 17t-57 -17t-22 -45t22 -45.5t57 -17.5z" />
    <glyph glyph-name="threeeighths" unicode="&#x215c;" horiz-adv-x="907" 
d="M334 403q0 -51 -40 -84.5t-104 -33.5q-63 0 -102.5 31t-47.5 84h70q14 -53 81 -53q33 0 54.5 16t21.5 40q0 57 -81 57h-33v57h33q30 0 48.5 16t18.5 41t-17.5 40.5t-49.5 15.5q-28 0 -45.5 -14.5t-19.5 -37.5h-70q5 53 41 83.5t94 30.5q61 0 97.5 -32.5t36.5 -84.5
q0 -55 -43 -84q57 -27 57 -88zM700 680l-458 -680h-67l458 680h67zM798 206q66 -30 66 -96q0 -53 -42.5 -86t-114.5 -33t-114.5 33t-42.5 86q0 66 66 96q-50 29 -50 83q0 49 39.5 80t101.5 31t101.5 -31t39.5 -80q0 -55 -50 -83zM707 344q-30 0 -50.5 -17t-20.5 -42
q0 -27 20 -43.5t51 -16.5t50.5 16.5t19.5 43.5q0 25 -20 42t-50 17zM707 51q35 0 56.5 17.5t21.5 45.5t-21.5 45t-56.5 17t-57 -17t-22 -45t22 -45.5t57 -17.5z" />
    <glyph glyph-name="fiveeighths" unicode="&#x215d;" horiz-adv-x="910" 
d="M336 414q0 -57 -41 -95t-107 -38q-64 0 -104 31t-49 85h70q16 -54 83 -54q36 0 58.5 20t22.5 50t-20 48t-57 18h-125v202h251v-64h-186v-77h61q68 0 105.5 -34.5t37.5 -91.5zM703 680l-457 -680h-67l457 680h67zM801 206q66 -30 66 -96q0 -53 -42.5 -86t-114.5 -33
t-114.5 33t-42.5 86q0 66 66 97q-49 27 -49 82q0 49 39.5 80t100.5 31q62 0 101.5 -31t39.5 -80q0 -55 -50 -83zM710 344q-30 0 -50.5 -17t-20.5 -42q0 -27 20 -43.5t51 -16.5t51 16.5t20 43.5q0 25 -20.5 42t-50.5 17zM710 51q35 0 57 17.5t22 45.5t-22 45t-57 17
t-56.5 -17t-21.5 -45t21.5 -45.5t56.5 -17.5z" />
    <glyph glyph-name="seveneighths" unicode="&#x215e;" horiz-adv-x="824" 
d="M67 290l161 324h-195v67h286v-43l-173 -348h-79zM616 680l-457 -680h-67l457 680h67zM715 206q65 -29 65 -96q0 -53 -42.5 -86t-114.5 -33q-71 0 -114 33.5t-43 85.5q0 66 66 96q-49 28 -49 83q0 49 39.5 80t100.5 31q62 0 101.5 -31t39.5 -80q0 -55 -49 -83zM623 344
q-30 0 -50 -17t-20 -42q0 -27 19.5 -43.5t50.5 -16.5t51 16.5t20 43.5q0 25 -20.5 42t-50.5 17zM623 51q36 0 57.5 17.5t21.5 45.5t-21.5 45t-57.5 17q-35 0 -56.5 -17t-21.5 -45t21.5 -45.5t56.5 -17.5z" />
    <glyph glyph-name="arrowleft" unicode="&#x2190;" horiz-adv-x="766" 
d="M196 298l245 -241l-62 -61l-345 345l345 346l62 -61l-244 -241h529v-87h-530z" />
    <glyph glyph-name="arrowup" unicode="&#x2191;" horiz-adv-x="781" 
d="M347 530l-241 -245l-61 62l345 345l346 -345l-61 -62l-240 244v-529h-88v530z" />
    <glyph glyph-name="arrowright" unicode="&#x2192;" horiz-adv-x="766" 
d="M40 385h529l-244 241l62 61l345 -346l-345 -345l-62 61l245 241h-530v87z" />
    <glyph glyph-name="arrowdown" unicode="&#x2193;" horiz-adv-x="781" 
d="M435 680v-529l240 244l61 -62l-346 -345l-345 345l61 62l241 -245v530h88z" />
    <glyph glyph-name="arrowupleft" unicode="&#x2196;" horiz-adv-x="804" 
d="M709 -1l-533 533l1 -341h-87v489h489v-87l-341 1l532 -533z" />
    <glyph glyph-name="arrowupright" unicode="&#x2197;" horiz-adv-x="819" 
d="M581 594l-341 -1v87h489v-489h-87v341l-532 -533l-62 62z" />
    <glyph glyph-name="arrowdownright" unicode="&#x2198;" horiz-adv-x="804" 
d="M96 681l532 -533v341h86v-489h-488l-1 87l342 -1l-533 534z" />
    <glyph glyph-name="arrowdownleft" unicode="&#x2199;" horiz-adv-x="795" 
d="M238 86l341 1v-87h-489v489h87l-1 -341l533 533l61 -61z" />
    <glyph glyph-name="minus" unicode="&#x2212;" horiz-adv-x="689" 
d="M111 369h467v-85h-467v85z" />
    <glyph glyph-name="R.ss02" horiz-adv-x="681" 
d="M219 235h-38v-235h-95v680h263q120 0 192 -60t72 -162q0 -100 -69.5 -160.5t-185.5 -62.5l293 -235h-136zM181 323h165q79 0 126 36.5t47 98.5t-47 98t-126 36h-165v-269z" />
    <glyph glyph-name="Racute.ss02" horiz-adv-x="681" 
d="M362 757h-84l78 146h102zM219 235h-38v-235h-95v680h263q120 0 192.5 -60t72.5 -162q0 -100 -70 -160.5t-186 -62.5l293 -235h-136zM181 323h165q79 0 126 36.5t47 98.5t-47 98t-126 36h-165v-269z" />
    <glyph glyph-name="Rcaron.ss02" horiz-adv-x="681" 
d="M279 752l-121 149h88l79 -90l78 90h87l-121 -149h-90zM219 235h-38v-235h-95v680h263q120 0 192.5 -60t72.5 -162q0 -100 -70 -160.5t-186 -62.5l293 -235h-136zM181 323h165q79 0 126 36.5t47 98.5t-47 98t-126 36h-165v-269z" />
    <glyph glyph-name="Rcommaaccent.ss02" horiz-adv-x="681" 
d="M651 0h-136l-296 235h-38v-235h-95v680h263q120 0 192.5 -60t72.5 -162q0 -100 -70 -160.5t-186 -62.5zM181 323h165q79 0 126 36.5t47 98.5t-47 98t-126 36h-165v-269zM331 -58q23 0 39.5 -15.5t16.5 -38.5q0 -15 -7.5 -32.5t-39.5 -74.5q-8 -15 -13 -23h-52l37 83
q-38 12 -38 48q0 22 17 37.5t40 15.5z" />
    <glyph glyph-name="Q.ss03" horiz-adv-x="830" 
d="M415 694q147 0 250.5 -103.5t103.5 -250.5t-103.5 -250.5t-250.5 -103.5t-250.5 103.5t-103.5 250.5t103.5 250.5t250.5 103.5zM414 75q109 0 183.5 77.5t74.5 187.5t-74.5 187.5t-183.5 77.5q-108 0 -182.5 -77.5t-74.5 -187.5t74.5 -187.5t182.5 -77.5zM717 -127
l-12 -91q-162 28 -327 78l9 70z" />
    <glyph glyph-name="i.loclTRK" horiz-adv-x="266" 
d="M133 583q-26 0 -43 16.5t-17 41.5t17 41.5t43 16.5q25 0 42 -16.5t17 -41.5t-17 -41.5t-42 -16.5zM180 467v-467h-92v467h92z" />
    <glyph glyph-name="germandbls.case" horiz-adv-x="1309" 
d="M331 695q106 0 182.5 -51.5t88.5 -156.5h-94q-23 126 -170 126q-70 0 -111.5 -31t-41.5 -83q0 -81 125 -104l94 -19q197 -38 197 -181q0 -94 -71 -151.5t-187 -57.5q-124 0 -201 62t-87 172h95q11 -70 62 -109.5t136 -39.5q71 0 113 30.5t42 81.5q0 80 -114 101l-115 22
q-190 35 -190 186q0 91 68 147t179 56zM977 695q106 0 182.5 -51.5t88.5 -156.5h-95q-22 126 -170 126q-69 0 -111 -31t-42 -83q0 -81 125 -104l95 -19q97 -19 146.5 -62.5t49.5 -118.5q0 -94 -71 -151.5t-187 -57.5q-124 0 -201 62t-87 172h95q11 -71 62 -110t136 -39
q72 0 113.5 30.5t41.5 81.5q0 80 -114 101l-115 22q-190 36 -190 186q0 91 68 147t180 56z" />
    <glyph glyph-name="l.ss01" horiz-adv-x="367" 
d="M172 710v-563q0 -77 69 -77q26 0 76 12l13 -79q-60 -18 -103 -18q-71 0 -109 40t-38 116v569h92z" />
    <glyph glyph-name="lacute.ss01" horiz-adv-x="367" 
d="M263 941l-96 -146h-84l78 146h102zM172 710v-563q0 -77 69 -77q26 0 76 12l13 -79q-60 -18 -102 -18q-72 0 -110 40t-38 116v569h92z" />
    <glyph glyph-name="lcaron.ss01" horiz-adv-x="367" 
d="M172 710v-563q0 -77 69 -77q26 0 76 12l13 -79q-60 -18 -102 -18q-72 0 -110 40t-38 116v569h92zM345 710l-31 -192h-71l8 192h94z" />
    <glyph glyph-name="lcommaaccent.ss01" horiz-adv-x="367" 
d="M172 710v-563q0 -77 69 -77q26 0 76 12l13 -79q-60 -18 -102 -18q-72 0 -110 40t-38 116v569h92zM144 -242l37 83q-38 12 -38 48q0 22 17 37.5t40 15.5t39.5 -15.5t16.5 -38.5q0 -15 -7.5 -32.5t-39.5 -74.5q-8 -15 -13 -23h-52z" />
    <glyph glyph-name="ldot.ss01" horiz-adv-x="392" 
d="M172 710v-563q0 -77 69 -77q26 0 76 12l13 -79q-60 -18 -102 -18q-72 0 -110 40t-38 116v569h92zM300 264q-26 0 -43.5 17t-17.5 42t17.5 42t43.5 17t43.5 -17t17.5 -42t-17.5 -42t-43.5 -17z" />
    <glyph glyph-name="lslash.ss01" horiz-adv-x="367" 
d="M317 82l13 -79q-60 -18 -102 -18q-72 0 -110 40t-38 116v156l-68 -32v95l68 31v319h92v-276l70 32v-94l-70 -33v-192q0 -77 69 -77q26 0 76 12z" />
    <glyph glyph-name="y.ss04" horiz-adv-x="599" 
d="M523 467v-482q0 -103 -63.5 -163.5t-166.5 -60.5q-95 0 -159 51t-75 133h94q8 -45 45.5 -73t94.5 -28q62 0 100 37.5t38 103.5v80q-66 -61 -156 -61q-93 0 -148.5 59.5t-55.5 159.5v244h91v-239q0 -67 34.5 -103.5t96.5 -36.5q78 0 138 77v302h92z" />
    <glyph glyph-name="yacute.ss04" horiz-adv-x="599" 
d="M335 552h-84l78 146h102zM523 467v-482q0 -103 -63.5 -163.5t-166.5 -60.5q-95 0 -159 51t-75 133h94q8 -45 45.5 -73t94.5 -28q62 0 100 37.5t38 103.5v81q-68 -62 -156 -62q-93 0 -149 59.5t-56 159.5v244h92v-239q0 -67 34.5 -103.5t96.5 -36.5q79 0 138 78v301h92z
" />
    <glyph glyph-name="ycircumflex.ss04" horiz-adv-x="599" 
d="M219 544h-88l121 149h90l121 -149h-87l-78 90zM523 467v-482q0 -103 -63.5 -163.5t-166.5 -60.5q-95 0 -159 51t-75 133h94q8 -45 45.5 -73t94.5 -28q62 0 100 37.5t38 103.5v81q-68 -62 -156 -62q-93 0 -149 59.5t-56 159.5v244h92v-239q0 -67 34.5 -103.5t96.5 -36.5
q79 0 138 78v301h92z" />
    <glyph glyph-name="ydieresis.ss04" horiz-adv-x="599" 
d="M200 565q-26 0 -43.5 17t-17.5 42t17.5 42t43.5 17t43.5 -17t17.5 -42t-17.5 -42t-43.5 -17zM397 565q-26 0 -43.5 17t-17.5 42t17.5 42t43.5 17t43.5 -17t17.5 -42t-17.5 -42t-43.5 -17zM523 467v-482q0 -103 -63.5 -163.5t-166.5 -60.5q-95 0 -159 51t-75 133h94
q8 -45 45.5 -73t94.5 -28q62 0 100 37.5t38 103.5v81q-68 -62 -156 -62q-93 0 -149 59.5t-56 159.5v244h92v-239q0 -67 34.5 -103.5t96.5 -36.5q79 0 138 78v301h92z" />
    <glyph glyph-name="ygrave.ss04" horiz-adv-x="599" 
d="M267 553l-96 146h102l78 -146h-84zM523 467v-482q0 -103 -63.5 -163.5t-166.5 -60.5q-95 0 -159 51t-75 133h94q8 -45 45.5 -73t94.5 -28q62 0 100 37.5t38 103.5v81q-68 -62 -156 -62q-93 0 -149 59.5t-56 159.5v244h92v-239q0 -67 34.5 -103.5t96.5 -36.5q79 0 138 78
v301h92z" />
    <glyph glyph-name="a.ss06" horiz-adv-x="542" 
d="M274 479q98 0 152.5 -55t54.5 -153v-271h-90v35q-74 -46 -159 -46q-88 0 -138 39.5t-50 109.5q0 63 46.5 98.5t128.5 34.5h172q0 129 -117 129q-45 0 -76.5 -20t-37.5 -55h-93q7 75 66.5 114.5t140.5 39.5zM243 66q79 0 148 51v84h-174q-42 0 -63 -17.5t-21 -44.5
q0 -33 28 -53t82 -20z" />
    <glyph glyph-name="aacute.ss06" horiz-adv-x="542" 
d="M316 552h-84l78 146h102zM482 271v-271h-91v35q-74 -46 -159 -46q-88 0 -138 39.5t-50 109.5q0 63 46.5 98.5t128.5 34.5h171q0 129 -116 129q-45 0 -76.5 -20t-37.5 -55h-93q7 75 66.5 114.5t140.5 39.5q98 0 152.5 -55t55.5 -153zM243 66q79 0 148 51v84h-174
q-42 0 -63.5 -17.5t-21.5 -44.5q0 -33 28.5 -53t82.5 -20z" />
    <glyph glyph-name="abreve.ss06" horiz-adv-x="542" 
d="M278 539q-65 0 -107 38.5t-42 108.5h69q0 -43 23 -63.5t57 -20.5t57 20.5t23 63.5h69q0 -70 -42 -108.5t-107 -38.5zM482 271v-271h-91v35q-74 -46 -159 -46q-88 0 -138 39.5t-50 109.5q0 63 46.5 98.5t128.5 34.5h171q0 129 -116 129q-45 0 -76.5 -20t-37.5 -55h-93
q7 75 66.5 114.5t140.5 39.5q98 0 152.5 -55t55.5 -153zM243 66q79 0 148 51v84h-174q-42 0 -63.5 -17.5t-21.5 -44.5q0 -33 28.5 -53t82.5 -20z" />
    <glyph glyph-name="acaron.ss06" horiz-adv-x="542" 
d="M232 544l-121 149h88l79 -90l78 90h87l-121 -149h-90zM482 271v-271h-91v35q-74 -46 -159 -46q-88 0 -138 39.5t-50 109.5q0 63 46.5 98.5t128.5 34.5h171q0 129 -116 129q-45 0 -76.5 -20t-37.5 -55h-93q7 75 66.5 114.5t140.5 39.5q98 0 152.5 -55t55.5 -153zM243 66
q79 0 148 51v84h-174q-42 0 -63.5 -17.5t-21.5 -44.5q0 -33 28.5 -53t82.5 -20z" />
    <glyph glyph-name="acircumflex.ss06" horiz-adv-x="542" 
d="M199 544h-88l121 149h90l121 -149h-87l-78 90zM482 271v-271h-91v35q-74 -46 -159 -46q-88 0 -138 39.5t-50 109.5q0 63 46.5 98.5t128.5 34.5h171q0 129 -116 129q-45 0 -76.5 -20t-37.5 -55h-93q7 75 66.5 114.5t140.5 39.5q98 0 152.5 -55t55.5 -153zM243 66
q79 0 148 51v84h-174q-42 0 -63.5 -17.5t-21.5 -44.5q0 -33 28.5 -53t82.5 -20z" />
    <glyph glyph-name="adieresis.ss06" horiz-adv-x="542" 
d="M180 565q-26 0 -43.5 17t-17.5 42t17.5 42t43.5 17t43.5 -17t17.5 -42t-17.5 -42t-43.5 -17zM377 565q-26 0 -43.5 17t-17.5 42t17.5 42t43.5 17t43.5 -17t17.5 -42t-17.5 -42t-43.5 -17zM482 271v-271h-91v35q-74 -46 -159 -46q-88 0 -138 39.5t-50 109.5
q0 63 46.5 98.5t128.5 34.5h171q0 129 -116 129q-45 0 -76.5 -20t-37.5 -55h-93q7 75 66.5 114.5t140.5 39.5q98 0 152.5 -55t55.5 -153zM243 66q79 0 148 51v84h-174q-42 0 -63.5 -17.5t-21.5 -44.5q0 -33 28.5 -53t82.5 -20z" />
    <glyph glyph-name="agrave.ss06" horiz-adv-x="542" 
d="M247 553l-96 146h102l78 -146h-84zM482 271v-271h-91v35q-74 -46 -159 -46q-88 0 -138 39.5t-50 109.5q0 63 46.5 98.5t128.5 34.5h171q0 129 -116 129q-45 0 -76.5 -20t-37.5 -55h-93q7 75 66.5 114.5t140.5 39.5q98 0 152.5 -55t55.5 -153zM243 66q79 0 148 51v84h-174
q-42 0 -63.5 -17.5t-21.5 -44.5q0 -33 28.5 -53t82.5 -20z" />
    <glyph glyph-name="amacron.ss06" horiz-adv-x="542" 
d="M417 573h-279v75h279v-75zM482 271v-271h-91v35q-74 -46 -159 -46q-88 0 -138 39.5t-50 109.5q0 63 46.5 98.5t128.5 34.5h171q0 129 -116 129q-45 0 -76.5 -20t-37.5 -55h-93q7 75 66.5 114.5t140.5 39.5q98 0 152.5 -55t55.5 -153zM243 66q79 0 148 51v84h-174
q-42 0 -63.5 -17.5t-21.5 -44.5q0 -33 28.5 -53t82.5 -20z" />
    <glyph glyph-name="aogonek.ss06" horiz-adv-x="542" 
d="M511 -105l9 -69q-20 -9 -58 -9q-61 0 -98.5 30t-37.5 79q0 58 65 92v17q-74 -46 -159 -46q-88 0 -138 39.5t-50 109.5q0 63 46.5 98.5t128.5 34.5h171q0 129 -116 129q-45 0 -76.5 -20t-37.5 -55h-93q7 75 66.5 114.5t140.5 39.5q98 0 152.5 -55t54.5 -153h1v-271h-1
q-77 -19 -77 -64t70 -45q18 0 37 4zM243 66q79 0 148 51v84h-174q-42 0 -63.5 -17.5t-21.5 -44.5q0 -33 28.5 -53t82.5 -20z" />
    <glyph glyph-name="aring.ss06" horiz-adv-x="542" 
d="M278 543q-46 0 -76 28.5t-30 72.5t29.5 72t76.5 28t76.5 -28t29.5 -72t-29.5 -72.5t-76.5 -28.5zM278 695q-22 0 -37 -14.5t-15 -36.5t15 -37t37 -15t37 15t15 37t-15 36.5t-37 14.5zM482 271v-271h-91v35q-74 -46 -159 -46q-88 0 -138 39.5t-50 109.5q0 63 46.5 98.5
t128.5 34.5h171q0 129 -116 129q-45 0 -76.5 -20t-37.5 -55h-93q7 75 66.5 114.5t140.5 39.5q98 0 152.5 -55t55.5 -153zM243 66q79 0 148 51v84h-174q-42 0 -63.5 -17.5t-21.5 -44.5q0 -33 28.5 -53t82.5 -20z" />
    <glyph glyph-name="atilde.ss06" horiz-adv-x="542" 
d="M296 583l-45 28q-26 16 -43 6.5t-17 -34.5h-75q0 39 16 66t40 37t51 8.5t49 -15.5l44 -28q28 -17 44.5 -7t16.5 35h74q0 -39 -15.5 -66t-39 -37.5t-50.5 -8.5t-50 16zM482 271v-271h-91v35q-74 -46 -159 -46q-88 0 -138 39.5t-50 109.5q0 63 46.5 98.5t128.5 34.5h171
q0 129 -116 129q-45 0 -76.5 -20t-37.5 -55h-93q7 75 66.5 114.5t140.5 39.5q98 0 152.5 -55t55.5 -153zM243 66q79 0 148 51v84h-174q-42 0 -63.5 -17.5t-21.5 -44.5q0 -33 28.5 -53t82.5 -20z" />
    <glyph glyph-name="zero.osf" horiz-adv-x="660" 
d="M331 552q122 0 199.5 -77.5t77.5 -204.5q0 -126 -77.5 -204t-199.5 -78t-200 78t-78 204q0 127 78 204.5t200 77.5zM331 72q79 0 132 55t53 143t-53 143t-132 55q-81 0 -134 -54.5t-53 -143.5t53 -143.5t134 -54.5z" />
    <glyph glyph-name="one.osf" horiz-adv-x="511" 
d="M500 79v-79h-455v79h187v367l-176 -58v82l217 80h54v-471h173z" />
    <glyph glyph-name="two.osf" horiz-adv-x="556" 
d="M506 79v-79h-448v50l150 108q9 6 39.5 28t41 30t34 26.5t33 29.5t22.5 27t17.5 30.5t4.5 29.5q0 49 -32.5 79.5t-93.5 30.5q-60 0 -97.5 -33.5t-42.5 -91.5h-92q4 94 65 151t163 57q104 0 164.5 -55t60.5 -141q0 -30 -11.5 -57.5t-26 -47t-46.5 -46t-53 -41t-66 -44.5
q-8 -5 -12 -8l-49 -33h275z" />
    <glyph glyph-name="three.osf" horiz-adv-x="562" 
d="M415 204q105 -47 105 -159q0 -87 -64.5 -143t-168.5 -56q-107 0 -169 50.5t-74 137.5h92q23 -106 151 -106q64 0 104 32.5t40 84.5q0 53 -40.5 85t-107.5 32h-54v77h54q57 0 91.5 32t34.5 83q0 53 -34.5 85t-92.5 32q-52 0 -87.5 -29t-41.5 -76h-93q8 84 68 135t153 51
q98 0 157.5 -54.5t59.5 -142.5q0 -102 -83 -151z" />
    <glyph glyph-name="four.osf" horiz-adv-x="641" 
d="M597 0h-102v-144h-91v144h-360v59l202 477h97l-187 -454h248v211h91v-211h102v-82z" />
    <glyph glyph-name="five.osf" horiz-adv-x="588" 
d="M181 289h119q105 0 169.5 -59t64.5 -153q0 -99 -67.5 -164t-174.5 -65t-172.5 53t-81.5 145h93q29 -116 161 -116q67 0 110 41.5t43 102.5q0 59 -42.5 96t-113.5 37l-196 -1l1 337h408v-85h-321v-169z" />
    <glyph glyph-name="six.osf" horiz-adv-x="616" 
d="M308 459q112 0 184 -66.5t72 -167.5q0 -104 -72.5 -172t-183.5 -68q-112 0 -184 68t-72 169q0 73 58 163l202 295h111l-150 -223q22 2 35 2zM308 62q71 0 117 45.5t46 112.5q0 66 -46 110.5t-117 44.5q-72 0 -117 -40l-3 -4q-44 -59 -44 -113q0 -66 46.5 -111t117.5 -45z
" />
    <glyph glyph-name="seven.osf" horiz-adv-x="503" 
d="M482 540v-58l-300 -622h-106l287 591h-349v89h468z" />
    <glyph glyph-name="eight.osf" horiz-adv-x="624" 
d="M449 359q59 -23 91 -67.5t32 -102.5q0 -91 -71 -147.5t-190 -56.5q-117 0 -188 56.5t-71 147.5q0 59 32.5 102.5t90.5 67.5q-94 47 -94 148q0 82 65 135t166 53t166 -53t65 -135q0 -102 -94 -148zM312 620q-60 0 -99 -34t-39 -84q0 -52 38.5 -84.5t99.5 -32.5t100 32.5
t39 84.5q0 49 -39.5 83.5t-99.5 34.5zM312 64q68 0 112 37.5t44 93.5q0 54 -43.5 89.5t-112.5 35.5t-112.5 -35.5t-43.5 -89.5q0 -57 43.5 -94t112.5 -37z" />
    <glyph glyph-name="nine.osf" horiz-adv-x="616" 
d="M308 552q112 0 184 -68t72 -169q0 -73 -58 -162l-201 -296h-112l151 224q-24 -2 -37 -2q-111 0 -183 66t-72 167q0 104 72.5 172t183.5 68zM425 202l3 4q43 57 43 113q0 66 -46 111t-117 45t-117 -45.5t-46 -112.5q0 -66 46 -110.5t117 -44.5t117 40z" />
    <glyph glyph-name="zero.tf" horiz-adv-x="619" 
d="M307 695q134 0 209.5 -98t75.5 -257t-75.5 -257t-209.5 -98q-133 0 -208.5 98t-75.5 257t75.5 257t208.5 98zM307 71q91 0 139.5 74t48.5 195t-48.5 195t-139.5 74t-139.5 -74t-48.5 -195t48.5 -195t139.5 -74z" />
    <glyph glyph-name="one.tf" horiz-adv-x="619" 
d="M567 79v-79h-495v79h211v497l-176 -58v82l217 80h54v-601h189z" />
    <glyph glyph-name="two.tf" horiz-adv-x="619" 
d="M540 79v-79h-452v50l215 240q83 91 102 119q29 45 29 84q0 50 -35 85t-97 35q-58 0 -95.5 -34t-44.5 -92h-94q4 94 66 151t164 57q106 0 168.5 -58.5t62.5 -144.5q0 -55 -32 -104t-114 -138l-154 -171h311z" />
    <glyph glyph-name="three.tf" horiz-adv-x="619" 
d="M447 344q105 -47 105 -159q0 -87 -64.5 -143t-168.5 -56q-107 0 -169 50.5t-74 137.5h92q23 -106 151 -106q64 0 104 32.5t40 84.5q0 53 -40.5 85t-107.5 32h-54v77h54q57 0 91.5 32t34.5 83q0 53 -34.5 85t-92.5 32q-52 0 -87.5 -29t-41.5 -76h-93q8 84 68 135t153 51
q98 0 157.5 -54.5t59.5 -142.5q0 -102 -83 -151z" />
    <glyph glyph-name="four.tf" horiz-adv-x="619" 
d="M579 144h-102v-144h-91v144h-360v59l202 477h97l-187 -454h248v211h91v-211h102v-82z" />
    <glyph glyph-name="five.tf" horiz-adv-x="619" 
d="M183 426h119q105 0 169.5 -59t64.5 -153q0 -99 -67.5 -164t-174.5 -65t-172.5 53t-81.5 145h93q29 -116 161 -116q67 0 110 41.5t43 102.5q0 59 -42.5 96t-113.5 37l-196 -1l1 337h408v-85h-321v-169z" />
    <glyph glyph-name="six.tf" horiz-adv-x="619" 
d="M317 459q111 0 183 -66.5t72 -167.5q0 -104 -72.5 -172t-183.5 -68q-112 0 -184 68t-72 169q0 73 58 163l201 295h112l-150 -223q22 2 36 2zM316 62q71 0 117 45.5t46 112.5q0 66 -46 110.5t-117 44.5q-72 0 -117 -40l-3 -4q-43 -57 -43 -113q0 -66 46 -111t117 -45z" />
    <glyph glyph-name="seven.tf" horiz-adv-x="619" 
d="M550 680v-58l-300 -622h-106l286 591h-349v89h469z" />
    <glyph glyph-name="eight.tf" horiz-adv-x="619" 
d="M452 359q59 -23 91 -67.5t32 -102.5q0 -91 -71 -147.5t-190 -56.5q-118 0 -188.5 56.5t-70.5 147.5q0 58 32 102.5t91 67.5q-95 47 -95 148q0 82 65.5 135t165.5 53q102 0 167 -53t65 -135q0 -102 -94 -148zM314 620q-60 0 -99 -34t-39 -84q0 -52 38.5 -84.5t99.5 -32.5
t100 32.5t39 84.5q0 49 -39.5 83.5t-99.5 34.5zM314 64q69 0 113 37.5t44 93.5q0 54 -44 89.5t-113 35.5t-112 -35.5t-43 -89.5q0 -57 43.5 -94t111.5 -37z" />
    <glyph glyph-name="nine.tf" horiz-adv-x="593" 
d="M294 695q112 0 184 -68t72 -169q0 -73 -58 -162l-201 -296h-112l151 224q-24 -2 -37 -2q-111 0 -183 66t-72 167q0 104 72.5 172t183.5 68zM411 345l3 4q43 57 43 113q0 66 -46 111t-117 45t-117 -45.5t-46 -112.5q0 -66 46 -110.5t117 -44.5t117 40z" />
    <glyph glyph-name="zero.zero" horiz-adv-x="718" 
d="M359 695q139 0 218.5 -98t79.5 -257t-79.5 -257t-218.5 -98q-138 0 -218 98.5t-80 256.5t80 256.5t218 98.5zM359 609q-96 0 -149 -74.5t-53 -194.5q0 -97 35 -165l272 403q-45 31 -105 31zM359 71q96 0 149 74.5t53 194.5q0 102 -37 169l-273 -405q46 -33 108 -33z" />
    <glyph glyph-name="zero.osf.zero" horiz-adv-x="660" 
d="M334 552q122 0 199.5 -77.5t77.5 -204.5q0 -126 -77.5 -204t-199.5 -78q-121 0 -199.5 78t-78.5 204q0 127 78 204.5t200 77.5zM334 468q-80 0 -133 -54.5t-53 -143.5q0 -60 27 -108l265 274q-46 32 -106 32zM334 72q80 0 133 54.5t53 143.5q0 65 -29 111l-266 -275
q46 -34 109 -34z" />
    <glyph glyph-name="zero.dnom" horiz-adv-x="441" 
d="M221 400q85 0 134 -57.5t49 -147.5q0 -89 -49 -146.5t-134 -57.5t-134.5 57.5t-49.5 146.5t49.5 147t134.5 58zM221 56q53 0 82 39.5t29 99.5q0 61 -29 100.5t-82 39.5t-82.5 -39.5t-29.5 -100.5q0 -60 29.5 -99.5t82.5 -39.5z" />
    <glyph glyph-name="one.dnom" horiz-adv-x="321" 
d="M311 59v-59h-281v59h110v255l-105 -30v61l134 42h38v-328h104z" />
    <glyph glyph-name="two.dnom" horiz-adv-x="363" 
d="M326 59v-59h-281v37l139 144q37 37 51 57t14 42q0 26 -18 41.5t-48 15.5q-32 0 -50.5 -17t-20.5 -46h-70q2 58 38.5 92t100.5 34q65 0 101.5 -33.5t36.5 -82.5q0 -31 -17 -61.5t-59 -73.5l-86 -90h169z" />
    <glyph glyph-name="three.dnom" horiz-adv-x="375" 
d="M276 197q57 -27 57 -88q0 -51 -40 -84.5t-104 -33.5q-63 0 -102.5 31t-47.5 84h70q14 -53 81 -53q33 0 54.5 16t21.5 40q0 57 -81 57h-33v57h33q30 0 48.5 16t18.5 41t-17.5 40.5t-49.5 15.5q-28 0 -45.5 -14.5t-19.5 -37.5h-70q5 53 41 83.5t94 30.5q61 0 97.5 -32.5
t36.5 -84.5q0 -55 -43 -84z" />
    <glyph glyph-name="four.dnom" horiz-adv-x="407" 
d="M370 79h-57v-79h-69v79h-214v44l119 268h73l-107 -251h129v115h69v-115h57v-61z" />
    <glyph glyph-name="five.dnom" horiz-adv-x="384" 
d="M132 250h61q68 0 105.5 -34.5t37.5 -91.5t-41 -95t-107 -38q-64 0 -104 31t-49 85h70q16 -54 83 -54q36 0 58.5 20t22.5 50t-20 48t-57 18h-125v202h251v-64h-186v-77z" />
    <glyph glyph-name="six.dnom" horiz-adv-x="379" 
d="M183 267h7q68 0 110.5 -38.5t42.5 -97.5q0 -60 -43 -100t-111 -40q-67 0 -111 40t-44 98q0 42 37 98l112 164h83zM189 49q37 0 61 22t24 56t-24 56t-61 22q-38 0 -62 -21l-2 -3q-22 -26 -22 -53q0 -34 24.5 -56.5t61.5 -22.5z" />
    <glyph glyph-name="seven.dnom" horiz-adv-x="324" 
d="M306 391v-43l-173 -348h-79l161 324h-195v67h286z" />
    <glyph glyph-name="eight.dnom" horiz-adv-x="401" 
d="M292 206q65 -29 65 -96q0 -53 -42.5 -86t-114.5 -33q-71 0 -113.5 33t-42.5 86q0 66 66 96q-50 28 -50 83q0 49 39.5 80t100.5 31q62 0 101.5 -31t39.5 -80q0 -55 -49 -83zM200 344q-30 0 -50 -17t-20 -42q0 -27 19.5 -43.5t50.5 -16.5t51 16.5t20 43.5q0 26 -20 42.5
t-51 16.5zM200 51q36 0 57.5 17.5t21.5 45.5t-21.5 45t-57.5 17q-35 0 -56.5 -17t-21.5 -45t21.5 -45.5t56.5 -17.5z" />
    <glyph glyph-name="nine.dnom" horiz-adv-x="379" 
d="M190 401q67 0 111 -40t44 -98q0 -43 -37 -97l-112 -165h-83l83 124h-7q-68 0 -110.5 38.5t-42.5 97.5q0 60 43 100t111 40zM252 208l2 3q22 26 22 53q0 34 -24.5 56.5t-61.5 22.5q-36 0 -60.5 -22t-24.5 -56t24.5 -56t60.5 -22q38 0 62 21z" />
    <glyph glyph-name="zero.numr" horiz-adv-x="441" 
d="M221 690q85 0 134 -57.5t49 -147.5q0 -89 -49 -146.5t-134 -57.5t-134.5 57.5t-49.5 146.5t49.5 147t134.5 58zM221 346q53 0 82 39.5t29 99.5q0 61 -29 100.5t-82 39.5t-82.5 -39.5t-29.5 -100.5q0 -60 29.5 -99.5t82.5 -39.5z" />
    <glyph glyph-name="one.numr" horiz-adv-x="321" 
d="M311 349v-59h-281v59h110v255l-105 -30v61l134 42h38v-328h104z" />
    <glyph glyph-name="two.numr" horiz-adv-x="363" 
d="M326 349v-59h-281v37l139 144q37 37 51 57t14 42q0 26 -18 41.5t-48 15.5q-32 0 -50.5 -17t-20.5 -46h-70q2 58 38.5 92t100.5 34q65 0 101.5 -33.5t36.5 -82.5q0 -31 -17 -61.5t-59 -73.5l-86 -90h169z" />
    <glyph glyph-name="three.numr" horiz-adv-x="375" 
d="M276 491q57 -27 57 -88q0 -51 -40 -84.5t-104 -33.5q-63 0 -102.5 31t-47.5 84h70q14 -53 81 -53q33 0 54.5 16t21.5 40q0 57 -81 57h-33v57h33q30 0 48.5 16t18.5 41t-17.5 40.5t-49.5 15.5q-28 0 -45.5 -14.5t-19.5 -37.5h-70q5 53 41 83.5t94 30.5q61 0 97.5 -32.5
t36.5 -84.5q0 -55 -43 -84z" />
    <glyph glyph-name="four.numr" horiz-adv-x="407" 
d="M370 369h-57v-79h-69v79h-214v44l119 268h73l-107 -251h129v115h69v-115h57v-61z" />
    <glyph glyph-name="five.numr" horiz-adv-x="384" 
d="M132 540h61q68 0 105.5 -34.5t37.5 -91.5t-41 -95t-107 -38q-64 0 -104 31t-49 85h70q16 -54 83 -54q36 0 58.5 20t22.5 50t-20 48t-57 18h-125v202h251v-64h-186v-77z" />
    <glyph glyph-name="six.numr" horiz-adv-x="379" 
d="M183 557h7q68 0 110.5 -38.5t42.5 -97.5q0 -60 -43 -100t-111 -40q-67 0 -111 40t-44 98q0 42 37 98l112 164h83zM189 339q37 0 61 22t24 56t-24 56t-61 22q-38 0 -62 -21l-2 -3q-22 -26 -22 -53q0 -34 24.5 -56.5t61.5 -22.5z" />
    <glyph glyph-name="seven.numr" horiz-adv-x="324" 
d="M306 681v-43l-173 -348h-79l161 324h-195v67h286z" />
    <glyph glyph-name="eight.numr" horiz-adv-x="401" 
d="M292 500q65 -29 65 -96q0 -53 -42.5 -86t-114.5 -33q-71 0 -113.5 33t-42.5 86q0 66 66 96q-50 28 -50 83q0 49 39.5 80t100.5 31q62 0 101.5 -31t39.5 -80q0 -55 -49 -83zM200 638q-30 0 -50 -17t-20 -42q0 -27 19.5 -43.5t50.5 -16.5t51 16.5t20 43.5q0 26 -20 42.5
t-51 16.5zM200 345q36 0 57.5 17.5t21.5 45.5t-21.5 45t-57.5 17q-35 0 -56.5 -17t-21.5 -45t21.5 -45.5t56.5 -17.5z" />
    <glyph glyph-name="nine.numr" horiz-adv-x="379" 
d="M190 695q67 0 111 -40t44 -98q0 -43 -37 -97l-112 -165h-83l83 124h-7q-68 0 -110.5 38.5t-42.5 97.5q0 60 43 100t111 40zM252 502l2 3q22 26 22 53q0 34 -24.5 56.5t-61.5 22.5q-36 0 -60.5 -22t-24.5 -56t24.5 -56t60.5 -22q38 0 62 21z" />
    <glyph glyph-name="backslash.case" horiz-adv-x="372" 
d="M24 730h96l227 -777h-95z" />
    <glyph glyph-name="bullet.case" horiz-adv-x="324" 
d="M162 210q-49 0 -86 36.5t-37 85.5t36.5 85.5t86.5 36.5t86.5 -36.5t36.5 -85.5t-37 -85.5t-86 -36.5z" />
    <glyph glyph-name="exclamdown.case" horiz-adv-x="271" 
d="M135 689q25 0 42.5 -16.5t17.5 -41.5q0 -24 -17.5 -40.5t-42.5 -16.5q-24 0 -41.5 16.5t-17.5 40.5t17.5 41t41.5 17zM87 0l7 483h82l8 -483h-97z" />
    <glyph glyph-name="periodcentered.case" horiz-adv-x="193" 
d="M96 275q-24 0 -41.5 16.5t-17.5 40.5t17.5 40.5t41.5 16.5q25 0 42.5 -16.5t17.5 -40.5t-17.5 -40.5t-42.5 -16.5z" />
    <glyph glyph-name="questiondown.case" horiz-adv-x="551" 
d="M309 689q25 0 42 -16.5t17 -41.5q0 -24 -17 -40.5t-42 -16.5q-24 0 -41.5 16.5t-17.5 40.5t17.5 41t41.5 17zM344 482l7 -150h-54q-62 0 -102 -37t-40 -95q0 -57 37.5 -94t96.5 -37q49 0 85.5 28.5t43.5 74.5h93q-10 -84 -68.5 -134t-149.5 -50q-99 0 -163.5 59.5
t-64.5 152.5q0 83 55 136.5t148 60.5l3 85h73z" />
    <glyph glyph-name="slash.case" horiz-adv-x="372" 
d="M44 -47l227 777h96l-228 -777h-95z" />
    <glyph glyph-name="braceleft.case" horiz-adv-x="355" 
d="M221 566v-96q0 -55 -15.5 -83.5t-58.5 -42.5q43 -14 58.5 -42.5t15.5 -83.5v-95q0 -41 25.5 -66t67.5 -25v-89q-83 0 -134 49.5t-51 130.5v92q0 53 -20.5 70.5t-73.5 17.5v82q53 0 73.5 17.5t20.5 70.5v93q0 80 51 129.5t134 49.5v-89q-42 0 -67.5 -25t-25.5 -65z" />
    <glyph glyph-name="braceright.case" horiz-adv-x="364" 
d="M144 470v96q0 40 -26 65t-68 25v89q83 0 134.5 -49.5t51.5 -129.5v-93q0 -53 20.5 -70.5t72.5 -17.5v-82q-52 0 -72.5 -17.5t-20.5 -70.5v-92q0 -81 -51.5 -130.5t-134.5 -49.5v89q43 0 68.5 25t25.5 66v95q0 55 15 83.5t58 42.5q-43 14 -58 42.5t-15 83.5z" />
    <glyph glyph-name="bracketleft.case" horiz-adv-x="360" 
d="M178 41h141v-88h-233v777h233v-88h-141v-601z" />
    <glyph glyph-name="bracketright.case" horiz-adv-x="351" 
d="M32 642v88h233v-777h-233v88h141v601h-141z" />
    <glyph glyph-name="parenleft.case" horiz-adv-x="344" 
d="M157 342q0 -106 35 -175.5t121 -151.5l-59 -60q-101 87 -147 176.5t-46 210.5q0 122 46.5 213.5t146.5 177.5l59 -60q-85 -82 -120.5 -152.5t-35.5 -178.5z" />
    <glyph glyph-name="parenright.case" horiz-adv-x="344" 
d="M31 673l59 60q100 -86 146.5 -177.5t46.5 -213.5q0 -121 -46 -210.5t-147 -176.5l-59 60q86 82 121 151.5t35 175.5q0 108 -35.5 178.5t-120.5 152.5z" />
    <glyph glyph-name="emdash.case" horiz-adv-x="987" 
d="M894 289v91h-801v-91h801z" />
    <glyph glyph-name="endash.case" horiz-adv-x="718" 
d="M608 288v92h-497v-92h497z" />
    <glyph glyph-name="hyphen.case" horiz-adv-x="558" 
d="M447 288v91h-336v-91h336z" />
    <glyph glyph-name="guillemotleft.case" horiz-adv-x="440" 
d="M230 486l-103 -150l103 -151h-90l-102 151l102 150h90zM402 486l-102 -150l102 -151h-90l-102 151l102 150h90z" />
    <glyph glyph-name="guillemotright.case" horiz-adv-x="440" 
d="M230 336l-103 -151h-89l102 151l-102 150h89zM402 336l-102 -151h-90l102 151l-102 150h90z" />
    <glyph glyph-name="guilsinglleft.case" horiz-adv-x="268" 
d="M230 486l-103 -150l103 -151h-90l-102 151l102 150h90z" />
    <glyph glyph-name="guilsinglright.case" horiz-adv-x="268" 
d="M230 336l-103 -151h-89l102 151l-102 150h89z" />
    <glyph glyph-name="florin.tf" horiz-adv-x="619" 
d="M483 600q-89 0 -104 -103l-17 -126h170v-78h-180l-26 -201q-12 -88 -57.5 -138.5t-123.5 -50.5q-49 0 -103 15l14 80q40 -10 72 -10q90 0 103 104l26 201h-129v78h139l18 126q12 87 57.5 137.5t123.5 50.5q50 0 102 -15l-13 -79q-45 9 -72 9z" />
    <glyph glyph-name="cent.tf" horiz-adv-x="619" 
d="M309 72q50 0 85 25.5t45 67.5h95q-12 -69 -61.5 -116t-121.5 -58v-110h-83v110q-90 14 -147.5 81.5t-57.5 160.5t57.5 161t147.5 82v123h83v-123q72 -11 121.5 -58.5t61.5 -116.5h-95q-10 43 -45 68.5t-85 25.5q-68 0 -111 -46.5t-43 -115.5q0 -68 43 -114.5t111 -46.5z
" />
    <glyph glyph-name="dollar.tf" horiz-adv-x="619" 
d="M289 395l94 -19q197 -38 197 -181q0 -85 -58 -140.5t-157 -66.5v-114h-83v114q-107 10 -172.5 70.5t-75.5 161.5h95q11 -70 62 -109.5t136 -39.5q71 0 113 30.5t42 81.5q0 80 -114 101l-115 22q-190 35 -190 186q0 85 60 139.5t159 62.5v116h83v-119q88 -12 146.5 -62.5
t69.5 -141.5h-94q-23 126 -170 126q-70 0 -111.5 -31t-41.5 -83q0 -81 125 -104z" />
    <glyph glyph-name="Euro.tf" horiz-adv-x="619" 
d="M356 71q84 0 122 54h113q-30 -66 -91 -103t-144 -37q-111 0 -185 63.5t-101 173.5h-58v67h47q-2 34 -2 51q0 22 1 32h-46v67h54q23 118 98.5 187t191.5 69q89 0 153 -42.5t92 -116.5h-108q-38 73 -137 73q-75 0 -123.5 -45.5t-67.5 -124.5h290l-18 -67h-282
q-1 -10 -1 -32q0 -27 3 -51h260l-16 -67h-231q21 -70 68.5 -110.5t117.5 -40.5z" />
    <glyph glyph-name="sterling.tf" horiz-adv-x="619" 
d="M198 80h376v-80h-537v80h69v200h-69v80h69v101q0 105 66 169.5t174 64.5q99 0 162.5 -54.5t74.5 -146.5h-93q-9 55 -47.5 87t-96.5 32q-67 0 -107.5 -41.5t-40.5 -110.5v-101h222v-80h-222v-200z" />
    <glyph glyph-name="yen.tf" horiz-adv-x="619" 
d="M379 277h159v-68h-181v-59h181v-69h-181v-81h-97v81h-181v69h181v59h-181v68h159l-212 403h106l176 -342l176 342h106z" />
    <glyph glyph-name="arrowdown.ss05" horiz-adv-x="693" 
d="M600 403l-253 -253l-56 56l-197 198l56 57l197 -199l196 198z" />
    <glyph glyph-name="arrowleft.ss05" horiz-adv-x="693" 
d="M543 153l-196 198l-197 -199l-56 57l197 198l56 56l253 -253z" />
    <glyph glyph-name="arrowright.ss05" horiz-adv-x="570" 
d="M228 340l196 -196l-56 -57l-254 253l57 57l198 196l57 -56z" />
    <glyph glyph-name="arrowup.ss05" horiz-adv-x="563" 
d="M449 340l-253 -253l-57 57l196 196l-197 197l56 56l198 -196z" />
    <glyph glyph-name="at.case" horiz-adv-x="994" 
d="M690 494v-222q0 -100 69 -100q47 0 71.5 38.5t24.5 104.5q0 146 -102.5 244.5t-251.5 98.5t-254.5 -101.5t-105.5 -247.5q0 -148 105 -248.5t251 -100.5q127 0 227 78l38 -57q-113 -87 -264 -87q-178 0 -302.5 119t-124.5 296q0 176 125 295.5t305 119.5t301 -116
t121 -291q0 -96 -40.5 -155t-123.5 -59q-95 0 -130 67q-56 -69 -150 -69q-84 0 -141.5 58t-57.5 144q0 87 57.5 145t141.5 58q76 0 129 -47v35h82zM492 175q76 0 118 68q-2 30 -2 47v78q-43 65 -116 65q-52 0 -90 -35.5t-38 -93.5t38 -93.5t90 -35.5z" />
    <glyph glyph-name="bar.case" horiz-adv-x="315" 
d="M201 730v-777h-87v777h87z" />
    <glyph glyph-name="brokenbar.case" horiz-adv-x="315" 
d="M201 392h-87v338h87v-338zM201 -47h-87v337h87v-337z" />
    <glyph glyph-name="registered.ss07" horiz-adv-x="850" 
d="M425 695q150 0 257 -102t107 -253t-107 -253t-257 -102t-257 102t-107 253t107 253t257 102zM424 47q122 0 210.5 85t88.5 208t-88.5 208t-210.5 85t-210 -85t-88 -208t88 -208t210 -85zM574 402q0 -81 -83 -107l94 -119h-72l-86 112h-67v-112h-57v342h134q62 0 99.5 -32
t37.5 -84zM360 339h77q36 0 57 17t21 46q0 28 -21 45t-57 17h-77v-125z" />
    <glyph glyph-name="caron.alt" 
d="M349 680l-31 -192h-71l8 192h94z" />
    <glyph glyph-name="acute.case" 
d="M426 877l-96 -146h-84l78 146h102z" />
    <glyph glyph-name="breve.case" 
d="M380 882h69q0 -71 -42 -109t-107 -38t-107 38t-42 109h69q0 -43 23 -63.5t57 -20.5t57 20.5t23 63.5z" />
    <glyph glyph-name="caron.case" 
d="M466 874l-121 -148h-90l-121 148h88l79 -90l78 90h87z" />
    <glyph glyph-name="circumflex.case" 
d="M301 816l-79 -90h-88l121 148h90l121 -148h-87z" />
    <glyph glyph-name="dieresis.case" 
d="M202 867q26 0 43.5 -17t17.5 -42t-17.5 -42t-43.5 -17t-43.5 17t-17.5 42t17.5 42t43.5 17zM399 867q26 0 43.5 -17t17.5 -42t-17.5 -42t-43.5 -17t-43.5 17t-17.5 42t17.5 42t43.5 17z" />
    <glyph glyph-name="dotaccent.case" 
d="M300 749q-26 0 -43.5 17t-17.5 42t17.5 42t43.5 17t43.5 -17t17.5 -42t-17.5 -42t-43.5 -17z" />
    <glyph glyph-name="grave.case" 
d="M379 731h-84l-96 146h102z" />
    <glyph glyph-name="hungarumlaut.case" 
d="M347 877l-83 -146h-78l65 146h96zM487 877l-82 -146h-78l65 146h95z" />
    <glyph glyph-name="macron.case" 
d="M439 826v-76h-279v76h279z" />
    <glyph glyph-name="ring.case" 
d="M298 942q47 0 76.5 -28t29.5 -72t-29.5 -72.5t-76.5 -28.5q-46 0 -76 28.5t-30 72.5t29.5 72t76.5 28zM298 790q22 0 37 15t15 37t-15 36.5t-37 14.5t-37 -14.5t-15 -36.5t15 -37t37 -15z" />
    <glyph glyph-name="tilde.case" 
d="M391 857h74q0 -39 -15.5 -66.5t-39 -37.5t-50.5 -8.5t-50 15.5l-45 29q-26 16 -43 6.5t-17 -34.5h-75q0 39 16 65.5t40 36.5t51 8.5t49 -14.5l44 -28q28 -17 44.5 -7.5t16.5 35.5z" />
    </font>
</defs>
</svg>
