<?xml version="1.0" standalone="no"?>
<!DOCTYPE svg PUBLIC "-//W3C//DTD SVG 1.1//EN" "http://www.w3.org/Graphics/SVG/1.1/DTD/svg11.dtd" >
<svg xmlns="http://www.w3.org/2000/svg" xmlns:xlink="http://www.w3.org/1999/xlink" version="1.1">
<metadata>
Created by FontForge 20170731 at Wed Feb 19 04:57:01 2014
 By Aleksey,,,
Copyright (c) 2014 by Rene' Bieder. All rights reserved.
</metadata>
<defs>
<font id="Campton-LightItalic" horiz-adv-x="600" >
  <font-face 
    font-family="Campton Light"
    font-weight="400"
    font-style="italic"
    font-stretch="normal"
    units-per-em="1000"
    panose-1="0 0 5 0 0 0 0 0 0 0"
    ascent="800"
    descent="-200"
    x-height="462"
    cap-height="680"
    bbox="-72 -248 1483 961"
    underline-thickness="50"
    underline-position="-200"
    slope="-10"
    unicode-range="U+0020-FB02"
  />
<missing-glyph horiz-adv-x="870" 
d="M770 680v-680h-670v680h670zM700 610h-481l481 -481v481zM170 70h477l-477 477v-477z" />
    <glyph glyph-name="fi" unicode="fi" horiz-adv-x="645" 
d="M599 462l-82 -462h-68l71 403h-282l-71 -403h-68l71 403h-136l11 59h135l21 121q13 79 67.5 126.5t128.5 47.5q67 0 170 -37l-22 -59q-96 33 -149 33q-49 0 -83.5 -30.5t-43.5 -80.5l-21 -121h351z" />
    <glyph glyph-name="fl" unicode="fl" horiz-adv-x="635" 
d="M248 462h172l-11 -59h-171l-71 -403h-68l71 403h-136l11 59h135l21 121q14 79 68 126.5t128 47.5q47 0 93 -14l-22 -59q-40 10 -72 10q-49 0 -83.5 -31t-43.5 -81zM635 710l-126 -710h-68l126 710h68z" />
    <glyph glyph-name=".notdef" horiz-adv-x="870" 
d="M770 680v-680h-670v680h670zM700 610h-481l481 -481v481zM170 70h477l-477 477v-477z" />
    <glyph glyph-name=".null" horiz-adv-x="0" 
 />
    <glyph glyph-name="nonmarkingreturn" horiz-adv-x="333" 
 />
    <glyph glyph-name="space" unicode=" " horiz-adv-x="271" 
 />
    <glyph glyph-name="exclam" unicode="!" horiz-adv-x="263" 
d="M155 185h-62l82 495h72zM97 -8q-20 0 -33.5 13t-13.5 33q0 19 13.5 32t33.5 13t34 -13t14 -32q0 -20 -14 -33t-34 -13z" />
    <glyph glyph-name="quotedbl" unicode="&#x22;" horiz-adv-x="318" 
d="M189 680l-48 -268h-59l47 268h60zM337 680l-48 -268h-59l48 268h59z" />
    <glyph glyph-name="numbersign" unicode="#" horiz-adv-x="736" 
d="M515 259h126l-10 -60h-146l-97 -199h-70l97 199h-205l-97 -199h-70l97 199h-107l10 60h127l76 156h-120l10 60h139l101 206h70l-101 -206h205l101 206h70l-101 -206h114l-10 -60h-133zM316 415l-76 -156h205l76 156h-205z" />
    <glyph glyph-name="dollar" unicode="$" horiz-adv-x="660" 
d="M401 633q-86 0 -141 -40t-55 -104q0 -79 121 -101l100 -20q161 -33 161 -151q0 -100 -81 -165t-206 -67l-20 -116h-63l21 120q-95 13 -144 72t-42 156h70q-2 -83 44.5 -125.5t142.5 -42.5q89 0 145.5 42t56.5 108q0 37 -27 63.5t-82 36.5l-115 23q-79 15 -119.5 56
t-38.5 104q3 87 68 143t165 68l22 123h63l-21 -121q100 -5 158 -55.5t53 -143.5h-71q0 64 -41 100.5t-124 36.5z" />
    <glyph glyph-name="percent" unicode="%" horiz-adv-x="1108" 
d="M343 695q70 0 114 -44.5t44 -114.5q0 -92 -67 -155.5t-157 -63.5q-71 0 -114.5 44t-43.5 115q0 92 67 155.5t157 63.5zM360 0h-53l453 680h53zM286 369q63 0 111.5 46.5t48.5 111.5q0 51 -31.5 83.5t-80.5 32.5q-64 0 -112.5 -46t-48.5 -112q0 -51 31.5 -83.5t81.5 -32.5
zM863 363q70 0 114 -44t44 -115q0 -92 -67 -155.5t-158 -63.5q-70 0 -113.5 44.5t-43.5 114.5q0 93 67 156t157 63zM806 37q64 0 112.5 46.5t48.5 112.5q0 50 -32 82.5t-81 32.5q-64 0 -112 -46t-48 -112q0 -50 31.5 -83t80.5 -33z" />
    <glyph glyph-name="ampersand" unicode="&#x26;" horiz-adv-x="730" 
d="M543 138l-5 -6l125 -132h-92l-80 85q-109 -98 -239 -98q-96 0 -151.5 47t-55.5 123q0 77 50.5 134.5t128.5 84.5q-45 63 -45 117q0 86 67 144t162 58q80 0 124.5 -47.5t38.5 -131.5h-68q2 56 -26.5 86.5t-79.5 30.5q-62 0 -104 -38.5t-42 -96.5q0 -45 31 -87.5
t110 -123.5l108 -114l137 156h72zM264 48q100 0 188 77l-123 130q-40 41 -70 76q-66 -22 -106 -64.5t-40 -98.5q0 -53 41 -86.5t110 -33.5z" />
    <glyph glyph-name="quotesingle" unicode="'" horiz-adv-x="170" 
d="M192 680l-48 -268h-60l48 268h60z" />
    <glyph glyph-name="parenleft" unicode="(" horiz-adv-x="373" 
d="M349 729l40 -50q-104 -80 -163.5 -167.5t-80.5 -207.5q-41 -223 106 -381l-52 -45q-84 79 -116 193t-8 239q46 258 274 419z" />
    <glyph glyph-name="parenright" unicode=")" horiz-adv-x="373" 
d="M147 684l52 45q84 -78 116 -192t8 -239q-44 -256 -274 -420l-40 51q104 80 163.5 167t80.5 208q42 222 -106 380z" />
    <glyph glyph-name="asterisk" unicode="*" horiz-adv-x="401" 
d="M408 592l10 -40l-120 -31l81 -81l-30 -30l-81 81l-32 -120l-39 10l31 123l-123 -31l-11 40l120 31l-79 79l30 31l80 -80l31 121l40 -11l-31 -123z" />
    <glyph glyph-name="plus" unicode="+" horiz-adv-x="684" 
d="M385 291l-34 -194h-66l34 194h-197l11 64h197l34 194h67l-34 -194h196l-11 -64h-197z" />
    <glyph glyph-name="comma" unicode="," horiz-adv-x="195" 
d="M-25 -138l75 133q-30 9 -30 38q0 19 13.5 32.5t32.5 13.5q20 0 33.5 -13t13.5 -33q0 -21 -29 -64l-65 -107h-44z" />
    <glyph glyph-name="hyphen" unicode="-" horiz-adv-x="553" 
d="M454 306l-12 -69h-329l12 69h329z" />
    <glyph glyph-name="period" unicode="." horiz-adv-x="177" 
d="M54 -13q-19 0 -33 13.5t-14 32.5t14 32.5t33 13.5q20 0 34 -13.5t14 -32.5t-14 -32.5t-34 -13.5z" />
    <glyph glyph-name="slash" unicode="/" horiz-adv-x="403" 
d="M28 -160h-67l423 890h66z" />
    <glyph glyph-name="zero" unicode="0" horiz-adv-x="716" 
d="M439 695q115 0 177 -76.5t62 -205.5q0 -181 -102 -304.5t-263 -123.5q-115 0 -177 76.5t-62 205.5q0 182 102 305t263 123zM325 49q126 0 203 104.5t77 257.5q0 100 -45.5 160t-132.5 60q-126 0 -203 -104t-77 -258q0 -100 45.5 -160t132.5 -60z" />
    <glyph glyph-name="one" unicode="1" horiz-adv-x="506" 
d="M447 59l-11 -59h-443l11 59h193l97 542l-194 -63l11 62l227 80h40l-110 -621h179z" />
    <glyph glyph-name="two" unicode="2" horiz-adv-x="559" 
d="M131 59h339l-11 -59h-447l7 37l261 233q108 95 138 130q47 57 47 115q0 52 -34.5 85t-96.5 33q-67 0 -118 -37.5t-68 -99.5h-69q21 90 92.5 144.5t170.5 54.5q92 0 143.5 -48.5t51.5 -124.5q0 -48 -23 -91.5t-60 -81.5t-119 -110z" />
    <glyph glyph-name="three" unicode="3" horiz-adv-x="563" 
d="M417 343q88 -39 88 -134q0 -99 -72 -160.5t-190 -61.5q-100 0 -159.5 49.5t-55.5 129.5h70q-1 -54 39 -86t111 -32q82 0 135.5 43t53.5 109q0 51 -37.5 82t-101.5 31h-56l10 58h56q71 0 118 42.5t47 108.5q0 50 -34 80t-93 30q-64 0 -108 -31t-60 -85h-70q21 81 87 129
t160 48q87 0 136.5 -44t49.5 -118q0 -64 -33 -113t-91 -75z" />
    <glyph glyph-name="four" unicode="4" horiz-adv-x="643" 
d="M574 150h-109l-27 -150h-68l26 150h-366l8 43l294 487h72l-279 -469h282l39 221h69l-39 -221h109z" />
    <glyph glyph-name="five" unicode="5" horiz-adv-x="585" 
d="M234 617l-46 -261h-65l57 324h400l-11 -63h-335zM468 232q0 56 -40 90.5t-110 34.5l-130 -1l11 62h138q92 0 145.5 -48t53.5 -127q0 -107 -82.5 -182.5t-201.5 -75.5q-105 0 -161.5 52.5t-56.5 143.5h69q4 -64 44 -99.5t115 -35.5q86 0 146 55t60 131z" />
    <glyph glyph-name="six" unicode="6" horiz-adv-x="615" 
d="M349 454q96 0 154.5 -54.5t58.5 -141.5q0 -116 -85.5 -194.5t-211.5 -78.5q-96 0 -154.5 56t-58.5 144q0 53 21 96.5t66 95.5l268 303h85l-205 -233q27 7 62 7zM276 43q89 0 152 58.5t63 143.5q0 65 -42 106t-112 41q-80 0 -141 -48l-6 -7q-68 -71 -68 -146
q0 -65 42.5 -106.5t111.5 -41.5z" />
    <glyph glyph-name="seven" unicode="7" horiz-adv-x="502" 
d="M566 680l-8 -43l-427 -637h-80l413 614h-374l11 66h465z" />
    <glyph glyph-name="eight" unicode="8" horiz-adv-x="622" 
d="M448 359q51 -20 79 -58t28 -87q0 -99 -82.5 -164t-211.5 -65q-102 0 -161.5 47.5t-59.5 125.5q0 72 45 125t123 78q-82 38 -82 124q0 89 76 149.5t185 60.5q88 0 141.5 -45t53.5 -115q0 -62 -36 -107.5t-98 -68.5zM377 639q-75 0 -128.5 -44.5t-53.5 -106.5
q0 -50 37 -79.5t99 -29.5q76 0 128.5 41t52.5 104q0 50 -37 82.5t-98 32.5zM272 44q87 0 146.5 48t59.5 118q0 53 -42.5 86.5t-113.5 33.5q-88 0 -146 -45t-58 -115q0 -56 42 -91t112 -35z" />
    <glyph glyph-name="nine" unicode="9" horiz-adv-x="615" 
d="M392 695q96 0 154.5 -56t58.5 -144q0 -53 -21 -96.5t-66 -95.5l-268 -303h-85l205 233q-27 -7 -62 -7q-96 0 -154.5 54.5t-58.5 141.5q0 116 85.5 194.5t211.5 78.5zM461 336l6 7q68 71 68 146q0 65 -42.5 106.5t-111.5 41.5q-89 0 -152 -58.5t-63 -143.5q0 -65 42 -106
t112 -41q80 0 141 48z" />
    <glyph glyph-name="colon" unicode=":" horiz-adv-x="177" 
d="M125 382q-20 0 -33.5 13.5t-13.5 32.5t13.5 32.5t33.5 13.5t34 -13.5t14 -32.5t-14 -32.5t-34 -13.5zM54 -13q-20 0 -33.5 13.5t-13.5 32.5t13.5 32.5t33.5 13.5t33.5 -13.5t13.5 -32.5t-13.5 -32.5t-33.5 -13.5z" />
    <glyph glyph-name="semicolon" unicode=";" horiz-adv-x="184" 
d="M126 382q-20 0 -33.5 13.5t-13.5 32.5t13.5 32.5t33.5 13.5t34 -13.5t14 -32.5t-14 -32.5t-34 -13.5zM-36 -138l75 133q-30 9 -30 38q0 19 13.5 32.5t32.5 13.5q20 0 33.5 -13.5t13.5 -32.5q0 -21 -29 -64l-65 -107h-44z" />
    <glyph glyph-name="less" unicode="&#x3c;" horiz-adv-x="541" 
d="M52 337l457 201l-12 -73l-375 -168l316 -163l-12 -68l-386 201z" />
    <glyph glyph-name="equal" unicode="=" horiz-adv-x="707" 
d="M622 391h-482l11 64h482zM588 197h-482l11 64h482z" />
    <glyph glyph-name="greater" unicode="&#x3e;" horiz-adv-x="541" 
d="M511 267l-458 -201l13 73l375 168l-317 164l13 67l386 -201z" />
    <glyph glyph-name="question" unicode="?" horiz-adv-x="567" 
d="M349 693q88 0 140 -50t52 -129q0 -94 -70 -159.5t-176 -70.5l-19 -95h-55l19 145h44q78 0 134 50t56 121q0 56 -36 91.5t-96 35.5q-53 0 -99.5 -31.5t-64.5 -81.5h-70q26 80 92 127t149 47zM220 83q20 0 33.5 -13t13.5 -32q0 -20 -13.5 -33t-33.5 -13t-33.5 13t-13.5 33
q0 19 13.5 32t33.5 13z" />
    <glyph glyph-name="at" unicode="@" horiz-adv-x="964" 
d="M557 644q154 0 253 -97t99 -244q0 -110 -53 -188.5t-150 -78.5q-88 0 -107 69q-70 -72 -164 -72q-73 0 -118.5 46.5t-45.5 119.5q0 96 70 162.5t163 66.5q80 0 125 -53l7 39h62l-38 -216q-19 -109 55 -109q64 0 101.5 59t37.5 146q0 128 -86.5 213.5t-219.5 85.5
q-109 0 -209 -54t-162.5 -149t-62.5 -204q0 -131 87.5 -218t218.5 -87t248 82l22 -44q-128 -89 -278 -89q-153 0 -253.5 98.5t-100.5 248.5q0 96 42 183t111 149t160 98.5t186 36.5zM453 89q83 0 141 71q2 25 6 50l17 96q-37 67 -113 67q-67 0 -118 -46.5t-51 -118.5
q0 -54 33.5 -86.5t84.5 -32.5z" />
    <glyph glyph-name="A" unicode="A" horiz-adv-x="746" 
d="M544 198h-354l-123 -198h-79l429 685h68l188 -685h-75zM527 263l-90 333l-207 -333h297z" />
    <glyph glyph-name="B" unicode="B" horiz-adv-x="709" 
d="M505 352q64 -12 96.5 -48t32.5 -90q0 -95 -79.5 -154.5t-205.5 -59.5h-294l120 680h283q91 0 144 -39.5t53 -106.5q0 -66 -40.5 -115t-109.5 -67zM235 617l-43 -241h193q92 0 146 38.5t54 103.5q0 46 -37 72.5t-103 26.5h-210zM137 63h221q92 0 148.5 41.5t56.5 105.5
q0 50 -41.5 76.5t-117.5 26.5h-223z" />
    <glyph glyph-name="C" unicode="C" horiz-adv-x="802" 
d="M384 54q91 0 169 51t113 134h74q-45 -114 -144.5 -183.5t-222.5 -69.5q-148 0 -233 101.5t-59 252.5q26 149 147.5 251.5t269.5 102.5q123 0 198 -69.5t79 -183.5h-73q-7 85 -64.5 135t-152.5 50q-120 0 -215.5 -82.5t-116.5 -203.5q-21 -122 45.5 -204t185.5 -82z" />
    <glyph glyph-name="D" unicode="D" horiz-adv-x="755" 
d="M175 680h236q139 0 222 -78t83 -204q0 -169 -123 -283.5t-302 -114.5h-236zM137 65h166q142 0 240.5 93t98.5 229q0 101 -66 164.5t-176 63.5h-165z" />
    <glyph glyph-name="E" unicode="E" horiz-adv-x="643" 
d="M229 615l-44 -244h362l-11 -66h-362l-43 -240h403l-12 -65h-473l120 680h473l-12 -65h-401z" />
    <glyph glyph-name="F" unicode="F" horiz-adv-x="622" 
d="M235 615l-47 -261h351l-11 -66h-351l-51 -288h-71l120 680h464l-12 -65h-392z" />
    <glyph glyph-name="G" unicode="G" horiz-adv-x="822" 
d="M762 356l-5 -16h2l-60 -340h-58l20 145q-50 -74 -125 -116.5t-168 -42.5q-149 0 -232 102.5t-58 247.5q28 152 149.5 255t270.5 103q115 0 193.5 -64t86.5 -174h-71q-10 84 -70.5 128t-147.5 44q-121 0 -218.5 -83.5t-119.5 -208.5q-21 -117 44 -199t185 -82
q106 0 185 66t110 170h-259l11 65h335z" />
    <glyph glyph-name="H" unicode="H" horiz-adv-x="745" 
d="M728 680l-120 -680h-71l54 304h-411l-54 -304h-71l120 680h71l-55 -311h411l55 311h71z" />
    <glyph glyph-name="I" unicode="I" horiz-adv-x="262" 
d="M126 0h-71l120 680h71z" />
    <glyph glyph-name="J" unicode="J" horiz-adv-x="614" 
d="M605 680l-77 -435q-22 -123 -100 -191.5t-188 -68.5q-98 0 -155.5 57.5t-52.5 151.5h72q-2 -66 35.5 -104.5t109.5 -38.5q77 0 134 53t73 142l77 434h72z" />
    <glyph glyph-name="K" unicode="K" horiz-adv-x="717" 
d="M375 370l264 -370h-91l-233 317l-158 -140l-31 -177h-71l120 680h71l-70 -395l451 395h96z" />
    <glyph glyph-name="L" unicode="L" horiz-adv-x="597" 
d="M516 64l-11 -64h-450l120 680h71l-109 -616h379z" />
    <glyph glyph-name="M" unicode="M" horiz-adv-x="849" 
d="M833 680l-120 -680h-72l92 519l-301 -385h-49l-166 393l-91 -527h-71l120 680h55l191 -457l356 457h56z" />
    <glyph glyph-name="N" unicode="N" horiz-adv-x="768" 
d="M751 680l-120 -680h-60l-348 556l-97 -556h-71l120 680h50l356 -563l99 563h71z" />
    <glyph glyph-name="O" unicode="O" horiz-adv-x="836" 
d="M497 694q131 0 215.5 -87t84.5 -216q0 -107 -60 -201t-157 -149t-203 -55q-131 0 -215.5 87t-84.5 216q0 107 60 201t157 149t203 55zM384 54q133 0 236.5 98.5t103.5 232.5q0 103 -64.5 172t-170.5 69q-134 0 -236.5 -98.5t-102.5 -231.5q0 -103 64.5 -172.5
t169.5 -69.5z" />
    <glyph glyph-name="P" unicode="P" horiz-adv-x="658" 
d="M175 680h232q105 0 167.5 -52t62.5 -140q0 -115 -89 -189.5t-226 -74.5h-156l-40 -224h-71zM177 289h164q97 0 160.5 53.5t63.5 134.5q0 63 -45 100.5t-122 37.5h-163z" />
    <glyph glyph-name="Q" unicode="Q" horiz-adv-x="836" 
d="M797 391q0 -107 -60.5 -201t-157.5 -149l129 -159l-53 -49l-144 177q-65 -24 -134 -24q-131 0 -215.5 87t-84.5 216q0 107 60 201t157 149t203 55q131 0 215.5 -87t84.5 -216zM150 296q0 -103 64.5 -172.5t168.5 -69.5q86 0 164.5 44.5t127.5 121.5t49 165
q0 103 -64.5 172t-170.5 69q-134 0 -236.5 -98.5t-102.5 -231.5z" />
    <glyph glyph-name="R" unicode="R" horiz-adv-x="691" 
d="M652 495q0 -94 -63 -159t-165 -83l172 -253h-83l-168 247h-175l-44 -247h-71l120 680h245q106 0 169 -49.5t63 -135.5zM181 312h180q94 0 157 47.5t63 125.5q0 60 -45.5 95t-121.5 35h-179z" />
    <glyph glyph-name="S" unicode="S" horiz-adv-x="660" 
d="M407 695q107 0 171 -51t59 -148h-71q0 65 -41 101t-125 36q-85 0 -140 -40t-55 -104q0 -80 121 -101l100 -20q160 -33 160 -151q0 -102 -82.5 -167t-209.5 -65q-122 0 -186 61t-57 171h71q-2 -83 44 -125.5t142 -42.5q90 0 146.5 42t56.5 108q0 37 -27 63.5t-82 36.5
l-115 23q-163 31 -158 160q2 97 82.5 155t195.5 58z" />
    <glyph glyph-name="T" unicode="T" horiz-adv-x="635" 
d="M673 615h-252l-109 -615h-71l109 615h-254l11 65h578z" />
    <glyph glyph-name="U" unicode="U" horiz-adv-x="753" 
d="M744 680l-69 -391q-25 -140 -116 -222t-227 -82q-128 0 -194 86.5t-42 217.5l69 391h71l-69 -391q-18 -104 29 -171t147 -67q97 0 170 67.5t91 170.5l69 391h71z" />
    <glyph glyph-name="V" unicode="V" horiz-adv-x="745" 
d="M796 680l-434 -685h-67l-193 685h76l163 -586l373 586h82z" />
    <glyph glyph-name="W" unicode="W" horiz-adv-x="1066" 
d="M1100 680l-353 -685h-70l-89 555l-290 -555h-69l-112 685h75l89 -567l297 567h62l91 -571l292 571h77z" />
    <glyph glyph-name="X" unicode="X" horiz-adv-x="660" 
d="M396 337l200 -337h-83l-173 284l-268 -284h-90l316 341l-186 339h87l157 -282l256 282h94z" />
    <glyph glyph-name="Y" unicode="Y" horiz-adv-x="661" 
d="M366 243l-43 -243h-71l43 244l-205 436h79l169 -362l298 362h88z" />
    <glyph glyph-name="Z" unicode="Z" horiz-adv-x="654" 
d="M659 643l-515 -578h415l-11 -65h-530l7 37l523 578h-409l11 65h515z" />
    <glyph glyph-name="bracketleft" unicode="[" horiz-adv-x="361" 
d="M113 -57h138l-11 -66h-206l150 853h206l-12 -65h-138z" />
    <glyph glyph-name="backslash" unicode="\" horiz-adv-x="403" 
d="M102 730l266 -890h-67l-266 890h67z" />
    <glyph glyph-name="bracketright" unicode="]" horiz-adv-x="361" 
d="M274 665h-138l11 65h206l-150 -853h-206l12 66h138z" />
    <glyph glyph-name="asciicircum" unicode="^" horiz-adv-x="393" 
d="M392 446h-64l-69 181l-134 -181h-64l176 234h62z" />
    <glyph glyph-name="underscore" unicode="_" horiz-adv-x="658" 
d="M-19 -129h568l-11 -60h-568z" />
    <glyph glyph-name="grave" unicode="`" 
d="M364 564h-64l-93 142h76z" />
    <glyph glyph-name="a" unicode="a" horiz-adv-x="618" 
d="M575 462l-81 -462h-69l9 51q-78 -64 -178 -64q-89 0 -144.5 58.5t-55.5 148.5q0 113 87 196.5t199 83.5q100 0 156 -64l9 52h68zM275 47q100 0 173 85l35 197q-42 85 -143 85q-84 0 -149 -63.5t-65 -147.5q0 -67 41.5 -111.5t107.5 -44.5z" />
    <glyph glyph-name="b" unicode="b" horiz-adv-x="617" 
d="M358 474q87 0 143 -59t56 -148q0 -113 -87 -196t-199 -83q-100 0 -155 63l-9 -51h-69l125 710h69l-53 -299q79 63 179 63zM274 48q84 0 149 63t65 147q0 66 -42 111.5t-108 45.5q-100 0 -173 -85l-35 -198q45 -84 144 -84z" />
    <glyph glyph-name="c" unicode="c" horiz-adv-x="575" 
d="M268 50q55 0 99.5 28.5t64.5 75.5h71q-27 -74 -95 -120.5t-151 -46.5q-107 0 -162 69t-37 175q18 103 99.5 173t185.5 70q83 0 134 -46t53 -121h-71q-3 47 -37.5 75.5t-89.5 28.5q-77 0 -134 -52t-71 -128q-14 -78 25 -129.5t116 -51.5z" />
    <glyph glyph-name="d" unicode="d" horiz-adv-x="619" 
d="M619 710l-126 -710h-68l9 51q-77 -63 -178 -63q-88 0 -144.5 59.5t-56.5 147.5q0 113 87 196t199 83q101 0 157 -64l53 300h68zM275 48q99 0 174 85l34 196q-42 86 -143 86q-85 0 -149.5 -63.5t-64.5 -147.5q0 -66 41.5 -111t107.5 -45z" />
    <glyph glyph-name="e" unicode="e" horiz-adv-x="582" 
d="M339 474q100 0 151 -67.5t34 -173.5q-2 -13 -7 -29l-4 2v-2h-390q-3 -68 36 -112.5t109 -44.5q101 0 144 70h76q-30 -60 -91.5 -95t-139.5 -35q-104 0 -160 70.5t-39 173.5q18 103 98.5 173t182.5 70zM330 416q-71 0 -124.5 -45t-73.5 -114h328q8 72 -27 115.5t-103 43.5
z" />
    <glyph glyph-name="f" unicode="f" horiz-adv-x="398" 
d="M396 694q-49 0 -83.5 -31t-43.5 -81l-21 -120h186l-11 -59h-185l-71 -403h-68l71 403h-136l11 59h135l21 121q13 79 67.5 126.5t128.5 47.5q47 0 92 -14l-21 -59q-40 10 -72 10z" />
    <glyph glyph-name="g" unicode="g" horiz-adv-x="619" 
d="M575 462l-84 -477q-19 -104 -93 -166t-177 -62q-90 0 -144.5 48t-53.5 124h70q2 -49 39.5 -79t99.5 -30q73 0 125.5 44.5t65.5 120.5l14 81q-82 -66 -184 -66q-87 0 -141.5 58.5t-54.5 143.5q0 113 84 194.5t196 81.5q103 0 161 -66l9 50h68zM271 60q108 0 180 87l33 184
q-44 87 -149 87q-85 0 -146.5 -61.5t-61.5 -145.5q0 -63 39.5 -107t104.5 -44z" />
    <glyph glyph-name="h" unicode="h" horiz-adv-x="584" 
d="M365 477q88 0 132.5 -57.5t26.5 -153.5l-46 -266h-68l46 263q13 71 -18.5 111t-95.5 40q-94 0 -174 -86l-58 -328h-68l125 710h68l-53 -303q81 70 183 70z" />
    <glyph glyph-name="i" unicode="i" horiz-adv-x="264" 
d="M203 591q-20 0 -34 13t-14 33q0 19 14 32.5t34 13.5t33.5 -13.5t13.5 -32.5q0 -20 -13.5 -33t-33.5 -13zM208 462l-81 -462h-69l82 462h68z" />
    <glyph glyph-name="j" unicode="j" horiz-adv-x="257" 
d="M207 591q-20 0 -33.5 13t-13.5 33q0 19 13.5 32.5t33.5 13.5t34 -13.5t14 -32.5q0 -20 -14 -33t-34 -13zM213 462l-80 -453q-18 -100 -63.5 -145t-140.5 -46l5 60q61 4 89.5 31t40.5 93l81 460h68z" />
    <glyph glyph-name="k" unicode="k" horiz-adv-x="564" 
d="M299 268l192 -268h-88l-160 222l-116 -95l-22 -127h-68l125 710h68l-86 -491l301 243h90z" />
    <glyph glyph-name="l" unicode="l" horiz-adv-x="236" 
d="M237 710l-126 -710h-68l126 710h68z" />
    <glyph glyph-name="m" unicode="m" horiz-adv-x="902" 
d="M688 477q84 0 126.5 -57.5t24.5 -153.5l-46 -266h-69l47 263q13 72 -15 111.5t-91 39.5q-95 0 -164 -89q2 -29 -4 -59l-47 -266h-68l46 263q13 72 -15 111.5t-91 39.5q-88 0 -157 -84l-58 -330h-69l82 462h68l-9 -53q71 68 166 68q105 0 143 -86q86 86 200 86z" />
    <glyph glyph-name="n" unicode="n" horiz-adv-x="584" 
d="M361 477q88 0 132.5 -57.5t27.5 -153.5l-47 -266h-68l46 263q13 71 -18.5 111t-94.5 40q-95 0 -174 -85l-58 -329h-69l82 462h68l-10 -55q81 70 183 70z" />
    <glyph glyph-name="o" unicode="o" horiz-adv-x="611" 
d="M348 474q91 0 148.5 -59t57.5 -148q0 -115 -88 -198.5t-204 -83.5q-91 0 -149 59.5t-58 148.5q0 116 88 198.5t205 82.5zM273 47q84 0 148 63.5t64 147.5q0 65 -41 109t-106 44q-85 0 -149 -62.5t-64 -146.5q0 -67 41 -111t107 -44z" />
    <glyph glyph-name="p" unicode="p" horiz-adv-x="615" 
d="M358 474q88 0 144.5 -59.5t56.5 -148.5q0 -113 -86 -196t-200 -83q-100 0 -156 64l-53 -299h-69l126 710h69l-9 -52q78 64 177 64zM275 47q84 0 149 63.5t65 146.5q0 66 -42 111.5t-107 45.5q-99 0 -174 -85l-35 -197q43 -85 144 -85z" />
    <glyph glyph-name="q" unicode="q" horiz-adv-x="616" 
d="M573 462l-125 -710h-68l53 300q-79 -65 -179 -65q-88 0 -144.5 59.5t-56.5 147.5q0 113 87 196.5t199 83.5q102 0 157 -65l9 53h68zM272 47q102 0 175 85l35 197q-45 85 -144 85q-85 0 -150 -63.5t-65 -147.5q0 -66 41.5 -111t107.5 -45z" />
    <glyph glyph-name="r" unicode="r" horiz-adv-x="356" 
d="M188 462l-14 -80q84 92 197 92l-11 -65q-117 -3 -200 -106l-53 -303h-69l82 462h68z" />
    <glyph glyph-name="s" unicode="s" horiz-adv-x="527" 
d="M42 143h64q2 -49 37 -75t99 -26q63 0 102 24.5t39 65.5q0 54 -69 65l-102 18q-117 21 -117 106q0 70 59 112.5t150 42.5q80 0 132 -36.5t45 -110.5h-64q4 44 -28.5 68t-91.5 24q-61 0 -97 -23.5t-36 -61.5q0 -50 79 -64l90 -16q117 -20 117 -109q0 -75 -61.5 -118.5
t-156.5 -43.5q-88 0 -140.5 40t-49.5 118z" />
    <glyph glyph-name="t" unicode="t" horiz-adv-x="430" 
d="M230 403l-42 -237q-10 -54 11 -86t67 -32q32 0 84 12v-59q-57 -16 -99 -16q-72 0 -108.5 50.5t-22.5 130.5l42 237h-124l10 59h124l30 171h68l-30 -171h174l-9 -59h-175z" />
    <glyph glyph-name="u" unicode="u" horiz-adv-x="594" 
d="M545 462l-81 -462h-69l10 54q-82 -69 -183 -69q-88 0 -132 57t-27 153l46 267h68l-46 -263q-13 -72 18.5 -112t95.5 -40q96 0 174 86l58 329h68z" />
    <glyph glyph-name="v" unicode="v" horiz-adv-x="573" 
d="M577 462l-295 -462h-69l-138 462h72l113 -375l243 375h74z" />
    <glyph glyph-name="w" unicode="w" horiz-adv-x="779" 
d="M785 462l-248 -462h-69l-57 352l-180 -352h-62l-93 462h73l69 -355l182 355h60l58 -355l193 355h74z" />
    <glyph glyph-name="x" unicode="x" horiz-adv-x="535" 
d="M315 231l148 -231h-82l-119 184l-185 -184h-86l232 232l-145 230h83l116 -180l179 180h88z" />
    <glyph glyph-name="y" unicode="y" horiz-adv-x="592" 
d="M600 462l-449 -710h-78l145 229l-149 481h74l124 -403l255 403h78z" />
    <glyph glyph-name="z" unicode="z" horiz-adv-x="493" 
d="M479 422l-360 -364h295l-10 -58h-397l7 35l363 368h-288l10 59h387z" />
    <glyph glyph-name="braceleft" unicode="{" horiz-adv-x="356" 
d="M264 570l-23 -126q-10 -59 -31.5 -90.5t-64.5 -45.5q39 -14 49.5 -47t-1.5 -90l-22 -126q-8 -49 14 -79t68 -30l-12 -66q-76 0 -114 48t-24 127l22 125q11 61 -7.5 84t-74.5 23l11 61q56 0 82.5 23t37.5 85l22 124q14 79 69 127t131 48l-12 -66q-45 0 -78.5 -31.5
t-41.5 -77.5z" />
    <glyph glyph-name="bar" unicode="|" horiz-adv-x="256" 
d="M249 730l-157 -890h-65l157 890h65z" />
    <glyph glyph-name="braceright" unicode="}" horiz-adv-x="355" 
d="M119 45l22 126q10 59 32 91t65 46q-39 14 -49.5 46.5t0.5 89.5l22 126q9 49 -13 79t-68 30l11 66q76 0 114 -48t25 -127l-22 -124q-11 -62 7.5 -85t73.5 -23l-10 -61q-56 0 -82.5 -23t-37.5 -84l-22 -125q-13 -79 -68.5 -127t-131.5 -48l12 66q45 0 78 31.5t42 77.5z" />
    <glyph glyph-name="asciitilde" unicode="~" horiz-adv-x="458" 
d="M369 395h60q0 -39 -16.5 -66t-41 -36.5t-51.5 -7.5t-49 15l-63 43q-28 19 -53 7t-25 -46h-61q0 39 17 66t41.5 36.5t51.5 7.5t48 -15l64 -43q28 -19 53 -7t25 46z" />
    <glyph glyph-name="exclamdown" unicode="&#xa1;" horiz-adv-x="263" 
d="M164 475q20 0 33.5 -13.5t13.5 -32.5t-13.5 -32.5t-33.5 -13.5t-33.5 13.5t-13.5 32.5t13.5 32.5t33.5 13.5zM106 282h62l-82 -495h-72z" />
    <glyph glyph-name="cent" unicode="&#xa2;" horiz-adv-x="575" 
d="M268 50q56 0 100 28t64 76h71q-26 -70 -87.5 -115.5t-138.5 -50.5l-20 -114h-63l21 116q-88 13 -131 79.5t-26 161.5q16 91 83.5 158t158.5 82l23 128h62l-22 -126q75 -6 120 -51t47 -115h-71q-3 47 -37.5 75.5t-89.5 28.5q-77 0 -134 -52t-71 -128q-14 -78 25 -129.5
t116 -51.5z" />
    <glyph glyph-name="sterling" unicode="&#xa3;" horiz-adv-x="630" 
d="M428 695q97 0 150.5 -53.5t47.5 -143.5h-70q2 63 -35 99.5t-104 36.5q-74 0 -128 -46t-67 -122l-22 -123h239l-10 -60h-239l-39 -223h390l-11 -60h-534l11 60h76l38 223h-75l11 60h75l21 123q19 103 94.5 166t180.5 63z" />
    <glyph glyph-name="yen" unicode="&#xa5;" horiz-adv-x="661" 
d="M383 263h175l-9 -53h-188l-12 -67h187l-9 -53h-187l-16 -90h-72l16 90h-183l10 53h182l12 67h-182l10 53h168l-195 417h79l169 -363l298 363h89z" />
    <glyph glyph-name="brokenbar" unicode="&#xa6;" horiz-adv-x="257" 
d="M180 336h-65l69 394h65zM92 -160h-65l70 394h65z" />
    <glyph glyph-name="section" unicode="&#xa7;" horiz-adv-x="542" 
d="M521 523h-74q2 49 -27 77t-84 28q-57 0 -95.5 -29t-38.5 -78q0 -28 21.5 -49.5t67.5 -45.5l95 -48q109 -57 109 -134q0 -55 -33 -92t-84 -54q33 -35 33 -79q0 -81 -61 -129.5t-153 -48.5q-85 0 -132.5 45.5t-43.5 122.5h73q-2 -49 27 -77.5t85 -28.5q57 0 95.5 29
t38.5 78q0 29 -19.5 49.5t-69.5 45.5l-95 48q-109 55 -109 134q0 56 33 93t85 53q-34 36 -34 80q0 80 61 128.5t153 48.5q85 0 132 -45t44 -122zM345 324l-95 50q-10 5 -30 17q-43 -4 -73 -29.5t-30 -65.5q0 -48 79 -89l96 -49q14 -6 30 -17q43 3 73 28.5t30 64.5
q0 49 -80 90z" />
    <glyph glyph-name="dieresis" unicode="&#xa8;" 
d="M231 657q20 0 33.5 -13.5t13.5 -32.5t-13.5 -32.5t-33.5 -13.5t-33.5 13.5t-13.5 32.5t13.5 32.5t33.5 13.5zM414 657q20 0 33.5 -13.5t13.5 -32.5t-13.5 -32.5t-33.5 -13.5t-34 13.5t-14 32.5t14 32.5t34 13.5z" />
    <glyph glyph-name="copyright" unicode="&#xa9;" horiz-adv-x="859" 
d="M445 695q150 0 257 -102t107 -253t-107 -253t-257 -102t-257 102t-107 253t107 253t257 102zM444 33q128 0 221 89t93 218t-93 218t-221 89t-220.5 -89t-92.5 -218t92.5 -218t220.5 -89zM445 473q-55 0 -92.5 -39t-37.5 -95t37.5 -95t92.5 -39q42 0 74.5 23t43.5 59h56
q-14 -59 -61.5 -95.5t-111.5 -36.5q-77 0 -130.5 53.5t-53.5 130.5q0 78 53.5 131t130.5 53q64 0 111.5 -36.5t61.5 -95.5h-56q-11 36 -43.5 59t-74.5 23z" />
    <glyph glyph-name="ordfeminine" unicode="&#xaa;" horiz-adv-x="354" 
d="M260 686q60 0 90 -38t18 -101l-30 -177h-49l4 26q-57 -34 -115 -34q-50 0 -80 22.5t-30 60.5q0 47 35.5 74.5t99.5 27.5h116q8 43 -9 69t-58 26q-32 0 -58 -14t-34 -39h-51q13 46 56.5 71.5t94.5 25.5zM189 405q59 0 112 38l11 65h-118q-38 0 -57.5 -15t-19.5 -39
q0 -22 19 -35.5t53 -13.5z" />
    <glyph glyph-name="guillemotleft" unicode="&#xab;" horiz-adv-x="427" 
d="M239 400l-135 -151l83 -145h-69l-83 148l135 148h69zM401 400l-136 -151l83 -145h-68l-83 148l135 148h69z" />
    <glyph glyph-name="registered" unicode="&#xae;" horiz-adv-x="554" 
d="M318 694q98 0 167 -66.5t69 -163.5t-69 -163t-167 -66q-97 0 -166 66t-69 163t69 163.5t166 66.5zM318 274q79 0 136.5 55.5t57.5 134.5q0 80 -57.5 135t-136.5 55t-136 -55t-57 -135q0 -79 57 -134.5t136 -55.5zM414 506q0 -27 -16.5 -46t-43.5 -24l67 -80h-41l-64 77
h-46v-77h-32v225h93q36 0 59.5 -21t23.5 -54zM270 463h61q21 0 35.5 12t14.5 32q0 19 -14.5 31.5t-35.5 12.5h-61v-88z" />
    <glyph glyph-name="macron" unicode="&#xaf;" 
d="M463 634l-10 -51h-278l10 51h278z" />
    <glyph glyph-name="degree" unicode="&#xb0;" horiz-adv-x="487" 
d="M296 695q71 0 119 -46.5t48 -116.5t-48 -116.5t-119 -46.5t-119 46.5t-48 116.5t48 116.5t119 46.5zM296 422q47 0 79.5 32t32.5 78t-32.5 78t-79.5 32q-46 0 -78.5 -32t-32.5 -78t32.5 -78t78.5 -32z" />
    <glyph glyph-name="plusminus" unicode="&#xb1;" horiz-adv-x="684" 
d="M587 324h-195l-29 -159h-66l28 159h-197l11 64h197l28 159h67l-28 -159h196zM549 109l-11 -64h-459l11 64h459z" />
    <glyph glyph-name="twosuperior" unicode="&#xb2;" horiz-adv-x="359" 
d="M156 352h179l-8 -46h-269l5 29l159 135q54 44 74 67.5t20 52.5q0 25 -17.5 41t-48.5 16q-36 0 -60.5 -18.5t-32.5 -50.5h-53q12 54 52 85.5t100 31.5q55 0 85 -27t30 -69q0 -37 -22.5 -69t-84.5 -85z" />
    <glyph glyph-name="threesuperior" unicode="&#xb3;" horiz-adv-x="371" 
d="M307 500q46 -23 46 -73q0 -54 -42.5 -90.5t-111.5 -36.5q-61 0 -96.5 29t-33.5 77h54q0 -26 21 -42t58 -16q43 0 71 20.5t28 53.5q0 25 -20.5 39.5t-57.5 14.5h-32l8 44h33l-1 -5l1 5q37 0 61.5 21t24.5 53q0 25 -17.5 39.5t-49.5 14.5t-54.5 -15.5t-31.5 -41.5h-54
q14 48 53.5 76.5t94.5 28.5q52 0 81.5 -26t29.5 -68q0 -70 -63 -102z" />
    <glyph glyph-name="acute" unicode="&#xb4;" 
d="M458 706l-118 -142h-64l105 142h77z" />
    <glyph glyph-name="paragraph" unicode="&#xb6;" horiz-adv-x="738" 
d="M654 680v-840h-71v778h-137v-778h-71v391h-94q-104 0 -174 63.5t-70 164.5q0 98 70 159.5t174 61.5h373zM375 618h-94q-75 0 -124.5 -44.5t-49.5 -115.5q0 -73 49.5 -118t124.5 -45h94v323z" />
    <glyph glyph-name="periodcentered" unicode="&#xb7;" horiz-adv-x="177" 
d="M93 217q-20 0 -33.5 13.5t-13.5 33.5q0 19 13.5 32t33.5 13t33.5 -13t13.5 -32q0 -20 -13.5 -33.5t-33.5 -13.5z" />
    <glyph glyph-name="cedilla" unicode="&#xb8;" 
d="M234 -215h-62l72 144h69z" />
    <glyph glyph-name="onesuperior" unicode="&#xb9;" horiz-adv-x="310" 
d="M312 354l-8 -46h-267l8 46h111l49 276l-110 -33l7 47l137 45h28l-59 -335h104z" />
    <glyph glyph-name="ordmasculine" unicode="&#xba;" horiz-adv-x="388" 
d="M278 686q61 0 99.5 -39t38.5 -98q0 -78 -58.5 -133.5t-136.5 -55.5q-61 0 -99.5 39.5t-38.5 99.5q0 77 58.5 132t136.5 55zM229 406q54 0 94.5 40.5t40.5 95.5q0 42 -26 70t-68 28q-55 0 -95 -40t-40 -95q0 -43 26 -71t68 -28z" />
    <glyph glyph-name="guillemotright" unicode="&#xbb;" horiz-adv-x="428" 
d="M34 104l136 151l-83 145h68l83 -148l-135 -148h-69zM196 104l135 151l-83 145h69l83 -148l-136 -148h-68z" />
    <glyph glyph-name="onequarter" unicode="&#xbc;" horiz-adv-x="871" 
d="M37 301l8 46h111l49 276l-110 -33l7 47l137 45h28l-59 -335h104l-8 -46h-267zM697 680l-453 -680h-53l453 680h53zM806 80h-61l-14 -80h-52l14 80h-213l6 35l166 266h56l-154 -253h147l21 117h52l-21 -117h61z" />
    <glyph glyph-name="onehalf" unicode="&#xbd;" horiz-adv-x="869" 
d="M37 301l8 46h111l49 276l-110 -33l7 47l137 45h28l-59 -335h104l-8 -46h-267zM691 680l-453 -680h-53l453 680h53zM613 46h179l-8 -46h-269l5 29l159 135q54 44 74 67.5t20 52.5q0 25 -17.5 41t-48.5 16q-36 0 -60.5 -18.5t-32.5 -50.5h-53q12 54 52 85.5t100 31.5
q55 0 85 -27t30 -69q0 -37 -22.5 -69t-84.5 -85z" />
    <glyph glyph-name="threequarters" unicode="&#xbe;" horiz-adv-x="863" 
d="M353 424q0 -54 -42.5 -90.5t-111.5 -36.5q-61 0 -96.5 29t-33.5 77h54q0 -26 21 -42t58 -16q43 0 71 20.5t28 53.5q0 25 -20.5 39.5t-57.5 14.5h-32l8 44h33l-1 -5l1 5q37 0 61.5 21t24.5 53q0 25 -17.5 39.5t-49.5 14.5t-54.5 -15.5t-31.5 -41.5h-54q14 48 53.5 76.5
t94.5 28.5q52 0 81.5 -26t29.5 -68q0 -70 -63 -102q46 -23 46 -73zM688 680l-453 -680h-52l453 680h52zM796 80h-60l-14 -80h-53l14 80h-212l6 35l166 266h56l-155 -253h147l21 117h53l-21 -117h61z" />
    <glyph glyph-name="questiondown" unicode="&#xbf;" horiz-adv-x="567" 
d="M350 458q-20 0 -33.5 13t-13.5 32q0 20 13.5 33t33.5 13t33.5 -13t13.5 -33q0 -19 -13.5 -32t-33.5 -13zM221 -152q-88 0 -140 50t-52 129q0 94 70 159.5t176 70.5l19 95h55l-19 -145h-44q-78 0 -134 -50t-56 -121q0 -56 36 -91.5t96 -35.5q53 0 99.5 31.5t64.5 81.5h70
q-26 -80 -92 -127t-149 -47z" />
    <glyph glyph-name="Agrave" unicode="&#xc0;" horiz-adv-x="746" 
d="M428 758l-93 142h76l81 -142h-64zM544 198h-353l-123 -198h-79l429 685h67l188 -685h-75zM527 263l-90 331l-206 -331h296z" />
    <glyph glyph-name="Aacute" unicode="&#xc1;" horiz-adv-x="746" 
d="M495 758h-64l105 142h77zM544 198h-353l-123 -198h-79l429 685h67l188 -685h-75zM527 263l-90 331l-206 -331h296z" />
    <glyph glyph-name="Acircumflex" unicode="&#xc2;" horiz-adv-x="746" 
d="M380 760h-71l149 144h74l96 -144h-64l-74 104zM544 198h-353l-123 -198h-79l429 685h67l188 -685h-75zM527 263l-90 331l-206 -331h296z" />
    <glyph glyph-name="Atilde" unicode="&#xc3;" horiz-adv-x="746" 
d="M364 796h-49q0 44 25 68.5t57 23t61 -15.5l34 -21q33 -20 56 -10t23 41h49q0 -44 -23.5 -69t-55.5 -24t-64 17l-35 22q-29 18 -53.5 8.5t-24.5 -40.5zM544 198h-353l-123 -198h-79l429 685h67l188 -685h-75zM527 263l-90 331l-206 -331h296z" />
    <glyph glyph-name="Adieresis" unicode="&#xc4;" horiz-adv-x="746" 
d="M381 771q-20 0 -33.5 13.5t-13.5 32.5t13.5 32.5t33.5 13.5t33.5 -13.5t13.5 -32.5t-13.5 -32.5t-33.5 -13.5zM564 771q-20 0 -34 13.5t-14 32.5t14 32.5t34 13.5t33.5 -13.5t13.5 -32.5t-13.5 -32.5t-33.5 -13.5zM544 198h-353l-123 -198h-79l429 685h67l188 -685h-75z
M527 263l-90 331l-206 -331h296z" />
    <glyph glyph-name="Aring" unicode="&#xc5;" horiz-adv-x="746" 
d="M473 770q-44 0 -72 27t-28 69t28 68.5t72 26.5t71.5 -26.5t27.5 -68.5t-28 -69t-71 -27zM473 923q-25 0 -41 -16.5t-16 -40.5q0 -25 16 -41.5t41 -16.5t41 16.5t16 41.5q0 24 -16 40.5t-41 16.5zM544 198h-353l-123 -198h-79l429 685h67l188 -685h-75zM527 263l-90 331
l-206 -331h296z" />
    <glyph glyph-name="AE" unicode="&#xc6;" horiz-adv-x="1139" 
d="M736 615l-44 -244h362l-11 -66h-362l-43 -240h403l-12 -65h-473l35 198h-321l-196 -198h-97l681 680h491l-12 -65h-401zM602 263l59 330l-327 -330h268z" />
    <glyph glyph-name="Ccedilla" unicode="&#xc7;" horiz-adv-x="802" 
d="M384 54q91 0 169 51t113 134h74q-45 -114 -144.5 -183.5t-222.5 -69.5q-148 0 -233 101.5t-59 252.5q26 149 147.5 251.5t269.5 102.5q123 0 198 -69.5t79 -183.5h-73q-7 85 -64.5 135t-152.5 50q-120 0 -215.5 -82.5t-116.5 -203.5q-22 -122 45 -204t186 -82zM316 -71
h69l-79 -144h-62z" />
    <glyph glyph-name="Egrave" unicode="&#xc8;" horiz-adv-x="643" 
d="M379 758l-93 142h76l81 -142h-64zM229 615l-44 -244h362l-12 -66h-361l-43 -240h402l-12 -65h-472l120 680h473l-12 -65h-401z" />
    <glyph glyph-name="Eacute" unicode="&#xc9;" horiz-adv-x="643" 
d="M447 758h-64l105 142h77zM229 615l-44 -244h362l-12 -66h-361l-43 -240h402l-12 -65h-472l120 680h473l-12 -65h-401z" />
    <glyph glyph-name="Ecircumflex" unicode="&#xca;" horiz-adv-x="643" 
d="M331 760h-71l149 144h74l96 -144h-64l-74 104zM229 615l-44 -244h362l-12 -66h-361l-43 -240h402l-12 -65h-472l120 680h473l-12 -65h-401z" />
    <glyph glyph-name="Edieresis" unicode="&#xcb;" horiz-adv-x="643" 
d="M332 771q-20 0 -33.5 13.5t-13.5 32.5t13.5 32.5t33.5 13.5t33.5 -13.5t13.5 -32.5t-13.5 -32.5t-33.5 -13.5zM515 771q-20 0 -34 13.5t-14 32.5t14 32.5t34 13.5t33.5 -13.5t13.5 -32.5t-13.5 -32.5t-33.5 -13.5zM229 615l-44 -244h362l-12 -66h-361l-43 -240h402
l-12 -65h-472l120 680h473l-12 -65h-401z" />
    <glyph glyph-name="Igrave" unicode="&#xcc;" horiz-adv-x="262" 
d="M252 758h-64l-93 142h76zM126 0h-71l120 680h71z" />
    <glyph glyph-name="Iacute" unicode="&#xcd;" horiz-adv-x="262" 
d="M373 900l-118 -142h-64l105 142h77zM126 0h-71l120 680h71z" />
    <glyph glyph-name="Icircumflex" unicode="&#xce;" horiz-adv-x="262" 
d="M250 864l-110 -104h-71l149 144h74l96 -144h-64zM126 0h-71l120 680h71z" />
    <glyph glyph-name="Idieresis" unicode="&#xcf;" horiz-adv-x="262" 
d="M141 863q20 0 33.5 -13.5t13.5 -32.5t-13.5 -32.5t-33.5 -13.5t-33.5 13.5t-13.5 32.5t13.5 32.5t33.5 13.5zM324 863q20 0 33.5 -13.5t13.5 -32.5t-13.5 -32.5t-33.5 -13.5t-34 13.5t-14 32.5t14 32.5t34 13.5zM126 0h-71l120 680h71z" />
    <glyph glyph-name="Eth" unicode="&#xd0;" horiz-adv-x="755" 
d="M175 680h236q139 0 222 -78t83 -204q0 -169 -123 -283.5t-302 -114.5h-236l54 308h-84l12 66h84zM137 65h166q142 0 240.5 93t98.5 229q0 101 -66 164.5t-176 63.5h-165l-43 -241h163l-11 -66h-164z" />
    <glyph glyph-name="Ntilde" unicode="&#xd1;" horiz-adv-x="768" 
d="M370 796h-49q0 44 25 68.5t57 23t61 -15.5l34 -21q33 -20 56 -10t23 41h49q0 -44 -23.5 -69t-55.5 -24t-64 17l-35 22q-29 18 -53.5 8.5t-24.5 -40.5zM751 680l-120 -680h-59l-349 556l-97 -556h-71l120 680h50l356 -563l99 563h71z" />
    <glyph glyph-name="Ograve" unicode="&#xd2;" horiz-adv-x="836" 
d="M548 758h-64l-93 142h76zM497 694q131 0 215.5 -87t84.5 -216q0 -107 -60 -201t-157 -149t-203 -55q-131 0 -215.5 87t-84.5 216q0 107 60 201t157 149t203 55zM383 54q86 0 164.5 44.5t127.5 121.5t49 165q0 103 -64.5 172t-170.5 69q-134 0 -236.5 -98.5t-102.5 -231.5
q0 -103 64.5 -172.5t168.5 -69.5z" />
    <glyph glyph-name="Oacute" unicode="&#xd3;" horiz-adv-x="836" 
d="M670 900l-118 -142h-64l105 142h77zM497 694q131 0 215.5 -87t84.5 -216q0 -107 -60 -201t-157 -149t-203 -55q-131 0 -215.5 87t-84.5 216q0 107 60 201t157 149t203 55zM383 54q86 0 164.5 44.5t127.5 121.5t49 165q0 103 -64.5 172t-170.5 69q-134 0 -236.5 -98.5
t-102.5 -231.5q0 -103 64.5 -172.5t168.5 -69.5z" />
    <glyph glyph-name="Ocircumflex" unicode="&#xd4;" horiz-adv-x="836" 
d="M546 864l-110 -104h-71l149 144h74l96 -144h-64zM497 694q131 0 215.5 -87t84.5 -216q0 -107 -60 -201t-157 -149t-203 -55q-131 0 -215.5 87t-84.5 216q0 107 60 201t157 149t203 55zM383 54q86 0 164.5 44.5t127.5 121.5t49 165q0 103 -64.5 172t-170.5 69
q-134 0 -236.5 -98.5t-102.5 -231.5q0 -103 64.5 -172.5t168.5 -69.5z" />
    <glyph glyph-name="Otilde" unicode="&#xd5;" horiz-adv-x="836" 
d="M627 882h49q0 -44 -23.5 -69t-55.5 -24t-64 17l-35 22q-29 18 -53.5 8.5t-24.5 -40.5h-49q0 44 25 68.5t57 23t61 -15.5l34 -21q33 -20 56 -10t23 41zM497 694q131 0 215.5 -87t84.5 -216q0 -107 -60 -201t-157 -149t-203 -55q-131 0 -215.5 87t-84.5 216q0 107 60 201
t157 149t203 55zM383 54q86 0 164.5 44.5t127.5 121.5t49 165q0 103 -64.5 172t-170.5 69q-134 0 -236.5 -98.5t-102.5 -231.5q0 -103 64.5 -172.5t168.5 -69.5z" />
    <glyph glyph-name="Odieresis" unicode="&#xd6;" horiz-adv-x="839" 
d="M446 863q20 0 33.5 -13.5t13.5 -32.5t-13.5 -32.5t-33.5 -13.5t-33.5 13.5t-13.5 32.5t13.5 32.5t33.5 13.5zM629 863q20 0 33.5 -13.5t13.5 -32.5t-13.5 -32.5t-33.5 -13.5t-34 13.5t-14 32.5t14 32.5t34 13.5zM497 694q131 0 215.5 -87t84.5 -216q0 -107 -60 -201
t-157 -149t-203 -55q-131 0 -215.5 87t-84.5 216q0 107 60 201t157 149t203 55zM383 54q86 0 164.5 44.5t127.5 121.5t49 165q0 103 -64.5 172t-170.5 69q-134 0 -236.5 -98.5t-102.5 -231.5q0 -103 64.5 -172.5t168.5 -69.5z" />
    <glyph glyph-name="multiply" unicode="&#xd7;" horiz-adv-x="663" 
d="M509 160l-53 -45l-130 158l-186 -158l-40 47l186 158l-128 156l54 45l128 -155l185 157l40 -47l-186 -158z" />
    <glyph glyph-name="Oslash" unicode="&#xd8;" horiz-adv-x="839" 
d="M794 661l-69 -68q72 -83 72 -202q0 -107 -60 -201t-157 -149t-203 -55q-115 0 -198 70l-70 -69l-43 43l72 71q-61 80 -61 188q0 107 60 201t157 149t203 55q104 0 184 -59l69 68zM150 296q0 -80 41 -143l438 431q-61 42 -140 42q-134 0 -236.5 -98.5t-102.5 -231.5z
M383 54q86 0 164.5 44.5t127.5 121.5t49 165q0 92 -51 157l-442 -435q63 -53 152 -53z" />
    <glyph glyph-name="Ugrave" unicode="&#xd9;" horiz-adv-x="753" 
d="M485 758h-64l-93 142h76zM743 680l-69 -391q-24 -140 -115.5 -222t-226.5 -82q-129 0 -194.5 86.5t-41.5 217.5l69 391h70l-68 -391q-18 -104 29 -171t146 -67q98 0 171 67.5t91 170.5l68 391h71z" />
    <glyph glyph-name="Uacute" unicode="&#xda;" horiz-adv-x="753" 
d="M606 900l-118 -142h-64l105 142h77zM743 680l-69 -391q-24 -140 -115.5 -222t-226.5 -82q-129 0 -194.5 86.5t-41.5 217.5l69 391h70l-68 -391q-18 -104 29 -171t146 -67q98 0 171 67.5t91 170.5l68 391h71z" />
    <glyph glyph-name="Ucircumflex" unicode="&#xdb;" horiz-adv-x="753" 
d="M483 864l-110 -104h-71l149 144h74l96 -144h-64zM743 680l-69 -391q-24 -140 -115.5 -222t-226.5 -82q-129 0 -194.5 86.5t-41.5 217.5l69 391h70l-68 -391q-18 -104 29 -171t146 -67q98 0 171 67.5t91 170.5l68 391h71z" />
    <glyph glyph-name="Udieresis" unicode="&#xdc;" horiz-adv-x="753" 
d="M374 863q20 0 33.5 -13.5t13.5 -32.5t-13.5 -32.5t-33.5 -13.5t-33.5 13.5t-13.5 32.5t13.5 32.5t33.5 13.5zM557 863q20 0 33.5 -13.5t13.5 -32.5t-13.5 -32.5t-33.5 -13.5t-34 13.5t-14 32.5t14 32.5t34 13.5zM743 680l-69 -391q-24 -140 -115.5 -222t-226.5 -82
q-129 0 -194.5 86.5t-41.5 217.5l69 391h70l-68 -391q-18 -104 29 -171t146 -67q98 0 171 67.5t91 170.5l68 391h71z" />
    <glyph glyph-name="Yacute" unicode="&#xdd;" horiz-adv-x="661" 
d="M430 758h-64l105 142h77zM367 243l-43 -243h-72l42 243l-204 437h79l169 -363l298 363h89z" />
    <glyph glyph-name="Thorn" unicode="&#xde;" horiz-adv-x="657" 
d="M227 571h166q103 0 163.5 -52t60.5 -138q0 -117 -88.5 -191.5t-224.5 -74.5h-158l-20 -115h-71l120 680h71zM158 180h163q97 0 160.5 54t63.5 136q0 61 -44.5 98.5t-121.5 37.5h-164z" />
    <glyph glyph-name="germandbls" unicode="&#xdf;" horiz-adv-x="620" 
d="M584 417l-224 -220q86 -3 137 -46t51 -117q0 -101 -78 -171.5t-204 -70.5q-87 0 -165 35l12 63q74 -37 163 -37q96 0 149.5 51t53.5 119q0 53 -38.5 83t-100.5 30h-90l6 34l228 228h-312l-70 -398h-68l103 582q13 77 68.5 124t132.5 47l-11 -66q-47 0 -80.5 -29
t-41.5 -76l-21 -120h408z" />
    <glyph glyph-name="agrave" unicode="&#xe0;" horiz-adv-x="618" 
d="M336 544l-93 142h76l81 -142h-64zM575 462l-82 -462h-68l9 51q-78 -64 -178 -64q-89 0 -144.5 58.5t-55.5 148.5q0 113 87 196.5t199 83.5q100 0 156 -64l9 52h68zM275 47q101 0 173 84l35 198q-42 85 -143 85q-84 0 -149 -63.5t-65 -147.5q0 -67 41.5 -111.5
t107.5 -44.5z" />
    <glyph glyph-name="aacute" unicode="&#xe1;" horiz-adv-x="618" 
d="M401 543h-64l105 142h77zM575 462l-82 -462h-68l9 51q-78 -64 -178 -64q-89 0 -144.5 58.5t-55.5 148.5q0 113 87 196.5t199 83.5q100 0 156 -64l9 52h68zM275 47q101 0 173 84l35 198q-42 85 -143 85q-84 0 -149 -63.5t-65 -147.5q0 -67 41.5 -111.5t107.5 -44.5z" />
    <glyph glyph-name="acircumflex" unicode="&#xe2;" horiz-adv-x="618" 
d="M294 536h-71l149 144h74l96 -144h-64l-74 104zM575 462l-82 -462h-68l9 51q-78 -64 -178 -64q-89 0 -144.5 58.5t-55.5 148.5q0 113 87 196.5t199 83.5q100 0 156 -64l9 52h68zM275 47q101 0 173 84l35 198q-42 85 -143 85q-84 0 -149 -63.5t-65 -147.5
q0 -67 41.5 -111.5t107.5 -44.5z" />
    <glyph glyph-name="atilde" unicode="&#xe3;" horiz-adv-x="618" 
d="M277 582h-49q0 44 25 68.5t57 23t61 -15.5l34 -21q33 -20 56 -10t23 41h49q0 -44 -23.5 -69t-55.5 -24t-64 17l-35 22q-29 18 -53.5 8.5t-24.5 -40.5zM575 462l-82 -462h-68l9 51q-78 -64 -178 -64q-89 0 -144.5 58.5t-55.5 148.5q0 113 87 196.5t199 83.5q100 0 156 -64
l9 52h68zM275 47q101 0 173 84l35 198q-42 85 -143 85q-84 0 -149 -63.5t-65 -147.5q0 -67 41.5 -111.5t107.5 -44.5z" />
    <glyph glyph-name="adieresis" unicode="&#xe4;" horiz-adv-x="618" 
d="M278 568q-20 0 -33.5 13.5t-13.5 32.5t13.5 32.5t33.5 13.5t33.5 -13.5t13.5 -32.5t-13.5 -32.5t-33.5 -13.5zM461 568q-20 0 -34 13.5t-14 32.5t14 32.5t34 13.5t33.5 -13.5t13.5 -32.5t-13.5 -32.5t-33.5 -13.5zM575 462l-82 -462h-68l9 51q-78 -64 -178 -64
q-89 0 -144.5 58.5t-55.5 148.5q0 113 87 196.5t199 83.5q100 0 156 -64l9 52h68zM275 47q101 0 173 84l35 198q-42 85 -143 85q-84 0 -149 -63.5t-65 -147.5q0 -67 41.5 -111.5t107.5 -44.5z" />
    <glyph glyph-name="aring" unicode="&#xe5;" horiz-adv-x="618" 
d="M369 536q-44 0 -72 27t-28 69t28 68.5t72 26.5t71.5 -26.5t27.5 -68.5t-28 -69t-71 -27zM369 689q-25 0 -41 -16.5t-16 -40.5q0 -25 16 -41.5t41 -16.5t41 16.5t16 41.5q0 24 -16 40.5t-41 16.5zM575 462l-82 -462h-68l9 51q-78 -64 -178 -64q-89 0 -144.5 58.5
t-55.5 148.5q0 113 87 196.5t199 83.5q100 0 156 -64l9 52h68zM275 47q101 0 173 84l35 198q-42 85 -143 85q-84 0 -149 -63.5t-65 -147.5q0 -67 41.5 -111.5t107.5 -44.5z" />
    <glyph glyph-name="ae" unicode="&#xe6;" horiz-adv-x="938" 
d="M692 474q99 0 150 -67.5t34 -173.5q-2 -18 -6 -29l-4 2v-2h-390q-4 -68 35 -112.5t109 -44.5q48 0 86.5 18.5t57.5 51.5h76q-30 -60 -91.5 -95t-138.5 -35q-60 0 -106 25t-71 69q-107 -93 -233 -93q-77 0 -121.5 33.5t-44.5 91.5q0 67 51.5 105.5t142.5 38.5h188
q28 155 -111 155q-50 0 -87.5 -22t-51.5 -60h-70q21 68 82 104.5t138 36.5q130 0 163 -97q87 100 213 100zM683 416q-71 0 -125 -45t-73 -114h327q8 72 -26.5 115.5t-102.5 43.5zM214 46q104 0 200 80q-10 40 -6 78h-194q-54 0 -83.5 -21.5t-29.5 -58.5q0 -34 30 -56t83 -22
z" />
    <glyph glyph-name="ccedilla" unicode="&#xe7;" horiz-adv-x="575" 
d="M268 50q56 0 100 28t64 76h71q-27 -74 -95 -120.5t-151 -46.5q-107 0 -162 69t-37 175q18 103 99.5 173t185.5 70q83 0 134 -46t53 -121h-71q-3 47 -37.5 75.5t-89.5 28.5q-77 0 -134 -52t-71 -128q-14 -78 25 -129.5t116 -51.5zM198 -71h69l-79 -144h-62z" />
    <glyph glyph-name="egrave" unicode="&#xe8;" horiz-adv-x="582" 
d="M319 544l-93 142h76l81 -142h-64zM339 474q100 0 150.5 -67.5t34.5 -173.5q-4 -20 -7 -29l-4 2v-2h-390q-3 -68 36 -112.5t109 -44.5q101 0 144 70h76q-30 -60 -91.5 -95t-139.5 -35q-104 0 -160 70.5t-39 173.5t97.5 173t183.5 70zM330 416q-71 0 -125 -45t-73 -114h327
q8 72 -26.5 115.5t-102.5 43.5z" />
    <glyph glyph-name="eacute" unicode="&#xe9;" horiz-adv-x="582" 
d="M384 543h-64l105 142h77zM339 474q100 0 150.5 -67.5t34.5 -173.5q-4 -20 -7 -29l-4 2v-2h-390q-3 -68 36 -112.5t109 -44.5q101 0 144 70h76q-30 -60 -91.5 -95t-139.5 -35q-104 0 -160 70.5t-39 173.5t97.5 173t183.5 70zM330 416q-71 0 -125 -45t-73 -114h327
q8 72 -26.5 115.5t-102.5 43.5z" />
    <glyph glyph-name="ecircumflex" unicode="&#xea;" horiz-adv-x="582" 
d="M277 536h-71l149 144h74l96 -144h-64l-74 104zM339 474q100 0 150.5 -67.5t34.5 -173.5q-4 -20 -7 -29l-4 2v-2h-390q-3 -68 36 -112.5t109 -44.5q101 0 144 70h76q-30 -60 -91.5 -95t-139.5 -35q-104 0 -160 70.5t-39 173.5t97.5 173t183.5 70zM330 416q-71 0 -125 -45
t-73 -114h327q8 72 -26.5 115.5t-102.5 43.5z" />
    <glyph glyph-name="edieresis" unicode="&#xeb;" horiz-adv-x="582" 
d="M261 568q-20 0 -33.5 13.5t-13.5 32.5t13.5 32.5t33.5 13.5t33.5 -13.5t13.5 -32.5t-13.5 -32.5t-33.5 -13.5zM444 568q-20 0 -34 13.5t-14 32.5t14 32.5t34 13.5t33.5 -13.5t13.5 -32.5t-13.5 -32.5t-33.5 -13.5zM339 474q100 0 150.5 -67.5t34.5 -173.5q-4 -20 -7 -29
l-4 2v-2h-390q-3 -68 36 -112.5t109 -44.5q101 0 144 70h76q-30 -60 -91.5 -95t-139.5 -35q-104 0 -160 70.5t-39 173.5t97.5 173t183.5 70zM330 416q-71 0 -125 -45t-73 -114h327q8 72 -26.5 115.5t-102.5 43.5z" />
    <glyph glyph-name="igrave" unicode="&#xec;" horiz-adv-x="236" 
d="M200 544h-64l-93 142h76zM193 462l-82 -462h-68l82 462h68z" />
    <glyph glyph-name="iacute" unicode="&#xed;" horiz-adv-x="236" 
d="M320 685l-118 -142h-64l105 142h77zM193 462l-82 -462h-68l82 462h68z" />
    <glyph glyph-name="icircumflex" unicode="&#xee;" horiz-adv-x="236" 
d="M205 640l-110 -104h-71l149 144h74l96 -144h-64zM193 462l-82 -462h-68l82 462h68z" />
    <glyph glyph-name="idieresis" unicode="&#xef;" horiz-adv-x="236" 
d="M79 660q20 0 33.5 -13.5t13.5 -32.5t-13.5 -32.5t-33.5 -13.5t-33.5 13.5t-13.5 32.5t13.5 32.5t33.5 13.5zM262 660q20 0 33.5 -13.5t13.5 -32.5t-13.5 -32.5t-33.5 -13.5t-34 13.5t-14 32.5t14 32.5t34 13.5zM193 462l-82 -462h-68l82 462h68z" />
    <glyph glyph-name="eth" unicode="&#xf0;" horiz-adv-x="610" 
d="M509 627l-61 -21q52 -53 81 -132.5t29 -163.5q0 -144 -87.5 -234.5t-206.5 -90.5q-93 0 -151 59t-58 149q0 115 87 198t201 83q94 0 144 -65q-23 102 -103 175l-178 -62l-9 48l142 48q-44 32 -115 57l78 30q61 -24 107 -61l91 31zM273 47q83 0 148 65.5t65 153.5
q0 66 -40 105.5t-110 39.5q-84 0 -147.5 -62.5t-63.5 -146.5q0 -66 41 -110.5t107 -44.5z" />
    <glyph glyph-name="ntilde" unicode="&#xf1;" horiz-adv-x="584" 
d="M245 583h-49q0 44 24.5 68t56.5 22.5t62 -15.5l34 -21q33 -19 56 -9.5t23 41.5h49q0 -45 -23.5 -69.5t-55.5 -23.5t-64 17l-35 21q-29 18 -53.5 9t-24.5 -40zM361 477q88 0 132.5 -57.5t26.5 -153.5l-46 -266h-69l47 263q13 71 -18.5 111t-95.5 40q-44 0 -90.5 -22.5
t-83.5 -63.5l-58 -328h-68l82 462h68l-10 -55q81 70 183 70z" />
    <glyph glyph-name="ograve" unicode="&#xf2;" horiz-adv-x="611" 
d="M388 544h-64l-93 142h76zM348 474q91 0 148.5 -59t57.5 -148q0 -115 -88 -198.5t-204 -83.5q-92 0 -149.5 59t-57.5 149q0 116 88 198.5t205 82.5zM273 47q84 0 148 63.5t64 147.5q0 65 -41 109t-107 44q-85 0 -148.5 -62.5t-63.5 -146.5q0 -67 41 -111t107 -44z" />
    <glyph glyph-name="oacute" unicode="&#xf3;" horiz-adv-x="611" 
d="M508 685l-118 -142h-64l105 142h77zM348 474q91 0 148.5 -59t57.5 -148q0 -115 -88 -198.5t-204 -83.5q-92 0 -149.5 59t-57.5 149q0 116 88 198.5t205 82.5zM273 47q84 0 148 63.5t64 147.5q0 65 -41 109t-107 44q-85 0 -148.5 -62.5t-63.5 -146.5q0 -67 41 -111
t107 -44z" />
    <glyph glyph-name="ocircumflex" unicode="&#xf4;" horiz-adv-x="611" 
d="M392 640l-110 -104h-71l149 144h74l96 -144h-64zM348 474q91 0 148.5 -59t57.5 -148q0 -115 -88 -198.5t-204 -83.5q-92 0 -149.5 59t-57.5 149q0 116 88 198.5t205 82.5zM273 47q84 0 148 63.5t64 147.5q0 65 -41 109t-107 44q-85 0 -148.5 -62.5t-63.5 -146.5
q0 -67 41 -111t107 -44z" />
    <glyph glyph-name="otilde" unicode="&#xf5;" horiz-adv-x="611" 
d="M473 668h49q0 -44 -23.5 -69t-55.5 -24t-64 17l-35 22q-29 18 -53.5 8.5t-24.5 -40.5h-49q0 44 25 68.5t57 23t61 -15.5l34 -21q33 -20 56 -10t23 41zM348 474q91 0 148.5 -59t57.5 -148q0 -115 -88 -198.5t-204 -83.5q-92 0 -149.5 59t-57.5 149q0 116 88 198.5
t205 82.5zM273 47q84 0 148 63.5t64 147.5q0 65 -41 109t-107 44q-85 0 -148.5 -62.5t-63.5 -146.5q0 -67 41 -111t107 -44z" />
    <glyph glyph-name="odieresis" unicode="&#xf6;" horiz-adv-x="611" 
d="M281 660q20 0 33.5 -13.5t13.5 -32.5t-13.5 -32.5t-33.5 -13.5t-33.5 13t-13.5 33t13.5 33t33.5 13zM464 660q20 0 33.5 -13.5t13.5 -32.5t-13.5 -32.5t-33.5 -13.5t-34 13.5t-14 32.5t14 32.5t34 13.5zM348 474q91 0 148.5 -59t57.5 -148q0 -115 -88 -198.5t-204 -83.5
q-92 0 -149.5 59t-57.5 149q0 116 88 198.5t205 82.5zM273 47q84 0 148 63.5t64 147.5q0 65 -41 109t-107 44q-85 0 -148.5 -62.5t-63.5 -146.5q0 -67 41 -111t107 -44z" />
    <glyph glyph-name="divide" unicode="&#xf7;" horiz-adv-x="684" 
d="M391 464q-19 0 -32.5 13t-13.5 32t13.5 32t32.5 13t32.5 -13t13.5 -32t-13.5 -32t-32.5 -13zM134 355h459l-12 -64h-459zM325 94q-20 0 -33 12.5t-13 31.5t13 32t33 13q19 0 32.5 -13t13.5 -32t-13.5 -31.5t-32.5 -12.5z" />
    <glyph glyph-name="oslash" unicode="&#xf8;" horiz-adv-x="611" 
d="M557 447l-47 -47q44 -55 44 -133q0 -115 -88 -198.5t-204 -83.5q-74 0 -131 42l-52 -51l-40 39l54 53q-38 54 -38 125q0 116 88 198.5t205 82.5q69 0 121 -36l48 48zM125 202q0 -47 20 -82l273 268q-35 23 -81 23q-85 0 -148.5 -62.5t-63.5 -146.5zM485 258q0 51 -27 91
l-277 -272q39 -30 92 -30q84 0 148 63.5t64 147.5z" />
    <glyph glyph-name="ugrave" unicode="&#xf9;" horiz-adv-x="587" 
d="M308 544l-93 142h76l81 -142h-64zM544 462l-81 -462h-68l9 53q-81 -68 -182 -68q-88 0 -132 57t-27 153l46 267h69l-47 -263q-13 -72 18.5 -112t95.5 -40q94 0 173 85l58 330h68z" />
    <glyph glyph-name="uacute" unicode="&#xfa;" horiz-adv-x="594" 
d="M369 543h-64l105 142h77zM544 462l-81 -462h-68l9 53q-81 -68 -182 -68q-88 0 -132 57t-27 153l46 267h69l-47 -263q-13 -72 18.5 -112t95.5 -40q94 0 173 85l58 330h68z" />
    <glyph glyph-name="ucircumflex" unicode="&#xfb;" horiz-adv-x="587" 
d="M246 536h-71l150 144h73l97 -144h-65l-74 105zM544 462l-81 -462h-68l9 53q-81 -68 -182 -68q-88 0 -132 57t-27 153l46 267h69l-47 -263q-13 -72 18.5 -112t95.5 -40q94 0 173 85l58 330h68z" />
    <glyph glyph-name="udieresis" unicode="&#xfc;" horiz-adv-x="587" 
d="M246 568q-20 0 -33.5 13t-13.5 33t13.5 33t33.5 13t33.5 -13.5t13.5 -32.5t-13.5 -32.5t-33.5 -13.5zM429 568q-20 0 -34 13.5t-14 32.5t14 32.5t34 13.5t33.5 -13.5t13.5 -32.5t-13.5 -32.5t-33.5 -13.5zM544 462l-81 -462h-68l9 53q-81 -68 -182 -68q-88 0 -132 57
t-27 153l46 267h69l-47 -263q-13 -72 18.5 -112t95.5 -40q94 0 173 85l58 330h68z" />
    <glyph glyph-name="yacute" unicode="&#xfd;" horiz-adv-x="592" 
d="M366 543h-64l105 142h77zM599 462l-448 -710h-78l145 230l-149 480h74l124 -402l254 402h78z" />
    <glyph glyph-name="thorn" unicode="&#xfe;" horiz-adv-x="615" 
d="M358 474q88 0 144.5 -59.5t56.5 -148.5q0 -112 -87 -195.5t-199 -83.5q-102 0 -157 65l-53 -300h-68l164 928h68l-48 -271q79 65 179 65zM274 47q85 0 150 63.5t65 146.5q0 66 -42 111.5t-108 45.5q-101 0 -174 -86l-35 -195q44 -86 144 -86z" />
    <glyph glyph-name="ydieresis" unicode="&#xff;" horiz-adv-x="592" 
d="M243 568q-20 0 -33.5 13.5t-13.5 32.5t13.5 32.5t33.5 13.5t33.5 -13.5t13.5 -32.5t-13.5 -32.5t-33.5 -13.5zM426 568q-20 0 -34 13.5t-14 32.5t14 32.5t34 13.5t33.5 -13.5t13.5 -32.5t-13.5 -32.5t-33.5 -13.5zM599 462l-448 -710h-78l145 230l-149 480h74l124 -402
l254 402h78z" />
    <glyph glyph-name="Amacron" unicode="&#x100;" horiz-adv-x="746" 
d="M603 769h-278l10 51h278zM544 198h-353l-123 -198h-79l429 685h67l188 -685h-75zM527 263l-90 331l-206 -331h296z" />
    <glyph glyph-name="amacron" unicode="&#x101;" horiz-adv-x="618" 
d="M525 563h-278l10 51h278zM575 462l-82 -462h-68l9 51q-78 -64 -178 -64q-89 0 -144.5 58.5t-55.5 148.5q0 113 87 196.5t199 83.5q100 0 156 -64l9 52h68zM275 47q101 0 173 84l35 198q-42 85 -143 85q-84 0 -149 -63.5t-65 -147.5q0 -67 41.5 -111.5t107.5 -44.5z" />
    <glyph glyph-name="Abreve" unicode="&#x102;" horiz-adv-x="746" 
d="M464 764q-60 0 -95 36.5t-24 102.5h53q-8 -45 14 -68t58 -23q35 0 66.5 23.5t38.5 67.5h55q-11 -66 -58 -102.5t-108 -36.5zM544 198h-353l-123 -198h-79l429 685h67l188 -685h-75zM527 263l-90 331l-206 -331h296z" />
    <glyph glyph-name="abreve" unicode="&#x103;" horiz-adv-x="619" 
d="M376 532q-61 0 -95.5 36t-23.5 103h52q-8 -45 14 -68t58 -23q35 0 66.5 23t39.5 68h55q-11 -67 -58 -103t-108 -36zM575 462l-82 -462h-68l9 51q-78 -64 -178 -64q-89 0 -144.5 58.5t-55.5 148.5q0 113 87 196.5t199 83.5q100 0 156 -64l9 52h68zM275 47q101 0 173 84
l35 198q-42 85 -143 85q-84 0 -149 -63.5t-65 -147.5q0 -67 41.5 -111.5t107.5 -44.5z" />
    <glyph glyph-name="Aogonek" unicode="&#x104;" horiz-adv-x="746" 
d="M686 -128l7 -53q-19 -7 -50 -7q-58 0 -93 29t-35 76q0 64 78 102l-49 179h-353l-123 -198h-79l429 685h67l188 -685h-20q-79 -26 -79 -76q0 -26 20.5 -41t57.5 -15q12 0 34 4zM527 263l-90 331l-206 -331h296z" />
    <glyph glyph-name="aogonek" unicode="&#x105;" horiz-adv-x="618" 
d="M487 -134q12 0 34 4l7 -53q-19 -7 -50 -7q-58 0 -93 29t-35 76q0 64 78 102l6 34q-78 -64 -178 -64q-89 0 -144.5 58.5t-55.5 148.5q0 113 87 196.5t199 83.5q100 0 156 -64l9 52h68l-82 -460l1 -2q-85 -27 -85 -78q0 -26 20.5 -41t57.5 -15zM275 47q101 0 173 84l35 198
q-42 85 -143 85q-84 0 -149 -63.5t-65 -147.5q0 -67 41.5 -111.5t107.5 -44.5z" />
    <glyph glyph-name="Cacute" unicode="&#x106;" horiz-adv-x="802" 
d="M541 758h-64l105 142h77zM384 54q91 0 169 51t113 134h74q-45 -114 -144.5 -183.5t-222.5 -69.5q-148 0 -233 101.5t-59 252.5q26 149 147.5 251.5t269.5 102.5q123 0 198 -69.5t79 -183.5h-73q-7 85 -64.5 135t-152.5 50q-120 0 -215.5 -82.5t-116.5 -203.5
q-22 -122 45 -204t186 -82z" />
    <glyph glyph-name="cacute" unicode="&#x107;" horiz-adv-x="575" 
d="M387 543h-64l105 142h77zM268 50q56 0 100 28t64 76h71q-27 -74 -95 -120.5t-151 -46.5q-107 0 -162 69t-37 175q18 103 99.5 173t185.5 70q83 0 134 -46t53 -121h-71q-3 47 -37.5 75.5t-89.5 28.5q-77 0 -134 -52t-71 -128q-14 -78 25 -129.5t116 -51.5z" />
    <glyph glyph-name="Cdotaccent" unicode="&#x10a;" horiz-adv-x="802" 
d="M513 769q-20 0 -34.5 14t-14.5 34t14.5 34t34.5 14t34.5 -14t14.5 -34t-14.5 -34t-34.5 -14zM384 54q91 0 169 51t113 134h74q-45 -114 -144.5 -183.5t-222.5 -69.5q-148 0 -233 101.5t-59 252.5q26 149 147.5 251.5t269.5 102.5q123 0 198 -69.5t79 -183.5h-73
q-7 85 -64.5 135t-152.5 50q-120 0 -215.5 -82.5t-116.5 -203.5q-22 -122 45 -204t186 -82z" />
    <glyph glyph-name="cdotaccent" unicode="&#x10b;" horiz-adv-x="575" 
d="M355 566q-20 0 -34.5 14t-14.5 34t14.5 34t34.5 14t34.5 -14t14.5 -34t-14.5 -34t-34.5 -14zM268 50q56 0 100 28t64 76h71q-27 -74 -95 -120.5t-151 -46.5q-107 0 -162 69t-37 175q18 103 99.5 173t185.5 70q83 0 134 -46t53 -121h-71q-3 47 -37.5 75.5t-89.5 28.5
q-77 0 -134 -52t-71 -128q-14 -78 25 -129.5t116 -51.5z" />
    <glyph glyph-name="Ccaron" unicode="&#x10c;" horiz-adv-x="802" 
d="M496 756l-98 144h64l75 -105l111 105h69l-148 -144h-73zM384 54q91 0 169 51t113 134h74q-45 -114 -144.5 -183.5t-222.5 -69.5q-148 0 -233 101.5t-59 252.5q26 149 147.5 251.5t269.5 102.5q123 0 198 -69.5t79 -183.5h-73q-7 85 -64.5 135t-152.5 50
q-120 0 -215.5 -82.5t-116.5 -203.5q-22 -122 45 -204t186 -82z" />
    <glyph glyph-name="ccaron" unicode="&#x10d;" horiz-adv-x="575" 
d="M323 536l-98 144h64l75 -105l111 105h69l-148 -144h-73zM332 411q-77 0 -134 -52t-71 -128q-14 -78 25 -129.5t116 -51.5q56 0 100 28t64 76h71q-27 -74 -95 -120.5t-151 -46.5q-107 0 -162 69t-37 175q18 103 99.5 173t185.5 70q83 0 134 -46t53 -121h-71
q-3 47 -37.5 75.5t-89.5 28.5z" />
    <glyph glyph-name="Dcaron" unicode="&#x10e;" horiz-adv-x="755" 
d="M400 756l-98 144h64l75 -105l111 105h69l-148 -144h-73zM175 680h236q139 0 222 -78t83 -204q0 -169 -123 -283.5t-302 -114.5h-236zM137 65h166q142 0 240.5 93t98.5 229q0 101 -66 164.5t-176 63.5h-165z" />
    <glyph glyph-name="dcaron" unicode="&#x10f;" horiz-adv-x="619" 
d="M551 710h68l-126 -710h-68l9 52q-78 -64 -178 -64q-88 0 -144.5 59.5t-56.5 147.5q0 113 87 196t199 83q99 0 157 -64zM772 710l-59 -185h-54l43 185h70zM275 48q101 0 174 86l34 194q-42 87 -144 87q-84 0 -149 -63.5t-65 -147.5q0 -66 42 -111t108 -45z" />
    <glyph glyph-name="Dcroat" unicode="&#x110;" horiz-adv-x="755" 
d="M175 680h236q139 0 222 -78t83 -204q0 -169 -123 -283.5t-302 -114.5h-236l54 308h-84l12 66h84zM137 65h166q142 0 240.5 93t98.5 229q0 101 -66 164.5t-176 63.5h-165l-43 -241h163l-11 -66h-164z" />
    <glyph glyph-name="dcroat" unicode="&#x111;" horiz-adv-x="619" 
d="M659 574h-64l-102 -574h-68l9 52q-78 -64 -178 -64q-88 0 -144.5 59.5t-56.5 147.5q0 113 87 196t199 83q99 0 157 -64l29 164h-170l10 57h170l14 79h68l-14 -79h63zM275 48q101 0 174 86l34 194q-42 87 -144 87q-84 0 -149 -63.5t-65 -147.5q0 -66 42 -111t108 -45z" />
    <glyph glyph-name="Emacron" unicode="&#x112;" horiz-adv-x="643" 
d="M555 769h-278l10 51h278zM229 615l-44 -244h362l-12 -66h-361l-43 -240h402l-12 -65h-472l120 680h473l-12 -65h-401z" />
    <glyph glyph-name="emacron" unicode="&#x113;" horiz-adv-x="582" 
d="M508 563h-278l10 51h278zM339 474q100 0 150.5 -67.5t34.5 -173.5q-4 -20 -7 -29l-4 2v-2h-390q-3 -68 36 -112.5t109 -44.5q101 0 144 70h76q-30 -60 -91.5 -95t-139.5 -35q-104 0 -160 70.5t-39 173.5t97.5 173t183.5 70zM330 416q-71 0 -125 -45t-73 -114h327
q8 72 -26.5 115.5t-102.5 43.5z" />
    <glyph glyph-name="Edotaccent" unicode="&#x116;" horiz-adv-x="632" 
d="M414 769q-20 0 -34.5 14t-14.5 34t14.5 34t34.5 14t34.5 -14t14.5 -34t-14.5 -34t-34.5 -14zM229 615l-44 -244h362l-12 -66h-361l-43 -240h402l-12 -65h-472l120 680h473l-12 -65h-401z" />
    <glyph glyph-name="edotaccent" unicode="&#x117;" horiz-adv-x="584" 
d="M374 566q-20 0 -34.5 14t-14.5 34t14.5 34t34.5 14t34.5 -14t14.5 -34t-14.5 -34t-34.5 -14zM339 474q100 0 150.5 -67.5t34.5 -173.5q-4 -20 -7 -29l-4 2v-2h-390q-3 -68 36 -112.5t109 -44.5q101 0 144 70h76q-30 -60 -91.5 -95t-139.5 -35q-104 0 -160 70.5t-39 173.5
t97.5 173t183.5 70zM330 416q-71 0 -125 -45t-73 -114h327q8 72 -26.5 115.5t-102.5 43.5z" />
    <glyph glyph-name="Eogonek" unicode="&#x118;" horiz-adv-x="643" 
d="M229 615l-44 -244h362l-12 -66h-361l-43 -240h402l-12 -65h-1q-85 -27 -85 -78q0 -26 20.5 -41t57.5 -15q12 0 34 4l7 -53q-19 -7 -50 -7q-58 0 -93 29t-35 76q0 50 49 85h-376l120 680h473l-12 -65h-401z" />
    <glyph glyph-name="eogonek" unicode="&#x119;" horiz-adv-x="582" 
d="M338 474q99 0 150 -67.5t34 -173.5q-2 -18 -6 -29l-4 2v-2h-390q-4 -68 35 -112.5t109 -44.5q101 0 144 70h76q-18 -35 -47 -63l-10 -10l-10 -10t-8 -8.5t-7.5 -8.5t-5.5 -8t-5 -9t-3.5 -8t-3.5 -9t-1.5 -9.5t-0.5 -11.5q0 -28 20.5 -43.5t57.5 -15.5q17 0 35 3l6 -53
q-23 -7 -50 -7q-57 0 -92.5 29t-35.5 76q0 26 10 47q-39 -11 -80 -11q-104 0 -160 70.5t-38 173.5q17 103 97.5 173t183.5 70zM329 416q-71 0 -125 -45t-73 -114h327q8 72 -27 115.5t-102 43.5z" />
    <glyph glyph-name="Ecaron" unicode="&#x11a;" horiz-adv-x="643" 
d="M402 756l-98 144h64l75 -105l111 105h69l-148 -144h-73zM229 615l-44 -244h362l-12 -66h-361l-43 -240h402l-12 -65h-472l120 680h473l-12 -65h-401z" />
    <glyph glyph-name="ecaron" unicode="&#x11b;" horiz-adv-x="582" 
d="M320 536l-98 144h64l75 -105l111 105h69l-148 -144h-73zM339 474q100 0 150.5 -67.5t34.5 -173.5q-4 -20 -7 -29l-4 2v-2h-390q-3 -68 36 -112.5t109 -44.5q101 0 144 70h76q-30 -60 -91.5 -95t-139.5 -35q-104 0 -160 70.5t-39 173.5t97.5 173t183.5 70zM330 416
q-71 0 -125 -45t-73 -114h327q8 72 -26.5 115.5t-102.5 43.5z" />
    <glyph glyph-name="Gbreve" unicode="&#x11e;" horiz-adv-x="822" 
d="M508 764q-60 0 -95 36.5t-24 102.5h53q-8 -45 14 -68t58 -23q35 0 66.5 23.5t38.5 67.5h55q-11 -66 -58 -102.5t-108 -36.5zM762 356l-5 -16h2l-60 -340h-58l20 147q-50 -75 -125.5 -118t-167.5 -43q-149 0 -232 102.5t-58 247.5q28 152 149.5 255t270.5 103
q114 0 193 -64t86 -174h-71q-9 83 -70 127.5t-148 44.5q-121 0 -218.5 -83.5t-119.5 -208.5q-20 -117 45 -199t185 -82q106 0 185 66t110 170h-259l11 65h335z" />
    <glyph glyph-name="gbreve" unicode="&#x11f;" horiz-adv-x="619" 
d="M359 532q-60 0 -95 36.5t-24 102.5h53q-8 -45 14 -68t58 -23q35 0 66.5 23.5t38.5 67.5h55q-11 -66 -58 -102.5t-108 -36.5zM576 462l-85 -477q-18 -104 -92.5 -166t-177.5 -62q-90 0 -144.5 48t-53.5 124h70q2 -49 39.5 -79t99.5 -30q73 0 125.5 44.5t65.5 120.5l14 81
q-82 -66 -185 -66q-86 0 -140.5 58.5t-54.5 143.5q0 112 83.5 194t195.5 82q103 0 163 -66l9 50h68zM271 60q107 0 181 87l32 183q-43 88 -149 88q-85 0 -146.5 -61.5t-61.5 -145.5q0 -63 39.5 -107t104.5 -44z" />
    <glyph glyph-name="Gdotaccent" unicode="&#x120;" horiz-adv-x="826" 
d="M511 769q-20 0 -34.5 14t-14.5 34t14.5 34t34.5 14t34.5 -14t14.5 -34t-14.5 -34t-34.5 -14zM762 356l-5 -16h2l-60 -340h-58l20 147q-50 -75 -125.5 -118t-167.5 -43q-149 0 -232 102.5t-58 247.5q28 152 149.5 255t270.5 103q114 0 193 -64t86 -174h-71
q-9 83 -70 127.5t-148 44.5q-121 0 -218.5 -83.5t-119.5 -208.5q-20 -117 45 -199t185 -82q106 0 185 66t110 170h-259l11 65h335z" />
    <glyph glyph-name="gdotaccent" unicode="&#x121;" horiz-adv-x="619" 
d="M373 566q-20 0 -34.5 14t-14.5 34t14.5 34t34.5 14t34.5 -14t14.5 -34t-14.5 -34t-34.5 -14zM576 462l-85 -477q-18 -104 -92.5 -166t-177.5 -62q-90 0 -144.5 48t-53.5 124h70q2 -49 39.5 -79t99.5 -30q73 0 125.5 44.5t65.5 120.5l14 81q-82 -66 -185 -66
q-86 0 -140.5 58.5t-54.5 143.5q0 112 83.5 194t195.5 82q103 0 163 -66l9 50h68zM271 60q107 0 181 87l32 183q-43 88 -149 88q-85 0 -146.5 -61.5t-61.5 -145.5q0 -63 39.5 -107t104.5 -44z" />
    <glyph glyph-name="Gcommaaccent" unicode="&#x122;" horiz-adv-x="822" 
d="M762 356l-5 -16h2l-60 -340h-58l20 147q-50 -75 -125.5 -118t-167.5 -43q-149 0 -232 102.5t-58 247.5q28 152 149.5 255t270.5 103q114 0 193 -64t86 -174h-71q-9 83 -70 127.5t-148 44.5q-121 0 -218.5 -83.5t-119.5 -208.5q-20 -117 45 -199t185 -82q106 0 185 66
t110 170h-259l11 65h335zM352 -66q19 0 32.5 -12.5t13.5 -32.5q0 -14 -11 -32.5t-63 -93.5h-41l57 88q-34 7 -34 40q0 18 13.5 30.5t32.5 12.5z" />
    <glyph glyph-name="gcommaaccent" unicode="&#x123;" horiz-adv-x="621" 
d="M366 564q-19 0 -32.5 12.5t-13.5 32.5q0 15 11 33.5t63 93.5h41l-57 -89q34 -7 34 -39q0 -18 -13.5 -31t-32.5 -13zM576 462l-85 -477q-18 -104 -92.5 -166t-177.5 -62q-90 0 -144.5 48t-53.5 124h70q2 -49 39.5 -79t99.5 -30q73 0 125.5 44.5t65.5 120.5l14 81
q-82 -66 -185 -66q-86 0 -140.5 58.5t-54.5 143.5q0 112 83.5 194t195.5 82q103 0 163 -66l9 50h68zM271 60q107 0 181 87l32 183q-43 88 -149 88q-85 0 -146.5 -61.5t-61.5 -145.5q0 -63 39.5 -107t104.5 -44z" />
    <glyph glyph-name="Hbar" unicode="&#x126;" horiz-adv-x="745" 
d="M744 502h-47l-89 -502h-71l54 304h-411l-54 -304h-71l89 502h-51l11 59h50l21 119h71l-21 -119h411l21 119h71l-21 -119h48zM626 502h-411l-24 -133h411z" />
    <glyph glyph-name="hbar" unicode="&#x127;" horiz-adv-x="584" 
d="M365 477q88 0 132.5 -57.5t26.5 -153.5l-46 -266h-69l47 263q13 71 -18.5 111t-95.5 40q-94 0 -174 -86l-58 -328h-68l103 584h-75l9 51h75l13 75h68l-13 -75h155l-9 -51h-155l-31 -177q81 70 183 70z" />
    <glyph glyph-name="Imacron" unicode="&#x12a;" horiz-adv-x="262" 
d="M373 820l-10 -51h-278l10 51h278zM126 0h-71l120 680h71z" />
    <glyph glyph-name="imacron" unicode="&#x12b;" horiz-adv-x="236" 
d="M323 614l-10 -51h-277l10 51h277zM193 462l-82 -462h-68l82 462h68z" />
    <glyph glyph-name="Iogonek" unicode="&#x12e;" horiz-adv-x="262" 
d="M119 -134q12 0 34 4l7 -53q-19 -7 -50 -7q-58 0 -93 29t-35 76q0 63 76 101l117 664h71l-120 -680q-85 -27 -85 -78q0 -26 20.5 -41t57.5 -15z" />
    <glyph glyph-name="iogonek" unicode="&#x12f;" horiz-adv-x="264" 
d="M202 683q20 0 34 -13.5t14 -32.5q0 -20 -14 -33t-34 -13t-33.5 13t-13.5 33q0 19 13.5 32.5t33.5 13.5zM207 462l-81 -462q-85 -27 -85 -78q0 -26 20.5 -41t57.5 -15q12 0 34 4l7 -53q-19 -7 -50 -7q-58 0 -93 29t-35 76q0 64 79 103l78 444h68z" />
    <glyph glyph-name="Idotaccent" unicode="&#x130;" horiz-adv-x="262" 
d="M228 770q-21 0 -35.5 14.5t-14.5 34.5q0 21 14.5 35t35.5 14t35.5 -14t14.5 -35q0 -20 -14.5 -34.5t-35.5 -14.5zM126 0h-71l120 680h71z" />
    <glyph glyph-name="dotlessi" unicode="&#x131;" horiz-adv-x="236" 
d="M193 462l-82 -462h-68l82 462h68z" />
    <glyph glyph-name="IJ" unicode="&#x132;" horiz-adv-x="876" 
d="M126 0h-71l120 680h71zM867 680l-77 -435q-22 -123 -100 -191.5t-188 -68.5q-98 0 -155.5 57.5t-52.5 151.5h72q-2 -66 35.5 -104.5t109.5 -38.5q77 0 134 53t73 142l77 434h72z" />
    <glyph glyph-name="ij" unicode="&#x133;" horiz-adv-x="521" 
d="M202 591q-20 0 -33.5 13t-13.5 33q0 19 13.5 32.5t33.5 13.5t34 -13.5t14 -32.5q0 -20 -14 -33t-34 -13zM471 591q-20 0 -33.5 13t-13.5 33q0 19 13.5 32.5t33.5 13.5t34 -13.5t14 -32.5q0 -20 -14 -33t-34 -13zM207 462l-81 -462h-68l81 462h68zM477 462l-80 -453
q-18 -100 -63.5 -145t-140.5 -46l5 60q61 4 89.5 31t40.5 93l81 460h68z" />
    <glyph glyph-name="Kcommaaccent" unicode="&#x136;" horiz-adv-x="717" 
d="M375 370l264 -370h-91l-233 317l-158 -140l-31 -177h-71l120 680h71l-70 -396l451 396h96zM304 -66q19 0 32.5 -12.5t13.5 -32.5q0 -14 -11 -32.5t-63 -93.5h-41l57 88q-34 7 -34 40q0 18 13.5 30.5t32.5 12.5z" />
    <glyph glyph-name="kcommaaccent" unicode="&#x137;" horiz-adv-x="564" 
d="M299 268l192 -268h-88l-160 222l-115 -95l-23 -127h-68l125 710h69l-87 -492l301 244h90zM237 -66q19 0 32.5 -12.5t13.5 -32.5q0 -14 -11 -32.5t-63 -93.5h-41l57 88q-34 7 -34 40q0 18 13.5 30.5t32.5 12.5z" />
    <glyph glyph-name="Lacute" unicode="&#x139;" horiz-adv-x="597" 
d="M256 758h-64l105 142h77zM516 64l-11 -64h-450l120 680h71l-109 -616h379z" />
    <glyph glyph-name="lacute" unicode="&#x13a;" horiz-adv-x="236" 
d="M375 934l-118 -142h-64l105 142h77zM237 710l-126 -710h-68l126 710h68z" />
    <glyph glyph-name="Lcommaaccent" unicode="&#x13b;" horiz-adv-x="597" 
d="M516 64l-11 -64h-450l120 680h71l-109 -616h379zM273 -66q19 0 32.5 -12.5t13.5 -32.5q0 -14 -11 -32.5t-63 -93.5h-41l57 88q-34 7 -34 40q0 18 13.5 30.5t32.5 12.5z" />
    <glyph glyph-name="lcommaaccent" unicode="&#x13c;" horiz-adv-x="236" 
d="M237 710l-126 -710h-68l126 710h68zM-9 -237l57 88q-34 7 -34 40q0 18 13.5 30.5t32.5 12.5t32.5 -12.5t13.5 -32.5q0 -14 -11 -32.5t-63 -93.5h-41z" />
    <glyph glyph-name="Lcaron" unicode="&#x13d;" horiz-adv-x="597" 
d="M516 64l-11 -64h-450l120 680h71l-109 -616h379zM394 495h-54l43 185h70z" />
    <glyph glyph-name="lcaron" unicode="&#x13e;" horiz-adv-x="236" 
d="M237 710l-126 -710h-68l126 710h68zM379 710l-59 -185h-54l43 185h70z" />
    <glyph glyph-name="Ldot" unicode="&#x13f;" horiz-adv-x="597" 
d="M516 64l-11 -64h-450l120 680h71l-109 -616h379zM378 274q-20 0 -34.5 14t-14.5 34q0 19 14.5 33t34.5 14t34.5 -14t14.5 -33q0 -20 -14.5 -34t-34.5 -14z" />
    <glyph glyph-name="ldot" unicode="&#x140;" horiz-adv-x="339" 
d="M237 710l-126 -710h-68l126 710h68zM273 269q-20 0 -34.5 14t-14.5 34t14.5 34t34.5 14t34.5 -14t14.5 -34t-14.5 -34t-34.5 -14z" />
    <glyph glyph-name="Lslash" unicode="&#x141;" horiz-adv-x="597" 
d="M516 64l-11 -64h-450l43 246l-77 -35l11 63l78 35l65 371h71l-59 -336l177 81l-11 -62l-177 -81l-39 -218h379z" />
    <glyph glyph-name="lslash" unicode="&#x142;" horiz-adv-x="236" 
d="M252 379l-80 -37l-61 -342h-68l55 308l-78 -36l13 71l77 36l59 331h68l-53 -297l81 37z" />
    <glyph glyph-name="Nacute" unicode="&#x143;" horiz-adv-x="768" 
d="M484 758h-64l105 142h77zM751 680l-120 -680h-59l-349 556l-97 -556h-71l120 680h50l356 -563l99 563h71z" />
    <glyph glyph-name="nacute" unicode="&#x144;" horiz-adv-x="584" 
d="M374 543h-64l105 142h77zM361 477q88 0 132.5 -57.5t26.5 -153.5l-46 -266h-69l47 263q13 71 -18.5 111t-95.5 40q-44 0 -90.5 -22.5t-83.5 -63.5l-58 -328h-68l82 462h68l-10 -55q81 70 183 70z" />
    <glyph glyph-name="Ncommaaccent" unicode="&#x145;" horiz-adv-x="768" 
d="M751 680l-120 -680h-59l-349 556l-97 -556h-71l120 680h50l356 -563l99 563h71zM334 -66q19 0 32.5 -12.5t13.5 -32.5q0 -14 -11 -32.5t-63 -93.5h-41l57 88q-34 7 -34 40q0 18 13.5 30.5t32.5 12.5z" />
    <glyph glyph-name="ncommaaccent" unicode="&#x146;" horiz-adv-x="584" 
d="M361 477q88 0 132.5 -57.5t26.5 -153.5l-46 -266h-69l47 263q13 71 -18.5 111t-95.5 40q-44 0 -90.5 -22.5t-83.5 -63.5l-58 -328h-68l82 462h68l-10 -55q81 70 183 70zM239 -66q19 0 32.5 -12.5t13.5 -32.5q0 -14 -11 -32.5t-63 -93.5h-41l57 88q-34 7 -34 40
q0 18 13.5 30.5t32.5 12.5z" />
    <glyph glyph-name="Ncaron" unicode="&#x147;" horiz-adv-x="768" 
d="M440 756l-98 144h64l75 -105l111 105h69l-148 -144h-73zM751 680l-120 -680h-59l-349 556l-97 -556h-71l120 680h50l356 -563l99 563h71z" />
    <glyph glyph-name="ncaron" unicode="&#x148;" horiz-adv-x="584" 
d="M310 536l-98 144h64l75 -105l111 105h69l-148 -144h-73zM361 477q88 0 132.5 -57.5t26.5 -153.5l-46 -266h-69l47 263q13 71 -18.5 111t-95.5 40q-44 0 -90.5 -22.5t-83.5 -63.5l-58 -328h-68l82 462h68l-10 -55q81 70 183 70z" />
    <glyph glyph-name="Omacron" unicode="&#x14c;" horiz-adv-x="836" 
d="M670 820l-10 -51h-278l10 51h278zM497 694q131 0 215.5 -87t84.5 -216q0 -107 -60 -201t-157 -149t-203 -55q-131 0 -215.5 87t-84.5 216q0 107 60 201t157 149t203 55zM383 54q86 0 164.5 44.5t127.5 121.5t49 165q0 103 -64.5 172t-170.5 69q-134 0 -236.5 -98.5
t-102.5 -231.5q0 -103 64.5 -172.5t168.5 -69.5z" />
    <glyph glyph-name="omacron" unicode="&#x14d;" horiz-adv-x="611" 
d="M523 614l-10 -51h-278l10 51h278zM348 474q91 0 148.5 -59t57.5 -148q0 -115 -88 -198.5t-204 -83.5q-92 0 -149.5 59t-57.5 149q0 116 88 198.5t205 82.5zM273 47q84 0 148 63.5t64 147.5q0 65 -41 109t-107 44q-85 0 -148.5 -62.5t-63.5 -146.5q0 -67 41 -111t107 -44z
" />
    <glyph glyph-name="Ohungarumlaut" unicode="&#x150;" horiz-adv-x="836" 
d="M544 900l-83 -142h-60l71 142h72zM679 900l-84 -142h-59l72 142h71zM497 694q131 0 215.5 -87t84.5 -216q0 -107 -60 -201t-157 -149t-203 -55q-131 0 -215.5 87t-84.5 216q0 107 60 201t157 149t203 55zM383 54q86 0 164.5 44.5t127.5 121.5t49 165q0 103 -64.5 172
t-170.5 69q-134 0 -236.5 -98.5t-102.5 -231.5q0 -103 64.5 -172.5t168.5 -69.5z" />
    <glyph glyph-name="ohungarumlaut" unicode="&#x151;" horiz-adv-x="611" 
d="M401 686l-84 -142h-60l72 142h72zM536 686l-84 -142h-60l72 142h72zM348 474q91 0 148.5 -59t57.5 -148q0 -115 -88 -198.5t-204 -83.5q-92 0 -149.5 59t-57.5 149q0 116 88 198.5t205 82.5zM273 47q84 0 148 63.5t64 147.5q0 65 -41 109t-107 44q-85 0 -148.5 -62.5
t-63.5 -146.5q0 -67 41 -111t107 -44z" />
    <glyph glyph-name="OE" unicode="&#x152;" horiz-adv-x="1046" 
d="M631 615l-44 -244h363l-12 -66h-362l-43 -240h403l-12 -65h-527q-147 0 -236 81t-89 209q0 164 129.5 277t315.5 113h527l-12 -65h-401zM560 613l-54 1q-154 0 -257.5 -90.5t-103.5 -224.5q0 -103 71.5 -168t191.5 -65l56 1z" />
    <glyph glyph-name="oe" unicode="&#x153;" horiz-adv-x="1008" 
d="M763 474q100 0 151 -67.5t34 -173.5q-2 -13 -7 -29l-4 2v-2h-390q-3 -68 36 -112.5t109 -44.5q101 0 144 70h76q-30 -60 -91.5 -95t-139.5 -35q-67 0 -115.5 30.5t-70.5 82.5q-42 -53 -103.5 -84t-129.5 -31q-92 0 -149.5 59t-57.5 149q0 116 88 198.5t205 82.5
q66 0 115 -32t73 -86q41 54 100.5 86t126.5 32zM754 416q-71 0 -124.5 -45t-73.5 -114h328q8 72 -27 115.5t-103 43.5zM273 47q71 0 130 47.5t76 117.5l3 19q2 8 2 12l1 15q0 65 -41 109t-107 44q-85 0 -148.5 -62.5t-63.5 -146.5q0 -67 41 -111t107 -44z" />
    <glyph glyph-name="Racute" unicode="&#x154;" horiz-adv-x="691" 
d="M413 758h-64l105 142h77zM652 495q0 -94 -63 -159t-165 -83l173 -253h-83l-169 247h-175l-44 -247h-71l120 680h244q107 0 170 -49.5t63 -135.5zM181 312h180q94 0 156.5 47.5t62.5 125.5q0 60 -45 95t-121 35h-179z" />
    <glyph glyph-name="racute" unicode="&#x155;" horiz-adv-x="356" 
d="M278 543h-64l105 142h77zM188 462l-14 -80q82 92 197 92l-11 -65q-119 -3 -200 -106l-54 -303h-68l82 462h68z" />
    <glyph glyph-name="Rcommaaccent" unicode="&#x156;" horiz-adv-x="691" 
d="M652 495q0 -94 -63 -159t-165 -83l173 -253h-83l-169 247h-175l-44 -247h-71l120 680h244q107 0 170 -49.5t63 -135.5zM181 312h180q94 0 156.5 47.5t62.5 125.5q0 60 -45 95t-121 35h-179zM280 -66q19 0 32.5 -12.5t13.5 -32.5q0 -14 -11 -32.5t-63 -93.5h-41l57 88
q-34 7 -34 40q0 18 13.5 30.5t32.5 12.5z" />
    <glyph glyph-name="rcommaaccent" unicode="&#x157;" horiz-adv-x="356" 
d="M188 462l-14 -80q82 92 197 92l-11 -65q-119 -3 -200 -106l-54 -303h-68l82 462h68zM55 -66q19 0 32.5 -12.5t13.5 -32.5q0 -14 -11 -32.5t-63 -93.5h-41l57 88q-34 7 -34 40q0 18 13.5 30.5t32.5 12.5z" />
    <glyph glyph-name="Rcaron" unicode="&#x158;" horiz-adv-x="691" 
d="M369 756l-98 144h64l75 -105l111 105h69l-148 -144h-73zM652 495q0 -94 -63 -159t-165 -83l173 -253h-83l-169 247h-175l-44 -247h-71l120 680h244q107 0 170 -49.5t63 -135.5zM181 312h180q94 0 156.5 47.5t62.5 125.5q0 60 -45 95t-121 35h-179z" />
    <glyph glyph-name="rcaron" unicode="&#x159;" horiz-adv-x="356" 
d="M214 536l-98 144h64l75 -105l111 105h69l-148 -144h-73zM188 462l-14 -80q82 92 197 92l-11 -65q-119 -3 -200 -106l-54 -303h-68l82 462h68z" />
    <glyph glyph-name="Sacute" unicode="&#x15a;" horiz-adv-x="660" 
d="M553 900l-118 -142h-64l105 142h77zM407 695q107 0 171 -51t59 -148h-71q0 64 -41 100.5t-124 36.5q-86 0 -141 -40t-55 -104q0 -79 121 -101l100 -20q161 -33 161 -151q0 -102 -83 -167t-210 -65q-122 0 -185.5 61t-56.5 171h70q-2 -83 44.5 -125.5t142.5 -42.5
q89 0 145.5 42t56.5 108q0 37 -27 63.5t-82 36.5l-115 23q-79 15 -119.5 56t-38.5 104q3 97 83 155t195 58z" />
    <glyph glyph-name="sacute" unicode="&#x15b;" horiz-adv-x="527" 
d="M465 685l-118 -142h-64l105 142h77zM42 143h64q2 -49 37 -75t99 -26q63 0 102 24.5t39 65.5q0 54 -69 65l-102 18q-117 21 -117 106q0 70 59 112.5t150 42.5q80 0 132 -36.5t45 -110.5h-64q4 44 -28.5 68t-91.5 24q-61 0 -97 -23.5t-36 -61.5q0 -50 79 -64l90 -16
q117 -20 117 -109q0 -75 -61.5 -118.5t-156.5 -43.5q-88 0 -140.5 40t-49.5 118z" />
    <glyph glyph-name="Scedilla" unicode="&#x15e;" horiz-adv-x="660" 
d="M407 695q107 0 171 -51t59 -148h-71q0 64 -41 100.5t-124 36.5q-86 0 -141 -40t-55 -104q0 -79 121 -101l100 -20q161 -33 161 -151q0 -102 -83 -167t-210 -65q-122 0 -185.5 61t-56.5 171h70q-2 -83 44.5 -125.5t142.5 -42.5q89 0 145.5 42t56.5 108q0 37 -27 63.5
t-82 36.5l-115 23q-79 15 -119.5 56t-38.5 104q3 97 83 155t195 58zM214 -215h-62l72 144h69z" />
    <glyph glyph-name="scedilla" unicode="&#x15f;" horiz-adv-x="527" 
d="M42 143h64q2 -49 37 -75t99 -26q63 0 102 24.5t39 65.5q0 54 -69 65l-102 18q-117 21 -117 106q0 70 59 112.5t150 42.5q80 0 132 -36.5t45 -110.5h-64q4 44 -28.5 68t-91.5 24q-61 0 -97 -23.5t-36 -61.5q0 -50 79 -64l90 -16q117 -20 117 -109q0 -75 -61.5 -118.5
t-156.5 -43.5q-88 0 -140.5 40t-49.5 118zM166 -215h-62l72 144h69z" />
    <glyph glyph-name="Scaron" unicode="&#x160;" horiz-adv-x="660" 
d="M612 900l-148 -144h-73l-98 144h64l75 -105l111 105h69zM407 695q107 0 171 -51t59 -148h-71q0 64 -41 100.5t-124 36.5q-86 0 -141 -40t-55 -104q0 -79 121 -101l100 -20q161 -33 161 -151q0 -102 -83 -167t-210 -65q-122 0 -185.5 61t-56.5 171h70q-2 -83 44.5 -125.5
t142.5 -42.5q89 0 145.5 42t56.5 108q0 37 -27 63.5t-82 36.5l-115 23q-79 15 -119.5 56t-38.5 104q3 97 83 155t195 58z" />
    <glyph glyph-name="scaron" unicode="&#x161;" horiz-adv-x="527" 
d="M504 680l-148 -144h-73l-98 144h64l75 -105l111 105h69zM42 143h64q2 -49 37 -75t99 -26q63 0 102 24.5t39 65.5q0 54 -69 65l-102 18q-117 21 -117 106q0 70 59 112.5t150 42.5q80 0 132 -36.5t45 -110.5h-64q4 44 -28.5 68t-91.5 24q-61 0 -97 -23.5t-36 -61.5
q0 -50 79 -64l90 -16q117 -20 117 -109q0 -75 -61.5 -118.5t-156.5 -43.5q-88 0 -140.5 40t-49.5 118z" />
    <glyph glyph-name="Tcedilla" unicode="&#x162;" horiz-adv-x="635" 
d="M673 615h-252l-109 -615h-71l109 615h-254l12 65h577zM230 -71h69l-79 -144h-62z" />
    <glyph glyph-name="tcedilla" unicode="&#x163;" horiz-adv-x="430" 
d="M230 403l-42 -237q-10 -54 11 -86t67 -32q32 0 84 12v-59q-57 -16 -99 -16q-72 0 -108.5 50.5t-22.5 130.5l42 237h-124l10 59h124l30 171h68l-30 -171h174l-10 -59h-174zM164 -71h69l-79 -144h-62z" />
    <glyph glyph-name="Tcaron" unicode="&#x164;" horiz-adv-x="635" 
d="M371 756l-98 144h64l75 -105l111 105h69l-148 -144h-73zM673 615h-252l-109 -615h-71l109 615h-254l12 65h577z" />
    <glyph glyph-name="tcaron" unicode="&#x165;" horiz-adv-x="430" 
d="M370 527h-54l43 185h70zM240 462h174l-10 -59h-174l-42 -237q-10 -54 11 -86t67 -32q32 0 84 12v-59q-57 -16 -99 -16q-72 0 -108.5 50.5t-22.5 130.5l42 237h-124l10 59h124l30 171h68z" />
    <glyph glyph-name="Umacron" unicode="&#x16a;" horiz-adv-x="753" 
d="M606 820l-10 -51h-278l10 51h278zM743 680l-69 -391q-24 -140 -115.5 -222t-226.5 -82q-129 0 -194.5 86.5t-41.5 217.5l69 391h70l-68 -391q-18 -104 29 -171t146 -67q98 0 171 67.5t91 170.5l68 391h71z" />
    <glyph glyph-name="umacron" unicode="&#x16b;" horiz-adv-x="594" 
d="M493 563h-278l10 51h278zM544 462l-81 -462h-68l9 53q-81 -68 -182 -68q-88 0 -132 57t-27 153l46 267h69l-47 -263q-13 -72 18.5 -112t95.5 -40q94 0 173 85l58 330h68z" />
    <glyph glyph-name="Uring" unicode="&#x16e;" horiz-adv-x="753" 
d="M465 961q44 0 71.5 -26.5t27.5 -68.5t-28 -69t-71 -27q-44 0 -72 27t-28 69t28 68.5t72 26.5zM465 808q25 0 41 16.5t16 41.5q0 24 -16 40.5t-41 16.5t-41 -16.5t-16 -40.5q0 -25 16 -41.5t41 -16.5zM743 680l-69 -391q-24 -140 -115.5 -222t-226.5 -82
q-129 0 -194.5 86.5t-41.5 217.5l69 391h70l-68 -391q-18 -104 29 -171t146 -67q98 0 171 67.5t91 170.5l68 391h71z" />
    <glyph glyph-name="uring" unicode="&#x16f;" horiz-adv-x="594" 
d="M337 536q-44 0 -72 27t-28 69t28 68.5t72 26.5t71.5 -26.5t27.5 -68.5t-28 -69t-71 -27zM337 689q-25 0 -41 -16.5t-16 -40.5q0 -25 16 -41.5t41 -16.5t41 16.5t16 41.5q0 24 -16 40.5t-41 16.5zM544 462l-81 -462h-68l9 53q-81 -68 -182 -68q-88 0 -132 57t-27 153
l46 267h69l-47 -263q-13 -72 18.5 -112t95.5 -40q94 0 173 85l58 330h68z" />
    <glyph glyph-name="Uhungarumlaut" unicode="&#x170;" horiz-adv-x="753" 
d="M492 900l-83 -142h-60l71 142h72zM627 900l-84 -142h-59l72 142h71zM743 680l-69 -391q-24 -140 -115.5 -222t-226.5 -82q-129 0 -194.5 86.5t-41.5 217.5l69 391h70l-68 -391q-18 -104 29 -171t146 -67q98 0 171 67.5t91 170.5l68 391h71z" />
    <glyph glyph-name="uhungarumlaut" unicode="&#x171;" horiz-adv-x="587" 
d="M284 544h-60l72 142h72zM359 544l72 142h72l-84 -142h-60zM544 462l-81 -462h-68l9 53q-81 -68 -182 -68q-88 0 -132 57t-27 153l46 267h69l-47 -263q-13 -72 18.5 -112t95.5 -40q94 0 173 85l58 330h68z" />
    <glyph glyph-name="Uogonek" unicode="&#x172;" horiz-adv-x="753" 
d="M743 680l-69 -391q-16 -96 -65 -166t-124 -105q-79 -50 -79 -97q0 -27 20 -43t56 -16q17 0 35 3l7 -58q-22 -6 -51 -6q-57 0 -91.5 29t-34.5 76q0 43 38 83q-23 -4 -53 -4q-129 0 -194.5 86.5t-41.5 217.5l69 391h70l-68 -391q-18 -104 29 -171t146 -67q98 0 171 67.5
t91 170.5l68 391h71z" />
    <glyph glyph-name="uogonek" unicode="&#x173;" horiz-adv-x="594" 
d="M456 -134q12 0 34 4l7 -53q-19 -7 -50 -7q-58 0 -93 29t-35 76q0 64 79 103l6 35q-81 -68 -182 -68q-88 0 -132 57t-27 153l46 267h69l-47 -263q-13 -72 18.5 -112t95.5 -40q94 0 173 85l58 330h68l-81 -462q-85 -27 -85 -78q0 -26 20.5 -41t57.5 -15z" />
    <glyph glyph-name="Wcircumflex" unicode="&#x174;" horiz-adv-x="1066" 
d="M539 760h-71l149 144h74l96 -144h-64l-74 104zM747 -3v-2h-70l1 2l-90 553l-290 -555h-69l-112 685h74l90 -567l297 567h62l91 -570l291 570h78z" />
    <glyph glyph-name="wcircumflex" unicode="&#x175;" horiz-adv-x="779" 
d="M367 536h-71l149 144h74l96 -144h-64l-74 104zM785 462l-249 -462h-68l-57 352l-180 -352h-62l-93 462h73l69 -355l183 355h59l58 -355l193 355h74z" />
    <glyph glyph-name="Ycircumflex" unicode="&#x176;" horiz-adv-x="661" 
d="M315 760h-71l149 144h74l96 -144h-64l-74 104zM367 243l-43 -243h-72l42 243l-204 437h79l169 -363l298 363h89z" />
    <glyph glyph-name="ycircumflex" unicode="&#x177;" horiz-adv-x="592" 
d="M256 536h-71l150 144h73l97 -144h-64l-75 105zM599 462l-448 -710h-78l145 230l-149 480h74l124 -402l254 402h78z" />
    <glyph glyph-name="Ydieresis" unicode="&#x178;" horiz-adv-x="661" 
d="M316 771q-20 0 -33.5 13.5t-13.5 32.5t13.5 32.5t33.5 13.5t33.5 -13.5t13.5 -32.5t-13.5 -32.5t-33.5 -13.5zM499 771q-20 0 -34 13.5t-14 32.5t14 32.5t34 13.5t33.5 -13.5t13.5 -32.5t-13.5 -32.5t-33.5 -13.5zM367 243l-43 -243h-72l42 243l-204 437h79l169 -363
l298 363h89z" />
    <glyph glyph-name="Zacute" unicode="&#x179;" horiz-adv-x="654" 
d="M439 758h-64l105 142h77zM659 643l-514 -578h414l-11 -65h-530l6 37l2 1l522 577h-409l11 65h516z" />
    <glyph glyph-name="zacute" unicode="&#x17a;" horiz-adv-x="493" 
d="M331 543h-64l105 142h77zM479 422l-360 -364h295l-10 -58h-397l6 35l2 1l362 367h-288l10 59h387z" />
    <glyph glyph-name="Zdotaccent" unicode="&#x17b;" horiz-adv-x="654" 
d="M410 769q-20 0 -34.5 14t-14.5 34t14.5 34t34.5 14t34.5 -14t14.5 -34t-14.5 -34t-34.5 -14zM659 643l-514 -578h414l-11 -65h-530l6 37l2 1l522 577h-409l11 65h516z" />
    <glyph glyph-name="zdotaccent" unicode="&#x17c;" horiz-adv-x="493" 
d="M299 566q-20 0 -34.5 14t-14.5 34t14.5 34t34.5 14t34.5 -14t14.5 -34t-14.5 -34t-34.5 -14zM479 422l-360 -364h295l-10 -58h-397l6 35l2 1l362 367h-288l10 59h387z" />
    <glyph glyph-name="Zcaron" unicode="&#x17d;" horiz-adv-x="654" 
d="M394 756l-98 144h64l75 -105l111 105h69l-148 -144h-73zM659 643l-514 -578h414l-11 -65h-530l6 37l2 1l522 577h-409l11 65h516z" />
    <glyph glyph-name="zcaron" unicode="&#x17e;" horiz-adv-x="493" 
d="M267 536l-98 144h64l75 -105l111 105h69l-148 -144h-73zM99 462h387l-7 -40l-360 -364h295l-10 -58h-397l6 35l2 1l362 367h-288z" />
    <glyph glyph-name="florin" unicode="&#x192;" horiz-adv-x="493" 
d="M475 685q48 0 93 -14l-21 -59q-40 10 -71 10q-93 0 -128 -111l-44 -144h170l-11 -58h-177l-68 -221q-25 -81 -75 -127.5t-122 -46.5q-47 0 -93 14l21 59q40 -10 72 -10q92 0 127 111l67 221h-130l11 58h137l45 144q26 81 75.5 127.5t121.5 46.5z" />
    <glyph glyph-name="Acaron" unicode="&#x1cd;" horiz-adv-x="746" 
d="M429 756l-98 144h64l75 -105l111 105h69l-148 -144h-73zM544 198h-353l-123 -198h-79l429 685h67l188 -685h-75zM527 263l-90 331l-206 -331h296z" />
    <glyph glyph-name="acaron" unicode="&#x1ce;" horiz-adv-x="618" 
d="M337 536l-98 144h64l75 -105l111 105h69l-148 -144h-73zM575 462l-82 -462h-68l9 51q-78 -64 -178 -64q-89 0 -144.5 58.5t-55.5 148.5q0 113 87 196.5t199 83.5q100 0 156 -64l9 52h68zM275 47q101 0 173 84l35 198q-42 85 -143 85q-84 0 -149 -63.5t-65 -147.5
q0 -67 41.5 -111.5t107.5 -44.5z" />
    <glyph glyph-name="Scommaaccent" unicode="&#x218;" horiz-adv-x="660" 
d="M407 695q107 0 171 -51t59 -148h-71q0 64 -41 100.5t-124 36.5q-86 0 -141 -40t-55 -104q0 -79 121 -101l100 -20q161 -33 161 -151q0 -102 -83 -167t-210 -65q-122 0 -185.5 61t-56.5 171h70q-2 -83 44.5 -125.5t142.5 -42.5q89 0 145.5 42t56.5 108q0 37 -27 63.5
t-82 36.5l-115 23q-79 15 -119.5 56t-38.5 104q3 97 83 155t195 58zM211 -237l57 88q-33 7 -33 40q0 18 13.5 30.5t32.5 12.5q18 0 32 -12.5t14 -32.5q0 -14 -10.5 -31.5t-63.5 -94.5h-42z" />
    <glyph glyph-name="scommaaccent" unicode="&#x219;" horiz-adv-x="527" 
d="M42 143h64q2 -49 37 -75t99 -26q63 0 102 24.5t39 65.5q0 54 -69 65l-102 18q-117 21 -117 106q0 70 59 112.5t150 42.5q80 0 132 -36.5t45 -110.5h-64q4 44 -28.5 68t-91.5 24q-61 0 -97 -23.5t-36 -61.5q0 -50 79 -64l90 -16q117 -20 117 -109q0 -75 -61.5 -118.5
t-156.5 -43.5q-88 0 -140.5 40t-49.5 118zM147 -237l57 88q-34 7 -34 40q0 18 13.5 30.5t32.5 12.5t32.5 -12.5t13.5 -32.5q0 -14 -11 -32.5t-63 -93.5h-41z" />
    <glyph glyph-name="uni021A" unicode="&#x21a;" horiz-adv-x="635" 
d="M673 615h-252l-109 -615h-71l109 615h-254l12 65h577zM258 -66q18 0 32 -12.5t14 -32.5q0 -14 -10.5 -31.5t-63.5 -94.5h-41l57 88q-34 7 -34 40q0 18 13.5 30.5t32.5 12.5z" />
    <glyph glyph-name="uni021B" unicode="&#x21b;" horiz-adv-x="430" 
d="M230 403l-42 -237q-10 -54 11 -86t67 -32q32 0 84 12v-59q-57 -16 -99 -16q-72 0 -108.5 50.5t-22.5 130.5l42 237h-124l10 59h124l30 171h68l-30 -171h174l-10 -59h-174zM204 -66q19 0 32.5 -12.5t13.5 -32.5q0 -14 -11 -32.5t-63 -93.5h-41l57 88q-34 7 -34 40
q0 18 13.5 30.5t32.5 12.5z" />
    <glyph glyph-name="circumflex" unicode="&#x2c6;" 
d="M340 666l-110 -104h-71l149 144h74l96 -144h-64z" />
    <glyph glyph-name="caron" unicode="&#x2c7;" 
d="M522 706l-148 -144h-73l-98 144h64l75 -105l111 105h69z" />
    <glyph glyph-name="breve" unicode="&#x2d8;" 
d="M425 689h55q-11 -66 -58 -102.5t-108 -36.5q-60 0 -95 36.5t-24 102.5h53q-8 -45 14 -68t58 -23q35 0 66.5 23.5t38.5 67.5z" />
    <glyph glyph-name="dotaccent" unicode="&#x2d9;" 
d="M317 563q-20 0 -34.5 14t-14.5 34t14.5 34t34.5 14t34.5 -14t14.5 -34t-14.5 -34t-34.5 -14z" />
    <glyph glyph-name="ring" unicode="&#x2da;" 
d="M321 747q44 0 71.5 -26.5t27.5 -68.5t-28 -69t-71 -27q-44 0 -72 27t-28 69t28 68.5t72 26.5zM321 594q25 0 41 16.5t16 41.5q0 24 -16 40.5t-41 16.5t-41 -16.5t-16 -40.5q0 -25 16 -41.5t41 -16.5z" />
    <glyph glyph-name="ogonek" unicode="&#x2db;" 
d="M354 34l11 -36q-85 -27 -85 -78q0 -26 20.5 -41t57.5 -15q12 0 34 4l7 -53q-19 -7 -50 -7q-58 0 -93 29t-35 76q0 45 38 76.5t95 44.5z" />
    <glyph glyph-name="tilde" unicode="&#x2dc;" 
d="M421 688h49q0 -44 -23.5 -69t-55.5 -24t-64 17l-35 22q-29 18 -53.5 8.5t-24.5 -40.5h-49q0 44 25 68.5t57 23t61 -15.5l34 -21q33 -20 56 -10t23 41z" />
    <glyph glyph-name="hungarumlaut" unicode="&#x2dd;" 
d="M342 706l-83 -142h-60l71 142h72zM477 706l-84 -142h-59l72 142h71z" />
    <glyph glyph-name="uni0326" unicode="&#x326;" horiz-adv-x="0" 
d="M220 -237l57 88q-34 7 -34 40q0 18 13.5 30.5t32.5 12.5t32.5 -12.5t13.5 -32.5q0 -14 -11 -32.5t-63 -93.5h-41z" />
    <glyph glyph-name="Wgrave" unicode="&#x1e80;" horiz-adv-x="1066" 
d="M587 758l-93 142h76l81 -142h-64zM747 -3v-2h-70l1 2l-90 553l-290 -555h-69l-112 685h74l90 -567l297 567h62l91 -570l291 570h78z" />
    <glyph glyph-name="wgrave" unicode="&#x1e81;" horiz-adv-x="779" 
d="M409 544l-93 142h76l81 -142h-64zM785 462l-249 -462h-68l-57 352l-180 -352h-62l-93 462h73l69 -355l183 355h59l58 -355l193 355h74z" />
    <glyph glyph-name="Wacute" unicode="&#x1e82;" horiz-adv-x="1066" 
d="M654 758h-64l105 142h77zM747 -3v-2h-70l1 2l-90 553l-290 -555h-69l-112 685h74l90 -567l297 567h62l91 -570l291 570h78z" />
    <glyph glyph-name="wacute" unicode="&#x1e83;" horiz-adv-x="779" 
d="M474 543h-64l105 142h77zM785 462l-249 -462h-68l-57 352l-180 -352h-62l-93 462h73l69 -355l183 355h59l58 -355l193 355h74z" />
    <glyph glyph-name="Wdieresis" unicode="&#x1e84;" horiz-adv-x="1066" 
d="M540 771q-20 0 -33.5 13.5t-13.5 32.5t13.5 32.5t33.5 13.5t33.5 -13.5t13.5 -32.5t-13.5 -32.5t-33.5 -13.5zM723 771q-20 0 -34 13.5t-14 32.5t14 32.5t34 13.5t33.5 -13.5t13.5 -32.5t-13.5 -32.5t-33.5 -13.5zM747 -3v-2h-70l1 2l-90 553l-290 -555h-69l-112 685h74
l90 -567l297 567h62l91 -570l291 570h78z" />
    <glyph glyph-name="wdieresis" unicode="&#x1e85;" horiz-adv-x="779" 
d="M351 568q-20 0 -33.5 13.5t-13.5 32.5t13.5 32.5t33.5 13.5t33.5 -13.5t13.5 -32.5t-13.5 -32.5t-33.5 -13.5zM534 568q-20 0 -34 13.5t-14 32.5t14 32.5t34 13.5t33.5 -13.5t13.5 -32.5t-13.5 -32.5t-33.5 -13.5zM785 462l-249 -462h-68l-57 352l-180 -352h-62l-93 462
h73l69 -355l183 355h59l58 -355l193 355h74z" />
    <glyph glyph-name="Ygrave" unicode="&#x1ef2;" horiz-adv-x="661" 
d="M363 758l-93 142h76l81 -142h-64zM367 243l-43 -243h-72l42 243l-204 437h79l169 -363l298 363h89z" />
    <glyph glyph-name="ygrave" unicode="&#x1ef3;" horiz-adv-x="592" 
d="M313 544l-93 142h76l81 -142h-64zM599 462l-448 -710h-78l145 230l-149 480h74l124 -402l254 402h78z" />
    <glyph glyph-name="endash" unicode="&#x2013;" horiz-adv-x="722" 
d="M622 306l-12 -68h-497l12 68h497z" />
    <glyph glyph-name="emdash" unicode="&#x2014;" horiz-adv-x="996" 
d="M896 306l-12 -68h-771l12 68h771z" />
    <glyph glyph-name="quoteleft" unicode="&#x2018;" horiz-adv-x="184" 
d="M227 680l-75 -133q31 -9 31 -39q0 -19 -13.5 -32t-33.5 -13t-33.5 13t-13.5 32q0 22 29 65l65 107h44z" />
    <glyph glyph-name="quoteright" unicode="&#x2019;" horiz-adv-x="195" 
d="M87 469l75 132q-30 11 -30 39q0 20 13 33t33 13t33.5 -13.5t13.5 -32.5q0 -21 -29 -64l-65 -107h-44z" />
    <glyph glyph-name="quotesinglbase" unicode="&#x201a;" horiz-adv-x="195" 
d="M-24 -138l75 133q-31 9 -31 38q0 19 13.5 32.5t33.5 13.5t33.5 -13.5t13.5 -32.5q0 -21 -29 -64l-65 -107h-44z" />
    <glyph glyph-name="quotedblleft" unicode="&#x201c;" horiz-adv-x="357" 
d="M228 680l-75 -133q31 -9 31 -39q0 -19 -13.5 -32t-33.5 -13t-33.5 13t-13.5 32q0 22 29 65l65 107h44zM390 680l-75 -133q30 -9 30 -39q0 -19 -13.5 -32t-32.5 -13q-20 0 -33.5 13t-13.5 32q0 22 29 65l65 107h44z" />
    <glyph glyph-name="quotedblright" unicode="&#x201d;" horiz-adv-x="357" 
d="M83 469l74 132q-30 11 -30 39q0 19 13.5 32.5t33.5 13.5t33.5 -13.5t13.5 -32.5t-29 -64l-66 -107h-43zM245 469l74 132q-30 11 -30 39q0 19 13.5 32.5t33.5 13.5t33.5 -13.5t13.5 -32.5t-29 -64l-66 -107h-43z" />
    <glyph glyph-name="quotedblbase" unicode="&#x201e;" horiz-adv-x="358" 
d="M-24 -138l75 133q-31 9 -31 38q0 19 13.5 32.5t33.5 13.5t33.5 -13.5t13.5 -32.5q0 -21 -29 -64l-65 -107h-44zM139 -138l75 133q-31 9 -31 38q0 19 13.5 32.5t33.5 13.5t33.5 -13.5t13.5 -32.5q0 -21 -29 -64l-66 -107h-43z" />
    <glyph glyph-name="dagger" unicode="&#x2020;" horiz-adv-x="406" 
d="M278 551l-38 -220h-49l38 220h-124l9 49h124l22 124h49l-22 -124h125l-9 -49h-125z" />
    <glyph glyph-name="daggerdbl" unicode="&#x2021;" horiz-adv-x="406" 
d="M273 492h125l-8 -49h-126l-19 -112h-49l20 112h-125l8 49h125l14 80h-124l8 48h124l19 104h49l-19 -104h125l-8 -48h-125z" />
    <glyph glyph-name="bullet" unicode="&#x2022;" horiz-adv-x="318" 
d="M171 183q-46 0 -80 34t-34 80t34 80t80 34t80.5 -34t34.5 -80t-34.5 -80t-80.5 -34z" />
    <glyph glyph-name="ellipsis" unicode="&#x2026;" horiz-adv-x="573" 
d="M54 -13q-20 0 -33.5 13.5t-13.5 32.5t13.5 32.5t33.5 13.5t33.5 -13.5t13.5 -32.5t-13.5 -32.5t-33.5 -13.5zM256 -13q-20 0 -33.5 13.5t-13.5 32.5t13.5 32.5t33.5 13.5t33.5 -13.5t13.5 -32.5t-13.5 -32.5t-33.5 -13.5zM451 -13q-20 0 -33.5 13.5t-13.5 32.5t13.5 32.5
t33.5 13.5t33.5 -13.5t13.5 -32.5t-13.5 -32.5t-33.5 -13.5z" />
    <glyph glyph-name="perthousand" unicode="&#x2030;" horiz-adv-x="1571" 
d="M343 695q70 0 114 -44.5t44 -114.5q0 -92 -67 -155.5t-157 -63.5q-71 0 -114.5 44t-43.5 115q0 92 67 155.5t157 63.5zM360 0h-53l453 680h53zM334 643q-64 0 -112.5 -46t-48.5 -112q0 -51 31.5 -83.5t81.5 -32.5q63 0 111.5 46.5t48.5 111.5q0 51 -31.5 83.5t-80.5 32.5
zM863 363q70 0 114 -44t44 -115q0 -92 -67 -155.5t-158 -63.5q-70 0 -113.5 44.5t-43.5 114.5q0 93 67 156t157 63zM1325 363q71 0 114.5 -44t43.5 -115q0 -92 -67 -155.5t-158 -63.5q-70 0 -113.5 44.5t-43.5 114.5q0 93 67 156t157 63zM854 311q-64 0 -112 -46t-48 -112
q0 -50 31.5 -83t80.5 -33q64 0 112.5 46.5t48.5 112.5q0 50 -32 82.5t-81 32.5zM1316 311q-64 0 -112 -46t-48 -112q0 -50 31.5 -83t80.5 -33q64 0 112.5 46.5t48.5 112.5q0 50 -32 82.5t-81 32.5z" />
    <glyph glyph-name="guilsinglleft" unicode="&#x2039;" horiz-adv-x="266" 
d="M239 400l-135 -151l83 -145h-69l-83 148l136 148h68z" />
    <glyph glyph-name="guilsinglright" unicode="&#x203a;" horiz-adv-x="266" 
d="M34 104l136 151l-83 145h68l83 -148l-135 -148h-69z" />
    <glyph glyph-name="fraction" unicode="&#x2044;" horiz-adv-x="446" 
d="M23 0h-53l453 680h53z" />
    <glyph glyph-name="zerosuperior" unicode="&#x2070;" horiz-adv-x="435" 
d="M299 695q70 0 107.5 -44.5t37.5 -115.5q0 -99 -60 -168t-155 -69q-69 0 -107 44.5t-38 115.5q0 98 60.5 167.5t154.5 69.5zM237 348q67 0 109 53t42 127q0 52 -25 85t-73 33q-67 0 -108.5 -53.5t-41.5 -127.5q0 -52 25 -84.5t72 -32.5z" />
    <glyph glyph-name="foursuperior" unicode="&#x2074;" horiz-adv-x="401" 
d="M390 388h-61l-14 -80h-53l14 80h-212l6 35l166 266h56l-155 -253h147l21 117h53l-21 -117h61z" />
    <glyph glyph-name="fivesuperior" unicode="&#x2075;" horiz-adv-x="378" 
d="M194 640l-25 -141h-50l34 190h240l-8 -49h-191zM315 438q0 28 -19.5 45t-56.5 17l-70 -1l9 48h71q57 0 88 -27.5t31 -73.5q0 -61 -48 -103.5t-120 -42.5q-62 0 -95.5 29.5t-33.5 81.5h54q5 -64 83 -64q45 0 76 26.5t31 64.5z" />
    <glyph glyph-name="sixsuperior" unicode="&#x2076;" horiz-adv-x="372" 
d="M245 565q58 0 92 -31t34 -80q0 -65 -50.5 -109.5t-123.5 -44.5q-57 0 -92 32.5t-35 81.5q0 30 12 54t40 56l147 165h64l-110 -125q7 1 22 1zM205 344q46 0 79 29t33 71q0 32 -22.5 52.5t-58.5 20.5q-46 0 -76 -24l-2 -3q-35 -33 -35 -71q0 -33 23 -54t59 -21z" />
    <glyph glyph-name="sevensuperior" unicode="&#x2077;" horiz-adv-x="313" 
d="M380 689l-7 -34l-238 -347h-62l226 329h-204l9 52h276z" />
    <glyph glyph-name="eightsuperior" unicode="&#x2078;" horiz-adv-x="393" 
d="M328 506q55 -24 55 -80q0 -55 -48.5 -91.5t-124.5 -36.5q-61 0 -96.5 27t-35.5 71q0 38 23.5 67.5t65.5 44.5q-41 22 -41 67q0 51 45 85.5t109 34.5q54 0 86.5 -25.5t32.5 -66.5q0 -68 -71 -97zM273 652q-38 0 -65.5 -21.5t-27.5 -53.5q0 -25 19.5 -40t50.5 -15
q40 0 67 20.5t27 52.5q0 25 -19.5 41t-51.5 16zM218 344q46 0 75.5 23t29.5 58q0 27 -21.5 43t-57.5 16q-46 0 -75 -22t-29 -57q0 -27 21 -44t57 -17z" />
    <glyph glyph-name="ninesuperior" unicode="&#x2079;" horiz-adv-x="372" 
d="M272 700q57 0 92 -32.5t35 -81.5q0 -30 -12 -54t-40 -56l-147 -165h-64l110 125q-7 -1 -22 -1q-58 0 -92 31t-34 80q0 65 50.5 109.5t123.5 44.5zM309 507l2 3q35 33 35 71q0 33 -23 54t-59 21q-46 0 -79 -29t-33 -71q0 -32 22.5 -52.5t58.5 -20.5q46 0 76 24z" />
    <glyph glyph-name="zeroinferior" unicode="&#x2080;" horiz-adv-x="435" 
d="M216 209q70 0 107.5 -44.5t37.5 -115.5q0 -99 -60 -168t-155 -69q-69 0 -107 44.5t-38 115.5q0 98 60.5 167.5t154.5 69.5zM154 -138q67 0 109 53t42 127q0 52 -25 85t-73 33q-67 0 -108.5 -53.5t-41.5 -127.5q0 -52 25 -84.5t72 -32.5z" />
    <glyph glyph-name="oneinferior" unicode="&#x2081;" horiz-adv-x="310" 
d="M229 -134l-8 -46h-267l8 46h111l49 276l-110 -33l7 47l137 45h28l-59 -335h104z" />
    <glyph glyph-name="twoinferior" unicode="&#x2082;" horiz-adv-x="359" 
d="M73 -134h179l-8 -46h-269l5 29l159 135q54 44 74 67.5t20 52.5q0 25 -17.5 41t-48.5 16q-36 0 -60.5 -18.5t-32.5 -50.5h-53q12 54 52 85.5t100 31.5q55 0 85 -27t30 -69q0 -37 -22.5 -69t-84.5 -85z" />
    <glyph glyph-name="threeinferior" unicode="&#x2083;" horiz-adv-x="371" 
d="M224 12q46 -23 46 -73q0 -54 -42.5 -90.5t-111.5 -36.5q-61 0 -96.5 29t-33.5 77h54q0 -26 21 -42t58 -16q43 0 71 20.5t28 53.5q0 25 -20.5 39.5t-57.5 14.5h-32l8 44h33l-1 -5l1 5q37 0 61.5 21t24.5 53q0 25 -17.5 39.5t-49.5 14.5t-54.5 -15.5t-31.5 -41.5h-54
q14 48 53.5 76.5t94.5 28.5q52 0 81.5 -26t29.5 -68q0 -70 -63 -102z" />
    <glyph glyph-name="fourinferior" unicode="&#x2084;" horiz-adv-x="401" 
d="M310 -100h-61l-14 -80h-53l14 80h-212l6 35l166 266h56l-155 -253h147l21 117h53l-21 -117h61z" />
    <glyph glyph-name="fiveinferior" unicode="&#x2085;" horiz-adv-x="378" 
d="M111 152l-25 -141h-50l34 190h240l-8 -49h-191zM232 -50q0 28 -19.5 45t-56.5 17l-70 -1l9 48h71q57 0 88 -27.5t31 -73.5q0 -61 -48 -103.5t-120 -42.5q-62 0 -95.5 29.5t-33.5 81.5h54q5 -64 83 -64q45 0 76 26.5t31 64.5z" />
    <glyph glyph-name="sixinferior" unicode="&#x2086;" horiz-adv-x="372" 
d="M159 77q58 0 92 -31t34 -80q0 -65 -50.5 -109.5t-123.5 -44.5q-57 0 -92 32.5t-35 81.5q0 30 12 54t40 56l147 165h64l-110 -125q7 1 22 1zM119 -144q46 0 79 29t33 71q0 32 -22.5 52.5t-58.5 20.5q-46 0 -76 -24l-2 -3q-35 -33 -35 -71q0 -33 23 -54t59 -21z" />
    <glyph glyph-name="seveninferior" unicode="&#x2087;" horiz-adv-x="313" 
d="M294 201l-7 -34l-238 -347h-62l226 329h-204l9 52h276z" />
    <glyph glyph-name="eightinferior" unicode="&#x2088;" horiz-adv-x="393" 
d="M239 20q55 -24 55 -80q0 -55 -48.5 -91.5t-124.5 -36.5q-61 0 -96.5 27t-35.5 71q0 38 23.5 67.5t65.5 44.5q-41 22 -41 67q0 51 45 85.5t109 34.5q54 0 86.5 -25.5t32.5 -66.5q0 -68 -71 -97zM184 166q-38 0 -65.5 -21.5t-27.5 -53.5q0 -25 19.5 -40t50.5 -15
q40 0 67 20.5t27 52.5q0 25 -19.5 41t-51.5 16zM129 -142q46 0 75.5 23t29.5 58q0 27 -21.5 43t-57.5 16q-46 0 -75 -22t-29 -57q0 -27 21 -44t57 -17z" />
    <glyph glyph-name="nineinferior" unicode="&#x2089;" horiz-adv-x="372" 
d="M184 210q57 0 92 -32.5t35 -81.5q0 -30 -12 -54t-40 -56l-147 -165h-64l110 125q-7 -1 -22 -1q-58 0 -92 31t-34 80q0 65 50.5 109.5t123.5 44.5zM221 17l2 3q35 33 35 71q0 33 -23 54t-59 21q-46 0 -79 -29t-33 -71q0 -32 22.5 -52.5t58.5 -20.5q46 0 76 24z" />
    <glyph glyph-name="Euro" unicode="&#x20ac;" horiz-adv-x="869" 
d="M446 54q90 0 168 51t114 134h73q-44 -114 -144 -183.5t-223 -69.5q-118 0 -198 67.5t-96 176.5h-111l9 51h99q0 26 5 59q0 3 9 40h-96l9 51h106q51 116 158.5 189.5t230.5 73.5t198 -69.5t80 -183.5h-74q-7 85 -64.5 135t-151.5 50q-95 0 -177.5 -53.5t-125.5 -141.5h337
l-23 -51h-334q-8 -26 -10 -40q-5 -33 -5 -59h307l-21 -51h-280q18 -80 80 -128t151 -48z" />
    <glyph glyph-name="uni2116" unicode="&#x2116;" horiz-adv-x="1380" 
d="M680 680h71l-120 -680h-59l-349 556l-97 -556h-71l120 680h50l356 -563zM1015 149q-92 0 -149.5 59.5t-57.5 149.5q0 115 88 197.5t205 82.5q91 0 148.5 -58.5t57.5 -148.5q0 -115 -88 -198.5t-204 -83.5zM1090 576q-85 0 -148.5 -62.5t-63.5 -147.5q0 -66 40.5 -110
t106.5 -44q85 0 148.5 62.5t63.5 147.5q0 66 -40.5 110t-106.5 44zM775 61h466l-11 -61h-466z" />
    <glyph glyph-name="uni2117" unicode="&#x2117;" horiz-adv-x="859" 
d="M450 695q150 0 257 -102t107 -253t-107 -253t-257 -102t-257 102t-107 253t107 253t257 102zM449 647q-128 0 -220.5 -89t-92.5 -218t92.5 -218t220.5 -89t221 89t93 218t-93 218t-221 89zM337 525h133q64 0 103 -33t39 -86t-39 -84.5t-104 -31.5h-88v-125h-44v360z
M381 483v-153h89q44 0 70 21t26 55q0 35 -26.5 56t-69.5 21h-89z" />
    <glyph glyph-name="trademark" unicode="&#x2122;" horiz-adv-x="683" 
d="M239 639l-44 -252h-41l44 252h-107l6 40h257l-6 -40h-109zM705 679l-51 -292h-42l36 206l-130 -167h-21l-74 169l-36 -208h-42l51 292h33l87 -195l155 195h34z" />
    <glyph glyph-name="oneeighth" unicode="&#x215b;" horiz-adv-x="898" 
d="M37 301l8 46h111l49 276l-110 -33l7 47l137 45h28l-59 -335h104l-8 -46h-267zM699 680l-453 -680h-53l453 680h53zM775 200q54 -25 54 -80t-48 -91.5t-124 -36.5q-61 0 -96.5 27t-35.5 71q0 38 23.5 67.5t65.5 44.5q-41 22 -41 67q0 51 44.5 85.5t109.5 34.5
q53 0 85.5 -25.5t32.5 -66.5q0 -67 -70 -97zM719 346q-38 0 -65 -21.5t-27 -53.5q0 -25 19 -40t51 -15q39 0 66 20.5t27 52.5q0 25 -19.5 41t-51.5 16zM664 38q46 0 76 23t30 58q0 27 -21.5 43t-58.5 16q-45 0 -74.5 -22t-29.5 -57q0 -27 21 -44t57 -17z" />
    <glyph glyph-name="threeeighths" unicode="&#x215c;" horiz-adv-x="887" 
d="M353 424q0 -54 -42.5 -90.5t-111.5 -36.5q-61 0 -96.5 29t-33.5 77h54q0 -26 21 -42t58 -16q43 0 71 20.5t28 53.5q0 25 -20.5 39.5t-57.5 14.5h-32l8 44h33l-1 -5l1 5q37 0 61.5 21t24.5 53q0 25 -17.5 39.5t-49.5 14.5t-54.5 -15.5t-31.5 -41.5h-54q14 48 53.5 76.5
t94.5 28.5q52 0 81.5 -26t29.5 -68q0 -70 -63 -102q46 -23 46 -73zM693 680l-453 -680h-53l453 680h53zM764 200q55 -25 55 -80t-48.5 -91.5t-124.5 -36.5q-61 0 -96.5 27t-35.5 71q0 38 23.5 67.5t65.5 44.5q-41 22 -41 67q0 51 44.5 85.5t109.5 34.5q53 0 85.5 -25.5
t32.5 -66.5q0 -68 -70 -97zM709 346q-39 0 -66 -21.5t-27 -53.5q0 -25 19 -40t51 -15q40 0 66.5 20.5t26.5 52.5q0 25 -19.5 41t-50.5 16zM654 38q45 0 75 23t30 58q0 27 -21.5 43t-58.5 16q-45 0 -74.5 -22t-29.5 -57q0 -27 21.5 -44t57.5 -17z" />
    <glyph glyph-name="fiveeighths" unicode="&#x215d;" horiz-adv-x="890" 
d="M191 633l-25 -141h-50l34 190h240l-8 -49h-191zM691 680l-453 -680h-52l453 680h52zM365 439q0 -61 -48 -103.5t-120 -42.5q-62 0 -95.5 29.5t-33.5 81.5h54q5 -64 83 -64q45 0 76 26.5t31 64.5q0 28 -19.5 45t-56.5 17l-70 -1l9 48h71q57 0 88 -27.5t31 -73.5zM767 200
q55 -25 55 -80t-48.5 -91.5t-124.5 -36.5q-61 0 -96.5 27t-35.5 71q0 38 23.5 67.5t65.5 44.5q-41 22 -41 67q0 51 44.5 85.5t109.5 34.5q53 0 85.5 -25.5t32.5 -66.5q0 -68 -70 -97zM712 346q-39 0 -66 -21.5t-27 -53.5q0 -25 19 -40t51 -15q40 0 66.5 20.5t26.5 52.5
q0 25 -19.5 41t-50.5 16zM657 38q45 0 75 23t30 58q0 27 -21.5 43t-58.5 16q-45 0 -74.5 -22t-29.5 -57q0 -27 21.5 -44t57.5 -17z" />
    <glyph glyph-name="seveneighths" unicode="&#x215e;" horiz-adv-x="793" 
d="M104 301l226 329h-204l9 52h276l-7 -34l-238 -347h-62zM607 680l-453 -680h-53l453 680h53zM682 200q55 -25 55 -80t-48.5 -91.5t-124.5 -36.5q-61 0 -96.5 27t-35.5 71q0 38 23.5 67.5t65.5 44.5q-41 22 -41 67q0 51 44.5 85.5t109.5 34.5q53 0 85.5 -25.5t32.5 -66.5
q0 -68 -70 -97zM627 346q-39 0 -66 -21.5t-27 -53.5q0 -25 19 -40t51 -15q40 0 66.5 20.5t26.5 52.5q0 25 -19.5 41t-50.5 16zM572 38q45 0 75 23t30 58q0 27 -21.5 43t-58.5 16q-45 0 -74.5 -22t-29.5 -57q0 -27 21.5 -44t57.5 -17z" />
    <glyph glyph-name="arrowleft" unicode="&#x2190;" horiz-adv-x="766" 
d="M155 309l271 -268l-46 -46l-346 347l346 346l46 -45l-271 -269h571v-65h-571z" />
    <glyph glyph-name="arrowup" unicode="&#x2191;" horiz-adv-x="783" 
d="M359 571l-269 -271l-45 46l346 346l347 -346l-46 -46l-268 271v-571h-65v571z" />
    <glyph glyph-name="arrowright" unicode="&#x2192;" horiz-adv-x="766" 
d="M40 374h571l-271 269l46 45l346 -346l-346 -347l-46 46l271 268h-571v65z" />
    <glyph glyph-name="arrowdown" unicode="&#x2193;" horiz-adv-x="783" 
d="M424 680v-571l268 271l46 -46l-347 -346l-346 346l45 46l269 -271v571h65z" />
    <glyph glyph-name="arrowupleft" unicode="&#x2196;" horiz-adv-x="811" 
d="M726 -2l-572 571l1 -379h-65v490h490v-65l-380 1l571 -572z" />
    <glyph glyph-name="arrowupright" unicode="&#x2197;" horiz-adv-x="833" 
d="M633 616l-380 -1l1 65h489v-490h-64v379l-571 -571l-46 46z" />
    <glyph glyph-name="arrowdownright" unicode="&#x2198;" horiz-adv-x="811" 
d="M85 682l571 -571v379h65v-490h-490l-1 65l380 -1l-571 572z" />
    <glyph glyph-name="arrowdownleft" unicode="&#x2199;" horiz-adv-x="796" 
d="M200 64l380 1v-65h-490v490h65l-1 -379l572 571l45 -46z" />
    <glyph glyph-name="minus" unicode="&#x2212;" horiz-adv-x="684" 
d="M134 355h459l-12 -64h-459z" />
    <glyph glyph-name="R.ss02" horiz-adv-x="700" 
d="M315 247l285 -247h-94l-287 247h-49l-44 -247h-71l120 680h251q105 0 165.5 -49.5t60.5 -136.5q0 -110 -85 -178.5t-217 -68.5h-35zM181 313h178q97 0 159.5 47t62.5 124q0 63 -44 97t-122 34h-180z" />
    <glyph glyph-name="Racute.ss02" horiz-adv-x="700" 
d="M425 758h-64l105 142h77zM315 247l285 -247h-94l-287 247h-50l-43 -247h-71l120 680h251q105 0 165.5 -49.5t60.5 -136.5q0 -110 -85 -178.5t-218 -68.5h-34zM181 313h177q98 0 160 47t62 124q0 63 -43.5 97t-121.5 34h-181z" />
    <glyph glyph-name="Rcaron.ss02" horiz-adv-x="700" 
d="M381 756l-98 144h64l75 -105l111 105h69l-148 -144h-73zM315 247l285 -247h-94l-287 247h-50l-43 -247h-71l120 680h251q105 0 165.5 -49.5t60.5 -136.5q0 -110 -85 -178.5t-218 -68.5h-34zM181 313h177q98 0 160 47t62 124q0 63 -43.5 97t-121.5 34h-181z" />
    <glyph glyph-name="Rcommaaccent.ss02" horiz-adv-x="700" 
d="M315 247l285 -247h-94l-287 247h-50l-43 -247h-71l120 680h251q105 0 165.5 -49.5t60.5 -136.5q0 -110 -85 -178.5t-218 -68.5h-34zM181 313h177q98 0 160 47t62 124q0 63 -43.5 97t-121.5 34h-181zM287 -66q19 0 32.5 -12.5t13.5 -32.5q0 -14 -11 -32.5t-63 -93.5h-41
l57 88q-34 7 -34 40q0 18 13.5 30.5t32.5 12.5z" />
    <glyph glyph-name="Q.ss03" horiz-adv-x="836" 
d="M497 694q131 0 215.5 -87t84.5 -216q0 -107 -60 -201t-157 -149t-203 -55q-131 0 -215.5 87t-84.5 216q0 107 60 201t157 149t203 55zM383 54q86 0 164.5 44.5t127.5 121.5t49 165q0 103 -64.5 172t-170.5 69q-134 0 -236.5 -98.5t-102.5 -231.5q0 -103 64.5 -172.5
t168.5 -69.5zM713 -147l-9 -68q-157 31 -326 83l7 52z" />
    <glyph glyph-name="i.loclTRK" horiz-adv-x="264" 
d="M202 591q-20 0 -33.5 13t-13.5 33q0 19 13.5 32.5t33.5 13.5t34 -13.5t14 -32.5q0 -20 -14 -33t-34 -13zM207 462l-81 -462h-68l81 462h68z" />
    <glyph glyph-name="germandbls.case" horiz-adv-x="1312" 
d="M407 695q107 0 171 -51t59 -148h-71q0 64 -41 100.5t-124 36.5q-86 0 -141 -40t-55 -104q0 -79 121 -101l100 -20q161 -33 161 -151q0 -102 -83 -167t-210 -65q-122 0 -185.5 61t-56.5 171h70q-2 -83 44.5 -125.5t142.5 -42.5q89 0 145.5 42t56.5 108q0 37 -27 63.5
t-82 36.5l-115 23q-79 15 -119.5 56t-38.5 104q3 97 83 155t195 58zM1058 695q107 0 171 -51t59 -148h-71q0 65 -41 101t-125 36q-85 0 -140 -40t-55 -104q0 -80 121 -101l100 -20q160 -33 160 -151q0 -102 -82.5 -167t-209.5 -65q-122 0 -186 61t-57 171h71
q-2 -83 44 -125.5t142 -42.5q90 0 146.5 42t56.5 108q0 37 -27 63.5t-82 36.5l-115 23q-163 31 -158 160q2 97 82.5 155t195.5 58z" />
    <glyph glyph-name="l.ss01" horiz-adv-x="352" 
d="M235 710l-101 -575q-16 -87 59 -87q25 0 79 12v-59q-58 -16 -99 -16q-65 0 -93 37t-15 109l102 579h68z" />
    <glyph glyph-name="lacute.ss01" horiz-adv-x="352" 
d="M368 934l-118 -142h-64l105 142h77zM235 710l-101 -575q-16 -87 59 -87q25 0 79 12v-59q-58 -16 -99 -16q-65 0 -93 37t-15 109l102 579h68z" />
    <glyph glyph-name="lcaron.ss01" horiz-adv-x="352" 
d="M235 710l-101 -575q-16 -87 59 -87q25 0 79 12v-59q-58 -16 -99 -16q-65 0 -93 37t-15 109l102 579h68zM392 710l-59 -185h-54l43 185h70z" />
    <glyph glyph-name="lcommaaccent.ss01" horiz-adv-x="352" 
d="M235 710l-101 -575q-16 -87 59 -87q25 0 79 12v-59q-58 -16 -99 -16q-65 0 -93 37t-15 109l102 579h68zM79 -237l57 88q-34 7 -34 40q0 18 13.5 30.5t32.5 12.5t32.5 -12.5t13.5 -32.5q0 -14 -11 -32.5t-63 -93.5h-41z" />
    <glyph glyph-name="ldot.ss01" horiz-adv-x="378" 
d="M235 710l-101 -575q-16 -87 59 -87q25 0 79 12v-59q-58 -16 -99 -16q-65 0 -93 37t-15 109l102 579h68zM274 269q-21 0 -35 14t-14 34t14 34t35 14q20 0 34.5 -14t14.5 -34t-14.5 -34t-34.5 -14z" />
    <glyph glyph-name="lslash.ss01" horiz-adv-x="352" 
d="M169 335l-35 -200q-16 -87 59 -87q25 0 79 12v-59q-58 -16 -99 -16q-65 0 -93 37t-15 109l30 170l-63 -29l13 71l62 29l60 338h68l-53 -304l95 44l-13 -71z" />
    <glyph glyph-name="y.ss04" 
d="M553 462l-86 -488q-18 -100 -88.5 -158.5t-170.5 -58.5q-90 0 -143.5 48t-52.5 124h71q2 -49 38 -79t98 -30q69 0 118 41t62 113l16 93q-78 -69 -178 -69q-92 0 -137 56.5t-27 153.5l44 254h68l-44 -251q-13 -72 19 -111.5t100 -39.5q92 0 169 86l56 316h68z" />
    <glyph glyph-name="yacute.ss04" 
d="M370 543h-64l105 142h77zM553 462l-86 -488q-18 -100 -88.5 -158.5t-170.5 -58.5q-90 0 -143.5 48t-52.5 124h70q2 -49 38.5 -79t98.5 -30q69 0 118 41t62 113l16 93q-80 -69 -178 -69q-93 0 -137.5 56.5t-27.5 153.5l45 254h68l-44 -251q-13 -71 18.5 -111t99.5 -40
q93 0 170 86l56 316h68z" />
    <glyph glyph-name="ycircumflex.ss04" 
d="M263 536h-71l149 144h74l96 -144h-64l-74 104zM553 462l-86 -488q-18 -100 -88.5 -158.5t-170.5 -58.5q-90 0 -143.5 48t-52.5 124h70q2 -49 38.5 -79t98.5 -30q69 0 118 41t62 113l16 93q-80 -69 -178 -69q-93 0 -137.5 56.5t-27.5 153.5l45 254h68l-44 -251
q-13 -71 18.5 -111t99.5 -40q93 0 170 86l56 316h68z" />
    <glyph glyph-name="ydieresis.ss04" 
d="M247 568q-20 0 -33.5 13.5t-13.5 32.5t13.5 32.5t33.5 13.5t33.5 -13.5t13.5 -32.5t-13.5 -32.5t-33.5 -13.5zM430 568q-20 0 -34 13.5t-14 32.5t14 32.5t34 13.5t33.5 -13.5t13.5 -32.5t-13.5 -32.5t-33.5 -13.5zM553 462l-86 -488q-18 -100 -88.5 -158.5t-170.5 -58.5
q-90 0 -143.5 48t-52.5 124h70q2 -49 38.5 -79t98.5 -30q69 0 118 41t62 113l16 93q-80 -69 -178 -69q-93 0 -137.5 56.5t-27.5 153.5l45 254h68l-44 -251q-13 -71 18.5 -111t99.5 -40q93 0 170 86l56 316h68z" />
    <glyph glyph-name="ygrave.ss04" 
d="M304 544l-93 142h76l81 -142h-64zM553 462l-86 -488q-18 -100 -88.5 -158.5t-170.5 -58.5q-90 0 -143.5 48t-52.5 124h70q2 -49 38.5 -79t98.5 -30q69 0 118 41t62 113l16 93q-80 -69 -178 -69q-93 0 -137.5 56.5t-27.5 153.5l45 254h68l-44 -251q-13 -71 18.5 -111
t99.5 -40q93 0 170 86l56 316h68z" />
    <glyph glyph-name="a.ss06" horiz-adv-x="543" 
d="M316 471q93 0 140 -56.5t30 -151.5l-46 -263h-68l7 42q-87 -54 -178 -54q-77 0 -122 33.5t-45 91.5q0 68 53 109.5t142 40.5h189q12 66 -16.5 107.5t-95.5 41.5q-50 0 -87.5 -22t-51.5 -60h-70q20 68 81 104.5t138 36.5zM215 46q90 0 176 60l18 104h-193
q-53 0 -83.5 -24.5t-30.5 -61.5q0 -34 30 -56t83 -22z" />
    <glyph glyph-name="aacute.ss06" horiz-adv-x="543" 
d="M362 543h-64l105 142h77zM316 471q94 0 140.5 -56.5t29.5 -151.5l-46 -263h-68l7 42q-87 -54 -178 -54q-77 0 -122 33.5t-45 91.5q0 68 53 109.5t142 40.5h189q12 66 -16.5 107.5t-95.5 41.5q-50 0 -87.5 -22t-51.5 -60h-70q20 68 81 104.5t138 36.5zM215 46q90 0 176 60
l18 104h-193q-53 0 -83.5 -24.5t-30.5 -61.5q0 -34 30 -56t83 -22z" />
    <glyph glyph-name="abreve.ss06" horiz-adv-x="543" 
d="M316 532q-60 0 -95 36.5t-24 102.5h53q-8 -45 14 -68t58 -23q35 0 66.5 23.5t38.5 67.5h55q-11 -66 -58 -102.5t-108 -36.5zM316 471q94 0 140.5 -56.5t29.5 -151.5l-46 -263h-68l7 42q-87 -54 -178 -54q-77 0 -122 33.5t-45 91.5q0 68 53 109.5t142 40.5h189
q12 66 -16.5 107.5t-95.5 41.5q-50 0 -87.5 -22t-51.5 -60h-70q20 68 81 104.5t138 36.5zM215 46q90 0 176 60l18 104h-193q-53 0 -83.5 -24.5t-30.5 -61.5q0 -34 30 -56t83 -22z" />
    <glyph glyph-name="acaron.ss06" horiz-adv-x="543" 
d="M298 536l-98 144h64l75 -105l111 105h69l-148 -144h-73zM316 471q94 0 140.5 -56.5t29.5 -151.5l-46 -263h-68l7 42q-87 -54 -178 -54q-77 0 -122 33.5t-45 91.5q0 68 53 109.5t142 40.5h189q12 66 -16.5 107.5t-95.5 41.5q-50 0 -87.5 -22t-51.5 -60h-70q20 68 81 104.5
t138 36.5zM215 46q90 0 176 60l18 104h-193q-53 0 -83.5 -24.5t-30.5 -61.5q0 -34 30 -56t83 -22z" />
    <glyph glyph-name="acircumflex.ss06" horiz-adv-x="543" 
d="M243 536h-71l149 144h73l97 -144h-64l-74 105zM316 471q94 0 140.5 -56.5t29.5 -151.5l-46 -263h-68l7 42q-87 -54 -178 -54q-77 0 -122 33.5t-45 91.5q0 68 53 109.5t142 40.5h189q12 66 -16.5 107.5t-95.5 41.5q-50 0 -87.5 -22t-51.5 -60h-70q20 68 81 104.5t138 36.5
zM215 46q90 0 176 60l18 104h-193q-53 0 -83.5 -24.5t-30.5 -61.5q0 -34 30 -56t83 -22z" />
    <glyph glyph-name="adieresis.ss06" horiz-adv-x="543" 
d="M239 568q-20 0 -33.5 13.5t-13.5 32.5t13.5 32.5t33.5 13.5t33.5 -13.5t13.5 -32.5t-13.5 -32.5t-33.5 -13.5zM422 568q-20 0 -34 13.5t-14 32.5t14 32.5t34 13.5t33.5 -13.5t13.5 -32.5t-13.5 -32.5t-33.5 -13.5zM316 471q94 0 140.5 -56.5t29.5 -151.5l-46 -263h-68
l7 42q-87 -54 -178 -54q-77 0 -122 33.5t-45 91.5q0 68 53 109.5t142 40.5h189q12 66 -16.5 107.5t-95.5 41.5q-50 0 -87.5 -22t-51.5 -60h-70q20 68 81 104.5t138 36.5zM215 46q90 0 176 60l18 104h-193q-53 0 -83.5 -24.5t-30.5 -61.5q0 -34 30 -56t83 -22z" />
    <glyph glyph-name="agrave.ss06" horiz-adv-x="543" 
d="M296 544l-93 142h76l81 -142h-64zM316 471q94 0 140.5 -56.5t29.5 -151.5l-46 -263h-68l7 42q-87 -54 -178 -54q-77 0 -122 33.5t-45 91.5q0 68 53 109.5t142 40.5h189q12 66 -16.5 107.5t-95.5 41.5q-50 0 -87.5 -22t-51.5 -60h-70q20 68 81 104.5t138 36.5zM215 46
q90 0 176 60l18 104h-193q-53 0 -83.5 -24.5t-30.5 -61.5q0 -34 30 -56t83 -22z" />
    <glyph glyph-name="amacron.ss06" horiz-adv-x="543" 
d="M474 563h-278l10 51h278zM316 471q94 0 140.5 -56.5t29.5 -151.5l-46 -263h-68l7 42q-87 -54 -178 -54q-77 0 -122 33.5t-45 91.5q0 68 53 109.5t142 40.5h189q12 66 -16.5 107.5t-95.5 41.5q-50 0 -87.5 -22t-51.5 -60h-70q20 68 81 104.5t138 36.5zM215 46q90 0 176 60
l18 104h-193q-53 0 -83.5 -24.5t-30.5 -61.5q0 -34 30 -56t83 -22z" />
    <glyph glyph-name="aogonek.ss06" horiz-adv-x="543" 
d="M440 0h-1q-85 -27 -85 -78q0 -26 20.5 -41t57.5 -15q12 0 34 4l7 -53q-19 -7 -50 -7q-58 0 -93 29t-35 76q0 65 80 103l4 24q-87 -54 -178 -54q-77 0 -122 33.5t-45 91.5q0 68 53 109.5t142 40.5h189q12 66 -16.5 107.5t-95.5 41.5q-50 0 -87.5 -22t-51.5 -60h-70
q20 68 81 104.5t138 36.5q94 0 140.5 -56.5t29.5 -151.5zM215 46q90 0 176 60l18 104h-193q-53 0 -83.5 -24.5t-30.5 -61.5q0 -34 30 -56t83 -22z" />
    <glyph glyph-name="aring.ss06" horiz-adv-x="543" 
d="M337 536q-43 0 -71 27t-28 69t27.5 68.5t71.5 26.5t71.5 -26.5t27.5 -68.5t-28 -69t-71 -27zM337 689q-25 0 -41 -16.5t-16 -40.5q0 -25 16 -41.5t41 -16.5t41 16.5t16 41.5q0 24 -16 40.5t-41 16.5zM316 471q94 0 140.5 -56.5t29.5 -151.5l-46 -263h-68l7 42
q-87 -54 -178 -54q-77 0 -122 33.5t-45 91.5q0 68 53 109.5t142 40.5h189q12 66 -16.5 107.5t-95.5 41.5q-50 0 -87.5 -22t-51.5 -60h-70q20 68 81 104.5t138 36.5zM215 46q90 0 176 60l18 104h-193q-53 0 -83.5 -24.5t-30.5 -61.5q0 -34 30 -56t83 -22z" />
    <glyph glyph-name="atilde.ss06" horiz-adv-x="543" 
d="M235 583h-49q0 44 25 68t57 22.5t61 -15.5l35 -21q32 -19 55.5 -9.5t23.5 41.5h49q0 -45 -23.5 -69.5t-55.5 -23.5t-64 17l-35 21q-29 18 -54 8.5t-25 -39.5zM316 471q94 0 140.5 -56.5t29.5 -151.5l-46 -263h-68l7 42q-87 -54 -178 -54q-77 0 -122 33.5t-45 91.5
q0 68 53 109.5t142 40.5h189q12 66 -16.5 107.5t-95.5 41.5q-50 0 -87.5 -22t-51.5 -60h-70q20 68 81 104.5t138 36.5zM215 46q90 0 176 60l18 104h-193q-53 0 -83.5 -24.5t-30.5 -61.5q0 -34 30 -56t83 -22z" />
    <glyph glyph-name="zero.osf" horiz-adv-x="671" 
d="M390 550q105 0 168.5 -63.5t63.5 -168.5q0 -144 -95 -237t-232 -93q-105 0 -169 63.5t-64 168.5q0 144 95 237t233 93zM304 51q102 0 175 72.5t73 184.5q0 81 -47 130t-124 49q-103 0 -176 -72.5t-73 -184.5q0 -81 47 -130t125 -49z" />
    <glyph glyph-name="one.osf" horiz-adv-x="506" 
d="M452 59l-11 -59h-444l11 59h194l73 412l-194 -63l11 62l228 80h39l-87 -491h180z" />
    <glyph glyph-name="two.osf" horiz-adv-x="553" 
d="M163 59h310l-10 -59h-442l7 37l176 112q11 7 32 20q45 28 67 42t54.5 39t48 43t28 43t12.5 50q0 48 -32.5 76.5t-92.5 28.5q-68 0 -117 -37t-66 -100h-69q20 90 90 144.5t170 54.5q88 0 138 -44t50 -117q0 -30 -7.5 -56t-29 -52t-37 -42.5t-56.5 -44t-60.5 -39.5
t-74.5 -45z" />
    <glyph glyph-name="three.osf" horiz-adv-x="563" 
d="M399 203q88 -39 88 -134q0 -99 -72 -160.5t-190 -61.5q-100 0 -159.5 49.5t-55.5 129.5h70q-1 -54 39 -86t111 -32q82 0 135.5 43t53.5 109q0 51 -37.5 82t-101.5 31h-56l10 58h56q71 0 118 42.5t47 108.5q0 50 -34 80t-93 30q-64 0 -108 -31t-60 -85h-70q21 81 87 129
t160 48q87 0 136.5 -44t49.5 -118q0 -64 -33 -113t-91 -75z" />
    <glyph glyph-name="four.osf" horiz-adv-x="643" 
d="M552 1h-109l-27 -150h-68l26 150h-366l8 43l294 487h72l-279 -469h282l39 221h69l-39 -221h109z" />
    <glyph glyph-name="five.osf" horiz-adv-x="585" 
d="M212 480l-46 -261h-65l57 324h400l-11 -63h-335zM446 95q0 56 -40 90.5t-110 34.5l-130 -1l11 62h138q92 0 145.5 -48t53.5 -127q0 -107 -82.5 -182.5t-201.5 -75.5q-105 0 -161.5 52.5t-56.5 143.5h69q4 -64 44 -99.5t115 -35.5q86 0 146 55t60 131z" />
    <glyph glyph-name="six.osf" horiz-adv-x="615" 
d="M344 454q96 0 154.5 -54.5t58.5 -141.5q0 -116 -85.5 -194.5t-211.5 -78.5q-96 0 -154.5 56t-58.5 144q0 53 21 96.5t66 95.5l268 303h85l-205 -233q27 7 62 7zM271 43q89 0 152 58.5t63 143.5q0 65 -42 106t-112 41q-80 0 -141 -48l-6 -7q-68 -71 -68 -146
q0 -65 42.5 -106.5t111.5 -41.5z" />
    <glyph glyph-name="seven.osf" horiz-adv-x="502" 
d="M539 540l-8 -43l-427 -637h-80l413 614h-374l11 66h465z" />
    <glyph glyph-name="eight.osf" horiz-adv-x="622" 
d="M451 359q51 -20 79 -58t28 -87q0 -99 -82.5 -164t-211.5 -65q-102 0 -161.5 47.5t-59.5 125.5q0 72 45 125t123 78q-82 38 -82 124q0 89 76 149.5t185 60.5q88 0 141.5 -45t53.5 -115q0 -62 -36 -107.5t-98 -68.5zM380 639q-75 0 -128.5 -44.5t-53.5 -106.5
q0 -50 37 -79.5t99 -29.5q76 0 128.5 41t52.5 104q0 50 -37 82.5t-98 32.5zM275 44q87 0 146.5 48t59.5 118q0 53 -42.5 86.5t-113.5 33.5q-88 0 -146 -45t-58 -115q0 -56 42 -91t112 -35z" />
    <glyph glyph-name="nine.osf" horiz-adv-x="615" 
d="M364 548q96 0 154.5 -56t58.5 -144q0 -53 -21 -96.5t-66 -95.5l-268 -303h-85l205 233q-27 -7 -62 -7q-96 0 -154.5 54.5t-58.5 141.5q0 116 85.5 194.5t211.5 78.5zM433 189l6 7q68 71 68 146q0 65 -42.5 106.5t-111.5 41.5q-89 0 -152 -58.5t-63 -143.5q0 -65 42 -106
t112 -41q80 0 141 48z" />
    <glyph glyph-name="zero.tf" horiz-adv-x="606" 
d="M381 695q106 0 164.5 -75.5t58.5 -200.5q0 -184 -98 -309t-251 -125q-107 0 -165.5 75.5t-58.5 200.5q0 184 98.5 309t251.5 125zM263 49q118 0 192.5 106.5t76.5 257.5q2 99 -40 158.5t-120 59.5q-118 0 -192.5 -106.5t-76.5 -257.5q-2 -99 39.5 -158.5t120.5 -59.5z
" />
    <glyph glyph-name="one.tf" horiz-adv-x="606" 
d="M535 59l-11 -59h-488l11 59h206l97 542l-194 -63l11 62l228 80h39l-110 -621h211z" />
    <glyph glyph-name="two.tf" horiz-adv-x="606" 
d="M170 59h338l-10 -59h-447l6 37l261 233q48 41 66 57.5t48.5 46.5t41 48t20 42.5t9.5 50.5q0 52 -34 85t-97 33q-67 0 -118 -37.5t-68 -99.5h-69q21 90 92.5 144.5t170.5 54.5q92 0 143.5 -48.5t51.5 -124.5q0 -48 -23 -91.5t-60 -81.5t-119 -110z" />
    <glyph glyph-name="three.tf" horiz-adv-x="606" 
d="M440 343q88 -39 88 -134q0 -99 -71.5 -160.5t-189.5 -61.5q-100 0 -160 49.5t-55 129.5h69q-1 -54 39 -86t111 -32q82 0 136 43t54 109q0 51 -38 82t-102 31h-56l10 58h56q71 0 118 42.5t47 108.5q0 50 -34 80t-93 30q-64 0 -108 -31t-60 -85h-70q21 81 87 129t160 48
q87 0 136.5 -44t49.5 -118q0 -64 -33 -113t-91 -75z" />
    <glyph glyph-name="four.tf" horiz-adv-x="606" 
d="M561 150h-110l-26 -150h-68l26 150h-366l8 43l293 487h72l-279 -469h283l39 221h68l-39 -221h109z" />
    <glyph glyph-name="five.tf" horiz-adv-x="606" 
d="M247 617l-46 -261h-66l58 324h400l-11 -63h-335zM480 232q0 57 -39.5 91t-109.5 34l-130 -1l11 62h138q92 0 145.5 -48t53.5 -127q0 -106 -83 -182t-202 -76q-105 0 -161.5 52.5t-56.5 143.5h70q4 -64 44 -99.5t115 -35.5q86 0 145.5 55t59.5 131z" />
    <glyph glyph-name="six.tf" horiz-adv-x="606" 
d="M339 454q97 0 155.5 -54t58.5 -142q0 -116 -85.5 -194.5t-211.5 -78.5q-96 0 -154.5 56t-58.5 144q0 53 21 96.5t65 95.5l269 303h85l-206 -233q27 7 62 7zM267 43q89 0 152 58.5t63 143.5q0 65 -42 106t-112 41q-84 0 -142 -49l-6 -6q-67 -71 -67 -146
q0 -65 42.5 -106.5t111.5 -41.5z" />
    <glyph glyph-name="seven.tf" horiz-adv-x="606" 
d="M619 680l-7 -43l-427 -637h-80l413 614h-374l11 66h464z" />
    <glyph glyph-name="eight.tf" horiz-adv-x="606" 
d="M449 359q51 -20 79 -58t28 -87q0 -99 -82.5 -164t-210.5 -65q-103 0 -162.5 47.5t-59.5 125.5q0 72 45 125t123 77q-82 39 -82 125q0 89 76 149.5t185 60.5q88 0 141.5 -45t53.5 -115q0 -62 -36 -107.5t-98 -68.5zM378 639q-75 0 -128.5 -44.5t-53.5 -106.5
q0 -50 37.5 -79.5t98.5 -29.5q77 0 129 40.5t52 104.5q0 50 -37 82.5t-98 32.5zM273 44q87 0 146.5 48t59.5 118q0 53 -42.5 86.5t-113.5 33.5q-88 0 -146 -45t-58 -115q0 -56 42 -91t112 -35z" />
    <glyph glyph-name="nine.tf" horiz-adv-x="589" 
d="M375 695q96 0 154.5 -56t58.5 -144q0 -53 -21 -96.5t-66 -95.5l-268 -303h-85l205 233q-27 -7 -62 -7q-96 0 -154.5 54.5t-58.5 141.5q0 116 85.5 194.5t211.5 78.5zM444 336l6 7q68 71 68 146q0 65 -42.5 106.5t-111.5 41.5q-89 0 -152 -58.5t-63 -143.5q0 -65 42 -106
t112 -41q80 0 141 48z" />
    <glyph glyph-name="zero.zero" horiz-adv-x="716" 
d="M440 695q114 0 176 -76.5t62 -205.5q0 -181 -101.5 -304.5t-262.5 -123.5q-115 0 -177 76.5t-62 205.5q0 182 102 305t263 123zM428 631q-126 0 -203 -104t-77 -258q0 -49 10 -86l403 386q-48 62 -133 62zM325 49q126 0 203 104t77 258q0 56 -15 101l-406 -389
q47 -74 141 -74z" />
    <glyph glyph-name="zero.osf.zero" horiz-adv-x="671" 
d="M390 550q105 0 168.5 -63t63.5 -169q0 -144 -94.5 -237t-231.5 -93q-105 0 -169.5 63.5t-64.5 168.5q0 144 95 237t233 93zM382 487q-103 0 -176.5 -72.5t-73.5 -184.5q0 -43 13 -75l363 280q-47 52 -126 52zM304 51q102 0 175 72.5t73 184.5q0 44 -15 80l-363 -283
q48 -54 130 -54z" />
    <glyph glyph-name="zero.dnom" horiz-adv-x="435" 
d="M246 389q70 0 107.5 -44.5t37.5 -115.5q0 -99 -60 -168t-155 -69q-69 0 -107 44.5t-38 115.5q0 98 60.5 167.5t154.5 69.5zM184 42q67 0 109 53t42 127q0 52 -25 85t-73 33q-67 0 -108.5 -53.5t-41.5 -127.5q0 -52 25 -84.5t72 -32.5z" />
    <glyph glyph-name="one.dnom" horiz-adv-x="310" 
d="M259 46l-8 -46h-267l8 46h111l49 276l-110 -33l7 47l137 45h28l-59 -335h104z" />
    <glyph glyph-name="two.dnom" horiz-adv-x="359" 
d="M103 46h179l-8 -46h-269l5 29l159 135q54 44 74 67.5t20 52.5q0 25 -17.5 41t-48.5 16q-36 0 -60.5 -18.5t-32.5 -50.5h-53q12 54 52 85.5t100 31.5q55 0 85 -27t30 -69q0 -37 -22.5 -69t-84.5 -85z" />
    <glyph glyph-name="three.dnom" horiz-adv-x="371" 
d="M254 192q46 -23 46 -73q0 -54 -42.5 -90.5t-111.5 -36.5q-61 0 -96.5 29t-33.5 77h54q0 -26 21 -42t58 -16q43 0 71 20.5t28 53.5q0 25 -20.5 39.5t-57.5 14.5h-32l8 44h33l-1 -5l1 5q37 0 61.5 21t24.5 53q0 25 -17.5 39.5t-49.5 14.5t-54.5 -15.5t-31.5 -41.5h-54
q14 48 53.5 76.5t94.5 28.5q52 0 81.5 -26t29.5 -68q0 -70 -63 -102z" />
    <glyph glyph-name="four.dnom" horiz-adv-x="401" 
d="M334 80h-61l-14 -80h-53l14 80h-212l6 35l166 266h56l-155 -253h147l21 117h53l-21 -117h61z" />
    <glyph glyph-name="five.dnom" horiz-adv-x="378" 
d="M138 332l-25 -141h-50l34 190h240l-8 -49h-191zM259 130q0 28 -19.5 45t-56.5 17l-70 -1l9 48h71q57 0 88 -27.5t31 -73.5q0 -61 -48 -103.5t-120 -42.5q-62 0 -95.5 29.5t-33.5 81.5h54q5 -64 83 -64q45 0 76 26.5t31 64.5z" />
    <glyph glyph-name="six.dnom" horiz-adv-x="372" 
d="M189 257q58 0 92 -31t34 -80q0 -65 -50.5 -109.5t-123.5 -44.5q-57 0 -92 32.5t-35 81.5q0 30 12 54t40 56l147 165h64l-110 -125q7 1 22 1zM149 36q46 0 79 29t33 71q0 32 -22.5 52.5t-58.5 20.5q-46 0 -76 -24l-2 -3q-35 -33 -35 -71q0 -33 23 -54t59 -21z" />
    <glyph glyph-name="seven.dnom" horiz-adv-x="313" 
d="M324 381l-7 -34l-238 -347h-62l226 329h-204l9 52h276z" />
    <glyph glyph-name="eight.dnom" horiz-adv-x="393" 
d="M269 200q55 -24 55 -80q0 -55 -48.5 -91.5t-124.5 -36.5q-61 0 -96.5 27t-35.5 71q0 38 23.5 67.5t65.5 44.5q-41 22 -41 67q0 51 45 85.5t109 34.5q54 0 86.5 -25.5t32.5 -66.5q0 -68 -71 -97zM214 346q-38 0 -65.5 -21.5t-27.5 -53.5q0 -25 19.5 -40t50.5 -15
q40 0 67 20.5t27 52.5q0 25 -19.5 41t-51.5 16zM159 38q46 0 75.5 23t29.5 58q0 27 -21.5 43t-57.5 16q-46 0 -75 -22t-29 -57q0 -27 21 -44t57 -17z" />
    <glyph glyph-name="nine.dnom" horiz-adv-x="372" 
d="M216 390q57 0 92 -32.5t35 -81.5q0 -30 -12 -54t-40 -56l-147 -165h-64l110 125q-7 -1 -22 -1q-58 0 -92 31t-34 80q0 65 50.5 109.5t123.5 44.5zM253 197l2 3q35 33 35 71q0 33 -23 54t-59 21q-46 0 -79 -29t-33 -71q0 -32 22.5 -52.5t58.5 -20.5q46 0 76 24z" />
    <glyph glyph-name="zero.numr" horiz-adv-x="435" 
d="M299 690q70 0 107.5 -44.5t37.5 -115.5q0 -99 -60 -168t-155 -69q-69 0 -107 44.5t-38 115.5q0 98 60.5 167.5t154.5 69.5zM237 343q67 0 109 53t42 127q0 52 -25 85t-73 33q-67 0 -108.5 -53.5t-41.5 -127.5q0 -52 25 -84.5t72 -32.5z" />
    <glyph glyph-name="one.numr" horiz-adv-x="310" 
d="M312 347l-8 -46h-267l8 46h111l49 276l-110 -33l7 47l137 45h28l-59 -335h104z" />
    <glyph glyph-name="two.numr" horiz-adv-x="359" 
d="M156 347h179l-8 -46h-269l5 29l159 135q54 44 74 67.5t20 52.5q0 25 -17.5 41t-48.5 16q-36 0 -60.5 -18.5t-32.5 -50.5h-53q12 54 52 85.5t100 31.5q55 0 85 -27t30 -69q0 -37 -22.5 -69t-84.5 -85z" />
    <glyph glyph-name="three.numr" horiz-adv-x="371" 
d="M307 497q46 -23 46 -73q0 -54 -42.5 -90.5t-111.5 -36.5q-61 0 -96.5 29t-33.5 77h54q0 -26 21 -42t58 -16q43 0 71 20.5t28 53.5q0 25 -20.5 39.5t-57.5 14.5h-32l8 44h33l-1 -5l1 5q37 0 61.5 21t24.5 53q0 25 -17.5 39.5t-49.5 14.5t-54.5 -15.5t-31.5 -41.5h-54
q14 48 53.5 76.5t94.5 28.5q52 0 81.5 -26t29.5 -68q0 -70 -63 -102z" />
    <glyph glyph-name="four.numr" horiz-adv-x="401" 
d="M387 381h-61l-14 -80h-53l14 80h-212l6 35l166 266h56l-155 -253h147l21 117h53l-21 -117h61z" />
    <glyph glyph-name="five.numr" horiz-adv-x="378" 
d="M191 633l-25 -141h-50l34 190h240l-8 -49h-191zM312 431q0 28 -19.5 45t-56.5 17l-70 -1l9 48h71q57 0 88 -27.5t31 -73.5q0 -61 -48 -103.5t-120 -42.5q-62 0 -95.5 29.5t-33.5 81.5h54q5 -64 83 -64q45 0 76 26.5t31 64.5z" />
    <glyph glyph-name="six.numr" horiz-adv-x="372" 
d="M242 558q58 0 92 -31t34 -80q0 -65 -50.5 -109.5t-123.5 -44.5q-57 0 -92 32.5t-35 81.5q0 30 12 54t40 56l147 165h64l-110 -125q7 1 22 1zM202 337q46 0 79 29t33 71q0 32 -22.5 52.5t-58.5 20.5q-46 0 -76 -24l-2 -3q-35 -33 -35 -71q0 -33 23 -54t59 -21z" />
    <glyph glyph-name="seven.numr" horiz-adv-x="313" 
d="M377 682l-7 -34l-238 -347h-62l226 329h-204l9 52h276z" />
    <glyph glyph-name="eight.numr" horiz-adv-x="393" 
d="M324 505q55 -24 55 -80q0 -55 -48.5 -91.5t-124.5 -36.5q-61 0 -96.5 27t-35.5 71q0 38 23.5 67.5t65.5 44.5q-41 22 -41 67q0 51 45 85.5t109 34.5q54 0 86.5 -25.5t32.5 -66.5q0 -68 -71 -97zM269 651q-38 0 -65.5 -21.5t-27.5 -53.5q0 -25 19.5 -40t50.5 -15
q40 0 67 20.5t27 52.5q0 25 -19.5 41t-51.5 16zM214 343q46 0 75.5 23t29.5 58q0 27 -21.5 43t-57.5 16q-46 0 -75 -22t-29 -57q0 -27 21 -44t57 -17z" />
    <glyph glyph-name="nine.numr" horiz-adv-x="372" 
d="M269 695q57 0 92 -32.5t35 -81.5q0 -30 -12 -54t-40 -56l-147 -165h-64l110 125q-7 -1 -22 -1q-58 0 -92 31t-34 80q0 65 50.5 109.5t123.5 44.5zM306 502l2 3q35 33 35 71q0 33 -23 54t-59 21q-46 0 -79 -29t-33 -71q0 -32 22.5 -52.5t58.5 -20.5q46 0 76 24z" />
    <glyph glyph-name="backslash.case" horiz-adv-x="370" 
d="M33 730h71l233 -777h-71z" />
    <glyph glyph-name="bullet.case" horiz-adv-x="318" 
d="M173 218q-46 0 -80 34t-34 80t34 80t80 34q47 0 81.5 -34t34.5 -80t-34.5 -80t-81.5 -34z" />
    <glyph glyph-name="exclamdown.case" horiz-adv-x="263" 
d="M201 688q20 0 33.5 -13t13.5 -33q0 -19 -13.5 -32t-33.5 -13t-33.5 13t-13.5 32q0 20 13.5 33t33.5 13zM143 495h63l-83 -495h-72z" />
    <glyph glyph-name="periodcentered.case" horiz-adv-x="177" 
d="M108 286q-20 0 -33.5 13.5t-13.5 33.5q0 19 13.5 32t33.5 13t33.5 -13t13.5 -32q0 -20 -13.5 -33.5t-33.5 -13.5z" />
    <glyph glyph-name="questiondown.case" horiz-adv-x="567" 
d="M381 597q-20 0 -33.5 13t-13.5 32q0 20 13.5 33t33.5 13t33.5 -13t13.5 -33q0 -19 -13.5 -32t-33.5 -13zM252 -13q-88 0 -140 50t-52 129q0 94 70 159.5t176 70.5l19 95h56l-20 -145h-44q-78 0 -133.5 -50t-55.5 -121q0 -56 35.5 -91.5t95.5 -35.5q53 0 99.5 31.5
t65.5 81.5h69q-26 -80 -92 -127t-149 -47z" />
    <glyph glyph-name="slash.case" horiz-adv-x="370" 
d="M-19 -47l370 777h71l-370 -777h-71z" />
    <glyph glyph-name="braceleft.case" horiz-adv-x="356" 
d="M264 570l-16 -90q-10 -59 -31.5 -90.5t-64.5 -45.5q38 -14 48.5 -46.5t-0.5 -89.5l-16 -90q-8 -49 14 -79t68 -30l-11 -66q-77 0 -115 48t-24 127l16 88q11 62 -7.5 84.5t-74.5 22.5l10 62q56 0 83 22.5t37 84.5l16 88q14 79 69 127t131 48l-12 -66q-45 0 -78.5 -31.5
t-41.5 -77.5z" />
    <glyph glyph-name="braceright.case" horiz-adv-x="356" 
d="M132 118l16 90q10 59 31.5 90.5t64.5 45.5q-38 14 -48.5 46.5t0.5 89.5l15 90q9 49 -13 79t-68 30l11 66q76 0 114 -48t25 -127l-16 -88q-11 -62 7.5 -84.5t74.5 -22.5l-11 -62q-55 0 -82 -22.5t-38 -84.5l-15 -88q-14 -79 -69 -127t-131 -48l11 66q45 0 79 31.5t42 77.5
z" />
    <glyph glyph-name="bracketleft.case" horiz-adv-x="361" 
d="M127 18h137l-12 -66h-206l138 778h206l-12 -65h-138z" />
    <glyph glyph-name="bracketright.case" horiz-adv-x="361" 
d="M273 665h-138l13 65h206l-138 -778h-206l12 66h138z" />
    <glyph glyph-name="parenleft.case" horiz-adv-x="363" 
d="M343 729l36 -49q-101 -79 -153.5 -156.5t-73.5 -186.5q-20 -101 6.5 -182.5t98.5 -159.5l-51 -45q-170 162 -125 393q22 122 85.5 213.5t176.5 172.5z" />
    <glyph glyph-name="parenright.case" horiz-adv-x="363" 
d="M144 684l51 45q170 -162 125 -393q-23 -122 -86 -213.5t-177 -172.5l-35 49q101 79 153.5 156.5t73.5 186.5q20 101 -6.5 182.5t-98.5 159.5z" />
    <glyph glyph-name="emdash.case" horiz-adv-x="996" 
d="M907 371l-12 -68h-771l13 68h770z" />
    <glyph glyph-name="endash.case" horiz-adv-x="722" 
d="M634 370l-13 -68h-497l13 68h497z" />
    <glyph glyph-name="hyphen.case" horiz-adv-x="553" 
d="M465 370l-12 -68h-329l12 68h329z" />
    <glyph glyph-name="guillemotleft.case" horiz-adv-x="427" 
d="M255 486l-136 -152l83 -145h-68l-84 149l136 148h69zM416 486l-135 -152l82 -145h-68l-83 149l135 148h69z" />
    <glyph glyph-name="guillemotright.case" horiz-adv-x="428" 
d="M49 189l136 152l-83 145h68l84 -148l-136 -149h-69zM211 189l135 152l-83 145h69l83 -148l-135 -149h-69z" />
    <glyph glyph-name="guilsinglleft.case" horiz-adv-x="266" 
d="M255 486l-136 -152l83 -145h-68l-84 149l136 148h69z" />
    <glyph glyph-name="guilsinglright.case" horiz-adv-x="266" 
d="M45 189l135 152l-82 145h68l83 -148l-135 -149h-69z" />
    <glyph glyph-name="florin.tf" horiz-adv-x="606" 
d="M559 685q47 0 93 -14l-21 -59q-42 10 -72 10q-92 0 -127 -111l-45 -144h170l-10 -58h-178l-67 -221q-25 -81 -75.5 -127.5t-121.5 -46.5q-48 0 -94 14l21 59q42 -10 72 -10q93 0 128 111l67 221h-130l10 58h138l44 144q26 81 76 127.5t122 46.5z" />
    <glyph glyph-name="cent.tf" horiz-adv-x="606" 
d="M272 50q56 0 100 28t64 76h71q-26 -70 -87.5 -115.5t-138.5 -50.5l-20 -114h-63l21 116q-88 13 -131 79.5t-26 161.5q16 91 83.5 158t158.5 82l23 128h62l-22 -126q75 -6 120 -51t47 -115h-71q-3 47 -37.5 75.5t-89.5 28.5q-77 0 -134 -52t-71 -128q-14 -78 25 -129.5
t116 -51.5z" />
    <glyph glyph-name="dollar.tf" horiz-adv-x="606" 
d="M378 633q-86 0 -141 -40t-55 -104q0 -79 121 -101l100 -20q161 -33 161 -151q0 -100 -81 -165t-206 -67l-20 -116h-63l21 120q-95 13 -144 72t-42 156h70q-2 -83 44.5 -125.5t142.5 -42.5q89 0 145.5 42t56.5 108q0 37 -27 63.5t-82 36.5l-115 23q-79 15 -119.5 56
t-38.5 104q3 87 68 143t165 68l22 123h63l-21 -121q100 -5 158 -55.5t53 -143.5h-71q0 64 -41 100.5t-124 36.5z" />
    <glyph glyph-name="Euro.tf" horiz-adv-x="606" 
d="M423 631q-90 0 -156 -54.5t-99 -145.5h318l-23 -51h-309q-10 -46 -12 -99h279l-21 -51h-256q9 -84 54 -132.5t122 -48.5q95 0 149 62h86q-40 -59 -104 -92.5t-142 -33.5q-106 0 -168 66.5t-70 178.5h-59l9 51h49q2 51 12 99h-43l9 51h48q38 120 128 192t210 72
q84 0 137.5 -38t70.5 -106h-80q-14 38 -50.5 59t-88.5 21z" />
    <glyph glyph-name="sterling.tf" horiz-adv-x="606" 
d="M414 695q96 0 149.5 -53.5t47.5 -143.5h-70q2 63 -35 99.5t-103 36.5q-75 0 -128.5 -46t-67.5 -122l-21 -123h239l-11 -60h-239l-38 -223h390l-12 -60h-534l12 60h75l39 223h-75l10 60h75l22 123q18 103 93.5 166t181.5 63z" />
    <glyph glyph-name="yen.tf" horiz-adv-x="606" 
d="M352 263h174l-9 -53h-185l-12 -67h185l-9 -53h-185l-16 -90h-72l16 90h-185l9 53h185l12 67h-185l9 53h175l-152 417h79l129 -363l255 363h79z" />
    <glyph glyph-name="arrowdown.ss05" horiz-adv-x="686" 
d="M386 201l-43 -43l-247 249l42 43l205 -206l205 205l42 -43z" />
    <glyph glyph-name="arrowleft.ss05" horiz-adv-x="686" 
d="M548 164l-205 205l-205 -206l-42 43l247 249l43 -43l204 -205z" />
    <glyph glyph-name="arrowright.ss05" horiz-adv-x="571" 
d="M209 344l204 -205l-43 -42l-247 247l248 247l43 -42z" />
    <glyph glyph-name="arrowup.ss05" horiz-adv-x="559" 
d="M436 344l-247 -247l-43 42l205 205l-206 205l43 42z" />
    <glyph glyph-name="at.case" horiz-adv-x="964" 
d="M567 714q154 0 253 -97t99 -244q0 -110 -53 -188.5t-150 -78.5q-89 0 -108 69q-69 -72 -164 -72q-72 0 -117.5 47t-45.5 119q0 96 70 162.5t163 66.5q80 0 125 -53l7 39h62l-38 -216q-20 -109 55 -109q64 0 101.5 59t37.5 146q0 128 -86.5 213.5t-219.5 85.5
q-82 0 -161 -32.5t-139 -86.5t-97 -130t-37 -158q0 -131 87 -218t219 -87t247 82l23 -44q-128 -89 -278 -89q-153 0 -253.5 98.5t-100.5 248.5q0 96 42 183t111 149t160 98.5t186 36.5zM463 159q81 0 141 70q2 25 6 51l17 96q-37 67 -113 67q-67 0 -118 -46.5t-51 -118.5
q0 -54 33.5 -86.5t84.5 -32.5z" />
    <glyph glyph-name="bar.case" horiz-adv-x="256" 
d="M249 730l-137 -777h-65l137 777h65z" />
    <glyph glyph-name="brokenbar.case" horiz-adv-x="257" 
d="M190 392h-65l59 338h65zM112 -47h-65l60 337h65z" />
    <glyph glyph-name="registered.ss07" horiz-adv-x="859" 
d="M445 695q150 0 257 -102t107 -253t-107 -253t-257 -102t-257 102t-107 253t107 253t257 102zM444 33q128 0 221 89t93 218t-93 218t-221 89t-220.5 -89t-92.5 -218t92.5 -218t220.5 -89zM597 406q0 -43 -27 -72.5t-73 -39.5l110 -129h-57l-105 125h-79v-125h-45v360h134
q64 0 103 -33t39 -86zM366 330h89q44 0 70 21t26 55q0 35 -26.5 56t-69.5 21h-89v-153z" />
    <glyph glyph-name="caron.alt" 
d="M350 680l-59 -185h-54l43 185h70z" />
    <glyph glyph-name="acute.case" 
d="M458 883l-118 -142h-64l105 142h77z" />
    <glyph glyph-name="breve.case" 
d="M425 886h55q-11 -66 -58 -102.5t-108 -36.5q-60 0 -95 36.5t-24 102.5h53q-8 -45 14 -68t58 -23q35 0 66.5 23.5t38.5 67.5z" />
    <glyph glyph-name="caron.case" 
d="M522 883l-148 -144h-73l-98 144h64l75 -105l111 105h69z" />
    <glyph glyph-name="circumflex.case" 
d="M340 844l-110 -105h-71l149 144h74l96 -144h-64z" />
    <glyph glyph-name="dieresis.case" 
d="M231 854q20 0 33.5 -13.5t13.5 -32.5t-13.5 -32.5t-33.5 -13.5t-33.5 13.5t-13.5 32.5t13.5 32.5t33.5 13.5zM414 854q20 0 33.5 -13.5t13.5 -32.5t-13.5 -32.5t-33.5 -13.5t-34 13.5t-14 32.5t14 32.5t34 13.5z" />
    <glyph glyph-name="dotaccent.case" 
d="M317 760q-20 0 -34.5 14t-14.5 34t14.5 34t34.5 14t34.5 -14t14.5 -34t-14.5 -34t-34.5 -14z" />
    <glyph glyph-name="grave.case" 
d="M364 741h-64l-93 142h76z" />
    <glyph glyph-name="hungarumlaut.case" 
d="M342 883l-83 -142h-60l71 142h72zM477 883l-84 -142h-59l72 142h71z" />
    <glyph glyph-name="macron.case" 
d="M463 811l-10 -51h-278l10 51h278z" />
    <glyph glyph-name="ring.case" 
d="M321 944q44 0 71.5 -26.5t27.5 -68.5t-28 -69t-71 -27q-44 0 -72 27t-28 69t28 68.5t72 26.5zM321 792q25 0 41 16t16 41q0 24 -16 40.5t-41 16.5t-41 -16.5t-16 -40.5q0 -25 16 -41t41 -16z" />
    <glyph glyph-name="tilde.case" 
d="M421 865h49q0 -44 -23.5 -69t-55.5 -24t-64 17l-35 22q-29 18 -53.5 8.5t-24.5 -39.5h-49q0 44 25 68t57 22.5t61 -15.5l34 -21q33 -19 56 -9.5t23 40.5z" />
    </font>
</defs>
</svg>
