<?xml version="1.0" standalone="no"?>
<!DOCTYPE svg PUBLIC "-//W3C//DTD SVG 1.1//EN" "http://www.w3.org/Graphics/SVG/1.1/DTD/svg11.dtd" >
<svg xmlns="http://www.w3.org/2000/svg" xmlns:xlink="http://www.w3.org/1999/xlink" version="1.1">
<metadata>
Created by FontForge 20170731 at Wed Feb 19 04:58:10 2014
 By Aleksey,,,
Copyright (c) 2014 by Rene' Bieder. All rights reserved.
</metadata>
<defs>
<font id="Campton-SemiBold" horiz-adv-x="600" >
  <font-face 
    font-family="Campton SemiBold"
    font-weight="625"
    font-stretch="normal"
    units-per-em="1000"
    panose-1="0 0 7 0 0 0 0 0 0 0"
    ascent="800"
    descent="-200"
    x-height="479"
    cap-height="680"
    bbox="-58 -257 1473 978"
    underline-thickness="50"
    underline-position="-200"
    unicode-range="U+0020-FB02"
  />
<missing-glyph horiz-adv-x="870" 
d="M770 680v-680h-670v680h670zM700 610h-481l481 -481v481zM170 70h477l-477 477v-477z" />
    <glyph glyph-name="fi" unicode="fi" horiz-adv-x="722" 
d="M657 479v-479h-138v362h-247v-362h-139v362h-128v117h128v40q0 111 62 177.5t161 66.5q12 0 23 -0.5t23 -1.5t19.5 -1.5t20 -3t18.5 -3.5t21 -5t19.5 -5t23 -6t24.5 -6l-26 -118q-101 22 -147 22q-49 0 -76 -31t-27 -85v-40h385z" />
    <glyph glyph-name="fl" unicode="fl" horiz-adv-x="714" 
d="M133 479v68q0 97 56 156.5t148 59.5q55 0 118 -17l-19 -119q-43 9 -71 9q-42 0 -67.5 -24t-25.5 -64v-69h161v-117h-161v-362h-139v362h-128v117h128zM653 710v-710h-139v710h139z" />
    <glyph glyph-name=".notdef" horiz-adv-x="870" 
d="M770 680v-680h-670v680h670zM700 610h-481l481 -481v481zM170 70h477l-477 477v-477z" />
    <glyph glyph-name=".null" horiz-adv-x="0" 
 />
    <glyph glyph-name="nonmarkingreturn" horiz-adv-x="333" 
 />
    <glyph glyph-name="space" unicode=" " horiz-adv-x="259" 
 />
    <glyph glyph-name="exclam" unicode="!" horiz-adv-x="287" 
d="M204 219h-122l-12 461h146zM143 -10q-33 0 -57 23t-24 56t24 55.5t57 22.5q34 0 58 -22.5t24 -55.5t-24 -56t-58 -23z" />
    <glyph glyph-name="quotedbl" unicode="&#x22;" horiz-adv-x="343" 
d="M150 680v-283h-116v283h116zM309 680v-283h-116v283h116z" />
    <glyph glyph-name="numbersign" unicode="#" horiz-adv-x="776" 
d="M581 282h111v-123h-149l-50 -159h-141l50 159h-138l-50 -159h-141l50 159h-94v123h132l31 98h-108v123h146l56 178h141l-56 -178h138l56 178h141l-56 -178h97v-123h-135zM333 380l-31 -98h138l31 98h-138z" />
    <glyph glyph-name="dollar" unicode="$" horiz-adv-x="672" 
d="M323 411l84 -17q104 -22 156 -66t52 -126q0 -84 -55.5 -140.5t-152.5 -71.5v-105h-121v105q-103 15 -167.5 76t-71.5 159h143q8 -52 51.5 -82t110.5 -30q54 0 83.5 19t29.5 54q0 54 -86 70l-110 21q-195 39 -195 200q0 87 57.5 145t154.5 70v107h121v-110
q84 -15 142.5 -67t68.5 -150h-144q-15 100 -129 100q-53 0 -85 -22t-32 -61q0 -33 23.5 -50.5t71.5 -27.5z" />
    <glyph glyph-name="percent" unicode="%" horiz-adv-x="1087" 
d="M276 695q86 0 143.5 -54.5t57.5 -141.5q0 -88 -57.5 -143t-143.5 -55q-87 0 -144 55t-57 143q0 87 57 141.5t144 54.5zM353 0h-95l462 680h96zM276 397q42 0 70.5 28.5t28.5 73.5q0 44 -29 72t-70 28q-42 0 -71 -28t-29 -72q0 -45 29 -73.5t71 -28.5zM811 379
q87 0 144.5 -54.5t57.5 -141.5q0 -88 -57.5 -143t-144.5 -55q-86 0 -143 55t-57 143q0 87 57 141.5t143 54.5zM811 81q42 0 71 28.5t29 73.5q0 44 -29 72t-71 28q-41 0 -70 -28t-29 -72q0 -45 28.5 -73.5t70.5 -28.5z" />
    <glyph glyph-name="ampersand" unicode="&#x26;" horiz-adv-x="725" 
d="M531 0l-52 49q-84 -64 -195 -64q-115 0 -185.5 59t-70.5 155q0 119 115 180q-44 60 -44 120q0 85 62.5 140.5t157.5 55.5q93 0 150 -56t67 -149h-137q-4 39 -25.5 61t-54.5 22q-32 0 -54 -21.5t-22 -54.5q0 -34 24.5 -65t96.5 -99l110 -105l81 130h144l-127 -204l-8 -12
l148 -142h-181zM285 106q51 0 102 30l-134 127l-29 28q-62 -34 -62 -90q0 -39 36 -67t87 -28z" />
    <glyph glyph-name="quotesingle" unicode="'" horiz-adv-x="184" 
d="M150 680v-283h-116v283h116z" />
    <glyph glyph-name="parenleft" unicode="(" horiz-adv-x="374" 
d="M263 738l91 -92q-82 -86 -121 -164t-39 -184q0 -104 39 -182t121 -165l-91 -91q-212 186 -212 438q0 254 212 440z" />
    <glyph glyph-name="parenright" unicode=")" horiz-adv-x="373" 
d="M20 646l92 92q211 -187 211 -440q0 -251 -211 -438l-92 91q82 87 121 165t39 182q0 106 -39 184t-121 164z" />
    <glyph glyph-name="asterisk" unicode="*" horiz-adv-x="410" 
d="M371 467l-37 -65l-90 54v-96h-78v96l-90 -54l-38 65l94 57l-94 57l38 67l90 -56v96h78v-96l90 56l37 -67l-93 -57z" />
    <glyph glyph-name="plus" unicode="+" horiz-adv-x="679" 
d="M403 270v-169h-127v169h-177v123h177v169h127v-169h177v-123h-177z" />
    <glyph glyph-name="comma" unicode="," horiz-adv-x="222" 
d="M29 -109l49 104q-48 21 -48 66q0 33 23.5 55.5t57.5 22.5q35 0 58.5 -22.5t23.5 -55.5q0 -27 -27 -74l-56 -96h-81z" />
    <glyph glyph-name="hyphen" unicode="-" horiz-adv-x="550" 
d="M451 328v-137h-352v137h352z" />
    <glyph glyph-name="period" unicode="." horiz-adv-x="223" 
d="M111 -19q-34 0 -58 23t-24 57q0 33 24 56t58 23q35 0 59 -22.5t24 -56.5t-24 -57t-59 -23z" />
    <glyph glyph-name="slash" unicode="/" horiz-adv-x="412" 
d="M175 -160h-133l250 890h133z" />
    <glyph glyph-name="zero" unicode="0" horiz-adv-x="719" 
d="M360 695q143 0 225.5 -99t82.5 -256t-82.5 -256t-225.5 -99t-226 99t-83 256t83 256t226 99zM360 114q80 0 122.5 63.5t42.5 162.5t-42.5 162.5t-122.5 63.5q-81 0 -123.5 -63.5t-42.5 -162.5t42.5 -162.5t123.5 -63.5z" />
    <glyph glyph-name="one" unicode="1" horiz-adv-x="522" 
d="M517 118v-118h-478v118h173v409l-165 -49v123l224 79h83v-562h163z" />
    <glyph glyph-name="two" unicode="2" horiz-adv-x="564" 
d="M516 118v-118h-465v73l207 253q12 15 33 40t31 37t21.5 29t16 30.5t4.5 27.5q0 32 -22 56t-68 24q-43 0 -69 -26t-31 -73h-141q2 102 64.5 163t172.5 61t174.5 -59.5t64.5 -145.5q0 -47 -27.5 -90.5t-104.5 -135.5l-120 -146h259z" />
    <glyph glyph-name="three" unicode="3" horiz-adv-x="565" 
d="M440 343q91 -47 91 -150q0 -90 -67.5 -149t-174.5 -59q-112 0 -174.5 54t-76.5 151h139q12 -42 36.5 -63t77.5 -21q47 0 76.5 24.5t29.5 62.5q0 40 -33 64t-86 24h-54v113h54q44 0 71 24.5t27 63.5q0 40 -24.5 64t-64.5 24q-39 0 -65 -23t-31 -61h-138q7 92 70.5 148.5
t161.5 56.5q100 0 162 -57.5t62 -148.5q0 -93 -69 -142z" />
    <glyph glyph-name="four" unicode="4" horiz-adv-x="642" 
d="M604 131h-88v-131h-138v131h-348v89l190 460h144l-170 -427h184v194h138v-194h88v-122z" />
    <glyph glyph-name="five" unicode="5" horiz-adv-x="597" 
d="M221 439h86q107 0 173 -62t66 -158q0 -102 -69.5 -168t-179.5 -66q-109 0 -176.5 55t-81.5 150h139q25 -84 119 -84q51 0 83 31t32 78q0 46 -33.5 74.5t-90.5 28.5h-199v362h428v-127h-296v-114z" />
    <glyph glyph-name="six" unicode="6" horiz-adv-x="620" 
d="M450 680l-133 -211q114 -2 187 -70t73 -168q0 -105 -75.5 -175.5t-191.5 -70.5t-191.5 70.5t-75.5 171.5q0 71 62 171l179 282h166zM310 100q55 0 91.5 37t36.5 87t-36 86t-92 36q-50 0 -87 -26l-1 -1q-41 -57 -41 -97q0 -49 37 -85.5t92 -36.5z" />
    <glyph glyph-name="seven" unicode="7" horiz-adv-x="509" 
d="M490 680v-85l-270 -595h-159l252 547h-303v133h480z" />
    <glyph glyph-name="eight" unicode="8" horiz-adv-x="626" 
d="M476 359q51 -26 79 -69t28 -97q0 -93 -73 -150.5t-197 -57.5t-197 57.5t-73 150.5q0 54 28 97t79 69q-80 50 -80 141q0 86 68 140.5t175 54.5t174.5 -54.5t67.5 -140.5q0 -92 -79 -141zM313 585q-47 0 -76 -26.5t-29 -66.5t29.5 -67t75.5 -27t75.5 27.5t29.5 66.5
q0 40 -29.5 66.5t-75.5 26.5zM313 102q49 0 82 29.5t33 71.5q0 41 -32.5 69.5t-82.5 28.5t-82.5 -28t-32.5 -70q0 -43 32.5 -72t82.5 -29z" />
    <glyph glyph-name="nine" unicode="9" horiz-adv-x="620" 
d="M310 695q116 0 191.5 -70.5t75.5 -171.5q0 -71 -62 -171l-178 -282h-167l133 211q-114 2 -187 70t-73 168q0 105 75.5 175.5t191.5 70.5zM397 360l1 1q41 57 41 97q0 49 -37 85.5t-92 36.5t-91.5 -37t-36.5 -87q0 -49 36 -85t92 -36q51 0 87 25z" />
    <glyph glyph-name="colon" unicode=":" horiz-adv-x="223" 
d="M111 335q-34 0 -58 23t-24 56t24 56t58 23q35 0 59 -22.5t24 -56.5t-24 -56.5t-59 -22.5zM111 -19q-34 0 -58 23t-24 57q0 33 24 56t58 23t58.5 -23t24.5 -56q0 -34 -24.5 -57t-58.5 -23z" />
    <glyph glyph-name="semicolon" unicode=";" horiz-adv-x="223" 
d="M111 335q-34 0 -58 23t-24 56t24 56t58 23q35 0 59 -22.5t24 -56.5t-24 -56.5t-59 -22.5zM30 -109l49 104q-48 21 -48 66q0 33 23.5 55.5t57.5 22.5q35 0 58.5 -22.5t23.5 -55.5q0 -27 -27 -74l-56 -96h-81z" />
    <glyph glyph-name="less" unicode="&#x3c;" horiz-adv-x="539" 
d="M470 563v-135l-272 -122l272 -123v-135l-422 190v135z" />
    <glyph glyph-name="equal" unicode="=" horiz-adv-x="680" 
d="M581 362h-482v123h482v-123zM581 160h-482v123h482v-123z" />
    <glyph glyph-name="greater" unicode="&#x3e;" horiz-adv-x="539" 
d="M490 238l-422 -190v135l272 123l-272 122v135l422 -190v-135z" />
    <glyph glyph-name="question" unicode="?" horiz-adv-x="527" 
d="M182 214l-10 161h75q47 0 78 26.5t31 71.5q0 44 -27 70.5t-71 26.5q-41 0 -68.5 -23t-32.5 -61h-138q7 94 67.5 149.5t165.5 55.5q102 0 169 -60.5t67 -157.5q0 -81 -51.5 -131t-141.5 -61l-6 -67h-107zM233 -10q-34 0 -57.5 22.5t-23.5 56.5q0 33 23.5 55.5t57.5 22.5
t58 -22.5t24 -55.5t-24 -56t-58 -23z" />
    <glyph glyph-name="at" unicode="@" horiz-adv-x="998" 
d="M710 441v-234q0 -82 56 -82q76 0 76 125q0 143 -95 235t-240 92q-147 0 -248.5 -97.5t-101.5 -238.5t100.5 -238t242.5 -97q122 0 215 72l54 -81q-117 -85 -268 -85q-185 0 -314 123t-129 306t130 306.5t318 123.5q187 0 310 -118t123 -301q0 -103 -42.5 -164t-131.5 -61
q-105 0 -146 66q-58 -64 -149 -64q-87 0 -145 60.5t-58 149.5q0 90 58 150.5t145 60.5q67 0 118 -37v28h122zM491 135q63 0 99 56q-2 30 -2 47v53q-38 54 -97 54q-40 0 -71 -29t-31 -76q0 -48 31 -76.5t71 -28.5z" />
    <glyph glyph-name="A" unicode="A" horiz-adv-x="755" 
d="M532 131h-308l-53 -131h-154l293 684h136l292 -684h-153zM478 262l-101 249l-100 -249h201z" />
    <glyph glyph-name="B" unicode="B" horiz-adv-x="699" 
d="M532 352q62 -13 93.5 -58.5t31.5 -106.5q0 -85 -66 -136t-178 -51h-346v680h330q108 0 169 -47.5t61 -131.5q0 -50 -26 -91.5t-69 -57.5zM212 555v-156h166q54 0 83.5 22.5t29.5 59.5q0 74 -113 74h-166zM212 125h191q55 0 83.5 22.5t28.5 57.5t-28.5 53t-79.5 18h-195
v-151z" />
    <glyph glyph-name="C" unicode="C" horiz-adv-x="792" 
d="M406 124q73 0 121 39t66 112h148q-21 -131 -112 -210t-223 -79q-150 0 -252.5 100.5t-102.5 253.5t102.5 253.5t252.5 100.5q132 0 223 -79t112 -210h-148q-18 73 -66 112t-121 39q-91 0 -150 -60t-59 -156t59 -156t150 -60z" />
    <glyph glyph-name="D" unicode="D" horiz-adv-x="738" 
d="M67 680h265q157 0 260.5 -96t103.5 -241q0 -148 -103.5 -245.5t-260.5 -97.5h-265v680zM212 133h120q91 0 154 61t63 149q0 86 -63 145.5t-154 59.5h-120v-415z" />
    <glyph glyph-name="E" unicode="E" horiz-adv-x="612" 
d="M212 549v-148h318v-131h-318v-139h359v-131h-504v680h504v-131h-359z" />
    <glyph glyph-name="F" unicode="F" horiz-adv-x="584" 
d="M212 548v-167h307v-131h-307v-250h-145v680h497v-132h-352z" />
    <glyph glyph-name="G" unicode="G" horiz-adv-x="814" 
d="M752 379v-379h-111l-8 94q-77 -108 -226 -108q-154 0 -255 101t-101 244q0 159 103.5 261t256.5 102q119 0 212 -65.5t121 -186.5h-154q-41 115 -177 115q-96 0 -156 -61t-60 -164q0 -87 58 -147.5t153 -60.5q69 0 117 34t71 93h-201v128h357z" />
    <glyph glyph-name="H" unicode="H" horiz-adv-x="728" 
d="M661 680v-680h-145v266h-304v-266h-145v680h145v-282h304v282h145z" />
    <glyph glyph-name="I" unicode="I" horiz-adv-x="279" 
d="M212 680v-680h-145v680h145z" />
    <glyph glyph-name="J" unicode="J" horiz-adv-x="604" 
d="M545 680v-420q0 -131 -72.5 -203t-199.5 -72q-112 0 -184 64.5t-77 178.5h146q2 -53 36 -81t87 -28q52 0 85 38.5t33 105.5v417h146z" />
    <glyph glyph-name="K" unicode="K" horiz-adv-x="716" 
d="M318 271l-106 -120v-151h-145v680h145v-333l296 333h172l-264 -299l291 -381h-180z" />
    <glyph glyph-name="L" unicode="L" horiz-adv-x="581" 
d="M559 129v-129h-492v680h145v-551h347z" />
    <glyph glyph-name="M" unicode="M" horiz-adv-x="849" 
d="M782 680v-680h-145v369l-170 -267h-85v1l-171 269l2 -372h-146v680h104l254 -400l254 400h103z" />
    <glyph glyph-name="N" unicode="N" horiz-adv-x="748" 
d="M681 680v-680h-112l-357 413v-413h-145v680h109l360 -424v424h145z" />
    <glyph glyph-name="O" unicode="O" horiz-adv-x="813" 
d="M406 694q149 0 252.5 -103t103.5 -251t-103.5 -251t-252.5 -103q-148 0 -251.5 103t-103.5 251t103.5 251t251.5 103zM406 121q90 0 149.5 64t59.5 155t-59.5 155t-149.5 64q-89 0 -149 -64t-60 -155t60 -155t149 -64z" />
    <glyph glyph-name="P" unicode="P" horiz-adv-x="630" 
d="M67 680h266q125 0 200 -66t75 -175q0 -115 -80.5 -184t-213.5 -69h-102v-186h-145v680zM212 317h116q61 0 99 33.5t38 88.5q0 49 -37.5 79t-99.5 30h-116v-231z" />
    <glyph glyph-name="Q" unicode="Q" horiz-adv-x="813" 
d="M762 340q0 -157 -114 -261l111 -131l-106 -97l-130 154q-57 -19 -116 -19q-149 0 -252.5 103t-103.5 251t103.5 251t252.5 103q148 0 251.5 -103t103.5 -251zM406 121q90 0 149.5 64t59.5 155t-59.5 155t-149.5 64q-89 0 -149 -64t-60 -155t60 -155t149 -64z" />
    <glyph glyph-name="R" unicode="R" horiz-adv-x="691" 
d="M330 211h-118v-211h-145v680h290q119 0 194.5 -64.5t75.5 -169.5q0 -73 -38 -128t-104 -83l186 -235h-174zM212 344h140q56 0 94 28t38 74t-38 74t-94 28h-140v-204z" />
    <glyph glyph-name="S" unicode="S" horiz-adv-x="672" 
d="M335 695q47 0 91 -10.5t86.5 -34.5t71 -69.5t34.5 -108.5h-143q-15 100 -129 100q-54 0 -86 -22t-32 -61q0 -33 23.5 -51t72.5 -27l84 -17q104 -22 155.5 -66t51.5 -126q0 -98 -74 -157t-196 -59q-125 0 -207 63.5t-91 175.5h144q8 -52 51 -82t111 -30q54 0 83 19t29 54
q0 54 -85 70l-111 21q-194 39 -194 200q0 98 71.5 158t188.5 60z" />
    <glyph glyph-name="T" unicode="T" horiz-adv-x="651" 
d="M625 548h-227v-548h-145v548h-227v132h599v-132z" />
    <glyph glyph-name="U" unicode="U" horiz-adv-x="730" 
d="M672 680v-371q0 -151 -83.5 -237.5t-224.5 -86.5q-140 0 -223 86.5t-83 237.5v371h144v-372q0 -85 44.5 -136.5t117.5 -51.5q74 0 119 51.5t45 136.5v372h144z" />
    <glyph glyph-name="V" unicode="V" horiz-adv-x="779" 
d="M761 680l-303 -684h-136l-304 684h159l212 -491l214 491h158z" />
    <glyph glyph-name="W" unicode="W" horiz-adv-x="1081" 
d="M1053 680l-223 -684h-141l-149 433l-148 -433h-142l-222 684h152l143 -458l157 458h121l157 -458l143 458h152z" />
    <glyph glyph-name="X" unicode="X" horiz-adv-x="680" 
d="M502 0l-162 227l-162 -227h-167l231 336l-227 344h175l149 -229l150 229h175l-228 -344l233 -336h-167z" />
    <glyph glyph-name="Y" unicode="Y" horiz-adv-x="703" 
d="M694 680l-269 -461v-219h-146v219l-271 461h160l183 -315l183 315h160z" />
    <glyph glyph-name="Z" unicode="Z" horiz-adv-x="654" 
d="M613 130v-130h-574v68l359 482h-343v130h553v-68l-343 -482h348z" />
    <glyph glyph-name="bracketleft" unicode="[" horiz-adv-x="366" 
d="M191 -9h146v-133h-285v872h285v-132h-146v-607z" />
    <glyph glyph-name="backslash" unicode="\" horiz-adv-x="412" 
d="M148 730l250 -890h-133l-251 890h134z" />
    <glyph glyph-name="bracketright" unicode="]" horiz-adv-x="366" 
d="M29 598v132h286v-872h-286v133h147v607h-147z" />
    <glyph glyph-name="asciicircum" unicode="^" horiz-adv-x="424" 
d="M405 439h-126l-67 138l-68 -138h-125l133 241h120z" />
    <glyph glyph-name="underscore" unicode="_" horiz-adv-x="626" 
d="M29 -90h568v-121h-568v121z" />
    <glyph glyph-name="grave" unicode="`" 
d="M404 555h-126l-100 154h152z" />
    <glyph glyph-name="a" unicode="a" horiz-adv-x="613" 
d="M552 479v-479h-139v28q-59 -38 -136 -38q-99 0 -169 72.5t-70 176.5q0 105 70 177.5t169 72.5q77 0 136 -38v28h139zM300 108q71 0 113 55v153q-41 56 -113 56q-54 0 -89 -39t-35 -94q0 -54 35 -92.5t89 -38.5z" />
    <glyph glyph-name="b" unicode="b" horiz-adv-x="613" 
d="M336 489q99 0 168.5 -72.5t69.5 -176.5q0 -105 -69.5 -177.5t-168.5 -72.5q-77 0 -136 38v-28h-139v710h139v-259q59 38 136 38zM313 107q53 0 88.5 39.5t35.5 93.5t-35.5 92.5t-88.5 38.5q-71 0 -113 -55v-153q41 -56 113 -56z" />
    <glyph glyph-name="c" unicode="c" horiz-adv-x="574" 
d="M295 113q40 0 67 20t35 55h139q-10 -88 -78 -143.5t-163 -55.5q-109 0 -183 71.5t-74 178.5t74 178.5t183 71.5q95 0 163 -55.5t78 -143.5h-139q-8 35 -35 55.5t-67 20.5q-54 0 -87 -36.5t-33 -90.5t33 -90t87 -36z" />
    <glyph glyph-name="d" unicode="d" horiz-adv-x="613" 
d="M552 710v-710h-139v28q-59 -38 -136 -38q-99 0 -169 72.5t-70 177.5q0 104 70 176.5t169 72.5q77 0 136 -38v259h139zM300 107q72 0 113 56v153q-42 55 -113 55q-54 0 -89 -38.5t-35 -92.5q0 -55 35 -94t89 -39z" />
    <glyph glyph-name="e" unicode="e" horiz-adv-x="568" 
d="M530 249q0 -40 -3 -60h-349q25 -85 120 -85q58 0 81 36h145q-19 -69 -81.5 -110t-147.5 -41q-114 0 -185.5 71t-71.5 179q0 109 70.5 179.5t184.5 70.5q102 0 169.5 -67t67.5 -173zM289 375q-90 0 -113 -89h216q-6 42 -33 65.5t-70 23.5z" />
    <glyph glyph-name="f" unicode="f" horiz-adv-x="453" 
d="M272 479h182v-117h-182v-362h-139v362h-128v117h128v68q0 97 56 156.5t148 59.5q55 0 118 -17l-19 -119q-43 9 -71 9q-42 0 -67.5 -24t-25.5 -64v-69z" />
    <glyph glyph-name="g" unicode="g" horiz-adv-x="617" 
d="M556 479v-473q0 -111 -68.5 -175.5t-179.5 -64.5q-104 0 -174 57.5t-78 149.5h140q5 -38 34 -60.5t78 -22.5q48 0 79 30.5t31 84.5v52q-59 -38 -136 -38q-98 0 -168.5 70t-70.5 164q0 107 69.5 176t169.5 69q77 0 136 -38v19h138zM305 136q72 0 113 58v129
q-41 57 -113 57q-55 0 -89.5 -35.5t-34.5 -91.5q0 -44 36 -80.5t88 -36.5z" />
    <glyph glyph-name="h" unicode="h" horiz-adv-x="601" 
d="M337 494q95 0 152.5 -63t57.5 -168v-263h-139v251q0 57 -27 87t-76 30q-56 0 -105 -60v-308h-139v710h139v-265q62 49 137 49z" />
    <glyph glyph-name="i" unicode="i" horiz-adv-x="269" 
d="M135 568q-35 0 -59.5 23t-24.5 57q0 35 24.5 58.5t59.5 23.5t59 -23.5t24 -58.5q0 -34 -24 -57t-59 -23zM205 479v-479h-139v479h139z" />
    <glyph glyph-name="j" unicode="j" horiz-adv-x="265" 
d="M130 568q-35 0 -59.5 23t-24.5 57q0 35 24.5 58.5t59.5 23.5t59.5 -23.5t24.5 -58.5q0 -34 -24.5 -57t-59.5 -23zM200 479v-444q0 -115 -48 -170.5t-174 -57.5l-12 119q56 5 75.5 24t19.5 67v462h139z" />
    <glyph glyph-name="k" unicode="k" horiz-adv-x="584" 
d="M277 180l-77 -81v-99h-139v710h139v-430l185 199h173l-186 -198l207 -281h-175z" />
    <glyph glyph-name="l" unicode="l" horiz-adv-x="261" 
d="M200 710v-710h-139v710h139z" />
    <glyph glyph-name="m" unicode="m" horiz-adv-x="912" 
d="M645 494q89 0 149 -64t60 -167v-263h-139v251q0 57 -26.5 87t-75.5 30q-52 0 -90 -53q4 -34 4 -52v-263h-139v251q0 57 -26.5 87t-76.5 30q-45 0 -85 -54v-314h-139v479h139v-29q47 44 118 44q94 0 153 -68q39 36 79 52t95 16z" />
    <glyph glyph-name="n" unicode="n" horiz-adv-x="601" 
d="M337 494q95 0 152.5 -63t57.5 -168v-263h-139v251q0 57 -27 87t-76 30q-56 0 -105 -60v-308h-139v479h139v-34q62 49 137 49z" />
    <glyph glyph-name="o" unicode="o" horiz-adv-x="588" 
d="M295 489q110 0 182.5 -70.5t72.5 -179.5q0 -110 -72.5 -182t-182.5 -72q-111 0 -184 72t-73 182q0 109 73 179.5t184 70.5zM295 109q53 0 85.5 37.5t32.5 92.5q0 54 -32.5 90t-85.5 36q-54 0 -87 -36t-33 -90q0 -55 33 -92.5t87 -37.5z" />
    <glyph glyph-name="p" unicode="p" horiz-adv-x="613" 
d="M336 489q99 0 168.5 -72.5t69.5 -177.5q0 -104 -69.5 -176.5t-168.5 -72.5q-77 0 -136 38v-259h-139v710h139v-28q59 38 136 38zM313 108q53 0 88.5 38.5t35.5 92.5t-35.5 93.5t-88.5 39.5q-72 0 -113 -56v-153q42 -55 113 -55z" />
    <glyph glyph-name="q" unicode="q" horiz-adv-x="613" 
d="M551 479v-710h-139v258q-60 -37 -135 -37q-99 0 -169 72.5t-70 176.5q0 105 70 177.5t169 72.5q78 0 135 -37v27h139zM300 108q70 0 112 55v154q-42 55 -112 55q-54 0 -89 -39t-35 -94q0 -54 35 -92.5t89 -38.5z" />
    <glyph glyph-name="r" unicode="r" horiz-adv-x="397" 
d="M200 479v-54q67 62 168 62v-132q-109 -4 -168 -69v-286h-139v479h139z" />
    <glyph glyph-name="s" unicode="s" horiz-adv-x="508" 
d="M28 166l127 -1q11 -71 100 -71q36 0 58.5 11t22.5 30q0 31 -48 40l-102 17q-62 11 -101.5 45.5t-39.5 96.5q0 73 57 115.5t150 42.5q35 0 67.5 -7t66 -23.5t55.5 -50.5t26 -82l-127 -1q-2 31 -26.5 45.5t-61.5 14.5q-34 0 -52.5 -11.5t-18.5 -29.5q0 -35 57 -45l87 -14
q145 -26 145 -141q0 -78 -60 -120t-156 -42q-93 0 -156 43t-70 138z" />
    <glyph glyph-name="t" unicode="t" horiz-adv-x="457" 
d="M410 126l18 -119q-71 -22 -129 -22q-87 0 -139.5 56.5t-52.5 149.5v171h-101v117h101v171h138v-171h173v-117h-173v-170q0 -79 84 -79q31 0 81 13z" />
    <glyph glyph-name="u" unicode="u" horiz-adv-x="601" 
d="M540 479v-479h-139v34q-62 -49 -137 -49q-95 0 -152.5 63t-57.5 167v264h139v-251q0 -57 27 -87t76 -30q56 0 105 60v308h139z" />
    <glyph glyph-name="v" unicode="v" horiz-adv-x="583" 
d="M570 479l-216 -479h-124l-216 479h147l131 -303l131 303h147z" />
    <glyph glyph-name="w" unicode="w" horiz-adv-x="799" 
d="M785 479l-175 -479h-123l-87 264l-88 -264h-122l-175 479h149l88 -267l90 267h115l91 -268l88 268h149z" />
    <glyph glyph-name="x" unicode="x" horiz-adv-x="560" 
d="M372 240l175 -240h-161l-105 146l-106 -146h-162l175 241l-175 239h167l99 -138l102 138h166z" />
    <glyph glyph-name="y" unicode="y" horiz-adv-x="635" 
d="M612 480l-303 -710h-146l93 218l-233 492h148l155 -327l140 327h146z" />
    <glyph glyph-name="z" unicode="z" horiz-adv-x="502" 
d="M470 405l-234 -290h234v-115h-439v65l242 299h-236v115h433v-74z" />
    <glyph glyph-name="braceleft" unicode="{" horiz-adv-x="357" 
d="M249 553v-141q0 -50 -15 -75.5t-61 -38.5q46 -14 61 -39t15 -75v-141q0 -26 21.5 -42t57.5 -16v-133q-98 0 -158 51.5t-60 136.5v142q0 38 -16 47t-65 9v119q26 0 38 1t23.5 6.5t15.5 17t4 31.5v142q0 86 59.5 137.5t158.5 51.5v-134q-36 0 -57.5 -15.5t-21.5 -41.5z" />
    <glyph glyph-name="bar" unicode="|" horiz-adv-x="324" 
d="M226 730v-890h-128v890h128z" />
    <glyph glyph-name="braceright" unicode="}" horiz-adv-x="371" 
d="M122 412v141q0 26 -21.5 41.5t-57.5 15.5v134q98 0 158 -51.5t60 -137.5v-142q0 -38 15.5 -47t64.5 -9v-119q-26 0 -37.5 -1t-23.5 -6.5t-15.5 -17t-3.5 -31.5v-142q0 -85 -60 -136.5t-158 -51.5v133q36 0 57.5 16t21.5 42v141q0 50 14.5 75t60.5 39q-45 14 -60 39
t-15 75z" />
    <glyph glyph-name="asciitilde" unicode="~" horiz-adv-x="448" 
d="M311 410h121q0 -53 -20.5 -90t-50.5 -51.5t-64 -13.5t-63 17l-50 30q-18 12 -28.5 8t-14.5 -13t-4 -22h-121q0 53 20.5 89.5t50.5 51t64 14t63 -16.5l51 -30q18 -12 28 -8t14 13t4 22z" />
    <glyph glyph-name="exclamdown" unicode="&#xa1;" horiz-adv-x="287" 
d="M143 490q34 0 58 -23t24 -56t-24 -55.5t-58 -22.5q-33 0 -57 22.5t-24 55.5t24 56t57 23zM70 -199l12 461h122l12 -461h-146z" />
    <glyph glyph-name="cent" unicode="&#xa2;" horiz-adv-x="574" 
d="M295 113q40 0 67 20t35 55h138q-9 -73 -57.5 -124t-120.5 -68v-102h-121v101q-88 19 -143 86t-55 158q0 92 55 159t143 85v118h121v-119q72 -17 120.5 -68t57.5 -124h-138q-8 35 -35 55.5t-67 20.5q-54 0 -87 -36t-33 -91q0 -54 33 -90t87 -36z" />
    <glyph glyph-name="sterling" unicode="&#xa3;" horiz-adv-x="612" 
d="M226 120h348v-120h-544v120h58v153h-58v117h58v62q0 109 68.5 175.5t181.5 66.5q104 0 171 -56.5t78 -152.5h-140q-9 41 -37.5 64t-71.5 23q-50 0 -81 -32.5t-31 -87.5v-62h191v-117h-191v-153z" />
    <glyph glyph-name="yen" unicode="&#xa5;" horiz-adv-x="703" 
d="M475 305h125v-97h-175v-45h175v-97h-175v-66h-146v66h-176v97h176v45h-176v97h125l-220 375h160l183 -316l184 316h160z" />
    <glyph glyph-name="brokenbar" unicode="&#xa6;" horiz-adv-x="324" 
d="M226 336h-128v394h128v-394zM226 -160h-128v394h128v-394z" />
    <glyph glyph-name="section" unicode="&#xa7;" horiz-adv-x="549" 
d="M520 233q0 -84 -70 -126q27 -44 27 -97q0 -79 -57.5 -124.5t-145.5 -45.5q-95 0 -155 52.5t-70 140.5h149q5 -71 74 -71q27 0 44 14t17 38q0 40 -43 60l-118 53q-79 36 -111 77t-32 94q0 84 71 125q-28 43 -28 98q0 78 57.5 123.5t145.5 45.5q95 0 155 -52.5t70 -139.5
h-149q-2 32 -20 51.5t-53 19.5q-27 0 -44.5 -14.5t-17.5 -37.5q0 -41 43 -60l118 -55q79 -37 111 -77t32 -92zM233 237l119 -55q31 13 31 46q0 35 -67 65l-119 55q-31 -11 -31 -46t67 -65z" />
    <glyph glyph-name="dieresis" unicode="&#xa8;" 
d="M191 710q35 0 59.5 -23t24.5 -57t-24.5 -57.5t-59.5 -23.5t-59.5 23.5t-24.5 57.5t24.5 57t59.5 23zM410 710q35 0 59 -23t24 -57t-24 -57.5t-59 -23.5t-59.5 23.5t-24.5 57.5t24.5 57t59.5 23z" />
    <glyph glyph-name="copyright" unicode="&#xa9;" horiz-adv-x="829" 
d="M415 695q150 0 257 -102t107 -253t-107 -253t-257 -102t-257 102t-107 253t107 253t257 102zM414 72q111 0 192 78t81 190t-81 190t-192 78t-191.5 -78t-80.5 -190t80.5 -190t191.5 -78zM416 410q-31 0 -51.5 -21t-20.5 -51t20.5 -50.5t51.5 -20.5q47 0 63 39h102
q-10 -60 -55.5 -96t-108.5 -36q-74 0 -123 46.5t-49 117.5q0 72 49 118.5t123 46.5q63 0 108.5 -36t55.5 -96h-102q-17 39 -63 39z" />
    <glyph glyph-name="ordfeminine" unicode="&#xaa;" horiz-adv-x="355" 
d="M179 685q66 0 107 -37.5t41 -101.5v-191h-94v12q-38 -18 -80 -18q-61 0 -97.5 28t-36.5 76q0 45 33 69t91 24h90q0 59 -54 59q-50 0 -53 -40h-94q2 60 45.5 90t101.5 30zM160 424q38 0 73 23v33h-94q-13 0 -21.5 -6t-8.5 -15q0 -14 12 -24.5t39 -10.5z" />
    <glyph glyph-name="guillemotleft" unicode="&#xab;" horiz-adv-x="465" 
d="M247 408l-92 -156l92 -156h-130l-93 156l93 156h130zM441 408l-93 -156l93 -156h-131l-93 156l93 156h131z" />
    <glyph glyph-name="registered" unicode="&#xae;" horiz-adv-x="567" 
d="M283 692q105 0 180 -72t75 -177t-75 -176.5t-180 -71.5t-180 71.5t-75 176.5t75 177t180 72zM282 262q74 0 128.5 53.5t54.5 127.5q0 76 -54.5 129t-128.5 53t-127.5 -53t-53.5 -129q0 -74 54 -127.5t127 -53.5zM379 478q0 -42 -37 -61l46 -69h-67l-36 58h-28v-58h-54
v206h91q38 0 61.5 -21t23.5 -55zM257 453h36q31 0 31 26q0 25 -31 25h-36v-51z" />
    <glyph glyph-name="macron" unicode="&#xaf;" 
d="M441 684v-111h-282v111h282z" />
    <glyph glyph-name="degree" unicode="&#xb0;" horiz-adv-x="465" 
d="M232 695q77 0 127 -48.5t50 -122.5q0 -75 -50 -123.5t-127 -48.5q-76 0 -125.5 48.5t-49.5 123.5q0 74 49.5 122.5t125.5 48.5zM232 451q31 0 53 21.5t22 51.5t-22 51t-53 21q-30 0 -52 -21t-22 -51t22 -51.5t52 -21.5z" />
    <glyph glyph-name="plusminus" unicode="&#xb1;" horiz-adv-x="679" 
d="M580 323h-177v-129h-127v129h-177v122h177v130h127v-130h177v-122zM580 155v-122h-481v122h481z" />
    <glyph glyph-name="twosuperior" unicode="&#xb2;" horiz-adv-x="369" 
d="M340 367v-85h-304v53l145 157q29 30 39.5 46.5t10.5 32.5q0 17 -12 27.5t-32 10.5q-50 0 -52 -51h-101q1 65 40.5 103.5t110.5 38.5q70 0 110 -35.5t40 -86.5q0 -56 -68 -133l-69 -78h142z" />
    <glyph glyph-name="threesuperior" unicode="&#xb3;" horiz-adv-x="382" 
d="M296 492q52 -28 52 -87q0 -55 -43 -92t-112 -37q-68 0 -109.5 34.5t-51.5 95.5h101q14 -42 61 -42q25 0 40.5 11.5t15.5 29.5q0 42 -68 42h-32v81h32q25 0 40 12.5t15 31.5t-12 30t-35 11q-21 0 -33 -12t-14 -30h-101q5 60 44 95t103 35q66 0 105 -36t39 -92
q0 -52 -37 -81z" />
    <glyph glyph-name="acute" unicode="&#xb4;" 
d="M450 709l-100 -154h-126l75 154h151z" />
    <glyph glyph-name="paragraph" unicode="&#xb6;" horiz-adv-x="774" 
d="M713 680v-840h-139v721h-81v-721h-138v365h-77q-110 0 -184 68t-74 177q0 102 74 166t184 64h435zM355 561h-77q-55 0 -89 -31t-34 -81q0 -53 34 -86t89 -33h77v231z" />
    <glyph glyph-name="periodcentered" unicode="&#xb7;" horiz-adv-x="223" 
d="M111 193q-34 0 -58 23t-24 56t24 56t58 23q35 0 59 -22.5t24 -56.5t-24 -56.5t-59 -22.5z" />
    <glyph glyph-name="cedilla" unicode="&#xb8;" 
d="M317 -215h-118l43 165h135z" />
    <glyph glyph-name="onesuperior" unicode="&#xb9;" horiz-adv-x="340" 
d="M335 371v-85h-306v85h106v216l-102 -29v89l143 48h56v-324h103z" />
    <glyph glyph-name="ordmasculine" unicode="&#xba;" horiz-adv-x="388" 
d="M194 687q74 0 122 -47.5t48 -119.5q0 -74 -48 -122.5t-122 -48.5t-122 48.5t-48 122.5q0 72 48.5 119.5t121.5 47.5zM194 435q34 0 55 24.5t21 60.5q0 34 -21 57.5t-55 23.5q-35 0 -56 -23t-21 -58q0 -36 21.5 -60.5t55.5 -24.5z" />
    <glyph glyph-name="guillemotright" unicode="&#xbb;" horiz-adv-x="465" 
d="M247 252l-92 -156h-131l93 156l-93 156h131zM441 252l-93 -156h-130l92 156l-92 156h130z" />
    <glyph glyph-name="onequarter" unicode="&#xbc;" horiz-adv-x="937" 
d="M29 271v85h106v216l-102 -29v89l143 48h56v-324h103v-85h-306zM755 680l-463 -680h-95l462 680h96zM908 74h-51v-74h-100v74h-214v65l115 270h105l-100 -246h94v106h100v-106h51v-89z" />
    <glyph glyph-name="onehalf" unicode="&#xbd;" horiz-adv-x="922" 
d="M29 271v85h106v216l-102 -29v89l143 48h56v-324h103v-85h-306zM760 680l-462 -680h-96l463 680h95zM892 85v-85h-303v53l145 157q29 31 39.5 47t10.5 32q0 17 -12 27.5t-32 10.5q-51 0 -53 -51h-100q1 65 40.5 103.5t110.5 38.5q70 0 110 -35.5t40 -86.5q0 -55 -69 -133
l-69 -78h142z" />
    <glyph glyph-name="threequarters" unicode="&#xbe;" horiz-adv-x="919" 
d="M350 394q0 -55 -43 -92t-112 -37q-68 0 -109.5 34.5t-51.5 95.5h101q14 -42 61 -42q25 0 40.5 11.5t15.5 29.5q0 42 -68 42h-32v81h32q25 0 40 12.5t15 31.5t-12 30t-35 11q-21 0 -33 -12t-14 -30h-101q5 60 44 95t103 35q66 0 105 -36t39 -92q0 -52 -37 -81
q52 -28 52 -87zM736 680l-462 -680h-95l462 680h95zM890 74h-51v-74h-101v74h-213v65l115 270h105l-101 -246h94v106h101v-106h51v-89z" />
    <glyph glyph-name="questiondown" unicode="&#xbf;" horiz-adv-x="527" 
d="M294 551q34 0 57.5 -22.5t23.5 -56.5q0 -33 -23.5 -55.5t-57.5 -22.5t-58 22.5t-24 55.5t24 56t58 23zM345 327l10 -160h-75q-47 0 -78 -27t-31 -72q0 -44 27 -70.5t71 -26.5q41 0 68.5 23t31.5 61h139q-7 -94 -67.5 -149.5t-165.5 -55.5q-102 0 -169 60.5t-67 157.5
q0 81 51.5 131t141.5 61l6 67h107z" />
    <glyph glyph-name="Agrave" unicode="&#xc0;" horiz-adv-x="755" 
d="M327 753l-100 154h152l74 -154h-126zM532 131h-308l-53 -131h-155l293 684h137l293 -684h-154zM478 262l-101 249l-100 -249h201z" />
    <glyph glyph-name="Aacute" unicode="&#xc1;" horiz-adv-x="755" 
d="M438 753h-126l75 154h151zM532 131h-308l-53 -131h-155l293 684h137l293 -684h-154zM478 262l-101 249l-100 -249h201z" />
    <glyph glyph-name="Acircumflex" unicode="&#xc2;" horiz-adv-x="755" 
d="M320 754h-126l117 157h131l117 -157h-126l-56 71zM532 131h-308l-53 -131h-155l293 684h137l293 -684h-154zM478 262l-101 249l-100 -249h201z" />
    <glyph glyph-name="Atilde" unicode="&#xc3;" horiz-adv-x="755" 
d="M388 768l-46 27q-25 11 -33.5 3t-8.5 -27h-108q0 47 18 80t45.5 46t57.5 12.5t56 -14.5l46 -28q16 -10 25.5 -6.5t13 11.5t3.5 19h108q0 -47 -18 -80t-45.5 -46t-57.5 -12.5t-56 15.5zM532 131h-308l-53 -131h-155l293 684h137l293 -684h-154zM478 262l-101 249
l-100 -249h201z" />
    <glyph glyph-name="Adieresis" unicode="&#xc4;" horiz-adv-x="755" 
d="M267 747q-35 0 -59 23.5t-24 57.5t24 57t59 23t59.5 -23t24.5 -57t-24.5 -57.5t-59.5 -23.5zM486 747q-35 0 -59.5 23.5t-24.5 57.5t24.5 57t59.5 23t59 -23t24 -57t-24 -57.5t-59 -23.5zM532 131h-308l-53 -131h-155l293 684h137l293 -684h-154zM478 262l-101 249
l-100 -249h201z" />
    <glyph glyph-name="Aring" unicode="&#xc5;" horiz-adv-x="755" 
d="M377 758q-53 0 -85.5 30t-32.5 80t32.5 80t85.5 30t85.5 -30t32.5 -80t-32.5 -80t-85.5 -30zM377 911q-19 0 -31 -11.5t-12 -31.5t12 -31.5t31 -11.5t31 11.5t12 31.5t-12 31.5t-31 11.5zM532 131h-308l-53 -131h-155l293 684h137l293 -684h-154zM478 262l-101 249
l-100 -249h201z" />
    <glyph glyph-name="AE" unicode="&#xc6;" horiz-adv-x="1110" 
d="M710 549v-148h319v-131h-319v-139h359v-131h-503v131h-274l-100 -131h-176l528 680h525v-131h-359zM566 262v230l-175 -230h175z" />
    <glyph glyph-name="Ccedilla" unicode="&#xc7;" horiz-adv-x="792" 
d="M406 124q73 0 121.5 39t65.5 112h149q-22 -131 -113 -210t-222 -79q-151 0 -253.5 100.5t-102.5 253.5t102.5 253.5t253.5 100.5q131 0 222 -79t113 -210h-149q-17 73 -65.5 112t-121.5 39q-91 0 -150 -60t-59 -156t59 -156t150 -60zM337 -50h135l-60 -165h-118z" />
    <glyph glyph-name="Egrave" unicode="&#xc8;" horiz-adv-x="612" 
d="M265 753l-100 154h152l74 -154h-126zM211 549v-148h319v-131h-319v-139h360v-131h-504v680h504v-131h-360z" />
    <glyph glyph-name="Eacute" unicode="&#xc9;" horiz-adv-x="612" 
d="M376 753h-126l75 154h151zM211 549v-148h319v-131h-319v-139h360v-131h-504v680h504v-131h-360z" />
    <glyph glyph-name="Ecircumflex" unicode="&#xca;" horiz-adv-x="612" 
d="M258 754h-126l117 157h131l117 -157h-126l-56 71zM211 549v-148h319v-131h-319v-139h360v-131h-504v680h504v-131h-360z" />
    <glyph glyph-name="Edieresis" unicode="&#xcb;" horiz-adv-x="612" 
d="M205 747q-35 0 -59.5 23.5t-24.5 57.5t24.5 57t59.5 23t59.5 -23t24.5 -57t-24.5 -57.5t-59.5 -23.5zM424 747q-35 0 -59.5 23.5t-24.5 57.5t24.5 57t59.5 23t59 -23t24 -57t-24 -57.5t-59 -23.5zM211 549v-148h319v-131h-319v-139h360v-131h-504v680h504v-131h-360z" />
    <glyph glyph-name="Igrave" unicode="&#xcc;" horiz-adv-x="279" 
d="M215 753h-126l-100 154h152zM211 680v-680h-144v680h144z" />
    <glyph glyph-name="Iacute" unicode="&#xcd;" horiz-adv-x="279" 
d="M301 907l-100 -154h-126l75 154h151zM211 680v-680h-144v680h144z" />
    <glyph glyph-name="Icircumflex" unicode="&#xce;" horiz-adv-x="279" 
d="M140 825l-57 -71h-126l117 157h131l117 -157h-126zM211 680v-680h-144v680h144z" />
    <glyph glyph-name="Idieresis" unicode="&#xcf;" horiz-adv-x="279" 
d="M30 908q35 0 59.5 -23t24.5 -57t-24.5 -57.5t-59.5 -23.5t-59.5 23.5t-24.5 57.5t24.5 57t59.5 23zM249 908q35 0 59 -23t24 -57t-24 -57.5t-59 -23.5t-59.5 23.5t-24.5 57.5t24.5 57t59.5 23zM211 680v-680h-144v680h144z" />
    <glyph glyph-name="Eth" unicode="&#xd0;" horiz-adv-x="738" 
d="M67 680h264q158 0 261.5 -96t103.5 -241q0 -148 -103.5 -245.5t-261.5 -97.5h-264v267h-60v131h60v282zM211 133h120q92 0 155 61t63 149q0 86 -63.5 145.5t-154.5 59.5h-120v-150h120v-131h-120v-134z" />
    <glyph glyph-name="Ntilde" unicode="&#xd1;" horiz-adv-x="748" 
d="M386 768l-46 27q-25 11 -33.5 3t-8.5 -27h-108q0 47 18 80t45.5 46t57.5 12.5t56 -14.5l46 -28q16 -10 25.5 -6.5t13 11.5t3.5 19h108q0 -47 -18 -80t-45.5 -46t-57.5 -12.5t-56 15.5zM680 680v-680h-111l-358 414v-414h-144v680h109l360 -424v424h144z" />
    <glyph glyph-name="Ograve" unicode="&#xd2;" horiz-adv-x="813" 
d="M482 753h-126l-100 154h152zM407 694q148 0 251.5 -103t103.5 -251t-103.5 -251t-251.5 -103q-149 0 -252.5 103t-103.5 251t103.5 251t252.5 103zM406 121q90 0 149.5 64t59.5 155t-59.5 155t-149.5 64q-89 0 -149 -64t-60 -155t60 -155t149 -64z" />
    <glyph glyph-name="Oacute" unicode="&#xd3;" horiz-adv-x="813" 
d="M567 907l-100 -154h-126l75 154h151zM407 694q148 0 251.5 -103t103.5 -251t-103.5 -251t-251.5 -103q-149 0 -252.5 103t-103.5 251t103.5 251t252.5 103zM406 121q90 0 149.5 64t59.5 155t-59.5 155t-149.5 64q-89 0 -149 -64t-60 -155t60 -155t149 -64z" />
    <glyph glyph-name="Ocircumflex" unicode="&#xd4;" horiz-adv-x="813" 
d="M406 825l-57 -71h-126l117 157h131l117 -157h-126zM407 694q148 0 251.5 -103t103.5 -251t-103.5 -251t-251.5 -103q-149 0 -252.5 103t-103.5 251t103.5 251t252.5 103zM406 121q90 0 149.5 64t59.5 155t-59.5 155t-149.5 64q-89 0 -149 -64t-60 -155t60 -155t149 -64z
" />
    <glyph glyph-name="Otilde" unicode="&#xd5;" horiz-adv-x="813" 
d="M486 891h108q0 -47 -18 -80t-45.5 -46t-57.5 -12.5t-56 15.5l-46 27q-25 11 -33.5 3t-8.5 -27h-108q0 47 18 80t45.5 46t57.5 12.5t56 -14.5l46 -28q16 -10 25.5 -6.5t13 11.5t3.5 19zM407 694q148 0 251.5 -103t103.5 -251t-103.5 -251t-251.5 -103q-149 0 -252.5 103
t-103.5 251t103.5 251t252.5 103zM406 121q90 0 149.5 64t59.5 155t-59.5 155t-149.5 64q-89 0 -149 -64t-60 -155t60 -155t149 -64z" />
    <glyph glyph-name="Odieresis" unicode="&#xd6;" horiz-adv-x="813" 
d="M296 908q35 0 59.5 -23t24.5 -57t-24.5 -57.5t-59.5 -23.5t-59 23.5t-24 57.5t24 57t59 23zM515 908q35 0 59 -23t24 -57t-24 -57.5t-59 -23.5t-59.5 23.5t-24.5 57.5t24.5 57t59.5 23zM407 694q148 0 251.5 -103t103.5 -251t-103.5 -251t-251.5 -103q-149 0 -252.5 103
t-103.5 251t103.5 251t252.5 103zM406 121q90 0 149.5 64t59.5 155t-59.5 155t-149.5 64q-89 0 -149 -64t-60 -155t60 -155t149 -64z" />
    <glyph glyph-name="multiply" unicode="&#xd7;" horiz-adv-x="674" 
d="M565 181l-87 -87l-140 142l-142 -142l-87 87l141 142l-141 140l87 87l142 -140l140 140l87 -87l-140 -140z" />
    <glyph glyph-name="Oslash" unicode="&#xd8;" horiz-adv-x="813" 
d="M714 629l-43 -51q91 -101 91 -238q0 -148 -103.5 -251t-251.5 -103q-104 0 -188 53l-52 -62l-80 67l52 62q-88 99 -88 234q0 148 103.5 251t252.5 103q100 0 183 -50l44 52zM197 340q0 -67 35 -123l268 320q-44 22 -94 22q-89 0 -149 -64t-60 -155zM406 121
q90 0 149.5 64t59.5 155q0 69 -37 127l-270 -322q46 -24 98 -24z" />
    <glyph glyph-name="Ugrave" unicode="&#xd9;" horiz-adv-x="730" 
d="M441 753h-126l-100 154h152zM672 680v-371q0 -151 -83.5 -237.5t-224.5 -86.5q-140 0 -223.5 86.5t-83.5 237.5v371h145v-372q0 -85 44.5 -136.5t117.5 -51.5t118 51.5t45 136.5v372h145z" />
    <glyph glyph-name="Uacute" unicode="&#xda;" horiz-adv-x="730" 
d="M526 907l-100 -154h-126l75 154h151zM672 680v-371q0 -151 -83.5 -237.5t-224.5 -86.5q-140 0 -223.5 86.5t-83.5 237.5v371h145v-372q0 -85 44.5 -136.5t117.5 -51.5t118 51.5t45 136.5v372h145z" />
    <glyph glyph-name="Ucircumflex" unicode="&#xdb;" horiz-adv-x="730" 
d="M366 825l-57 -71h-126l117 157h131l117 -157h-126zM672 680v-371q0 -151 -83.5 -237.5t-224.5 -86.5q-140 0 -223.5 86.5t-83.5 237.5v371h145v-372q0 -85 44.5 -136.5t117.5 -51.5t118 51.5t45 136.5v372h145z" />
    <glyph glyph-name="Udieresis" unicode="&#xdc;" horiz-adv-x="730" 
d="M256 908q35 0 59.5 -23t24.5 -57t-24.5 -57.5t-59.5 -23.5t-59 23.5t-24 57.5t24 57t59 23zM475 908q35 0 59 -23t24 -57t-24 -57.5t-59 -23.5t-59.5 23.5t-24.5 57.5t24.5 57t59.5 23zM672 680v-371q0 -151 -83.5 -237.5t-224.5 -86.5q-140 0 -223.5 86.5t-83.5 237.5
v371h145v-372q0 -85 44.5 -136.5t117.5 -51.5t118 51.5t45 136.5v372h145z" />
    <glyph glyph-name="Yacute" unicode="&#xdd;" horiz-adv-x="703" 
d="M413 753h-126l75 154h151zM695 680l-270 -461v-219h-146v219h-1l-270 461h160l183 -316l184 316h160z" />
    <glyph glyph-name="Thorn" unicode="&#xde;" horiz-adv-x="630" 
d="M212 588h121q125 0 200 -66t75 -175q0 -115 -80.5 -184t-213.5 -69h-102v-94h-145v680h145v-92zM212 225h116q61 0 99 33.5t38 88.5q0 49 -37.5 79t-99.5 30h-116v-231z" />
    <glyph glyph-name="germandbls" unicode="&#xdf;" horiz-adv-x="668" 
d="M601 395l-133 -166q80 -17 126 -70t46 -130q0 -102 -69.5 -166t-184.5 -64q-87 0 -169 26v124q81 -28 160 -28q62 0 94 30t32 74q0 41 -28.5 66.5t-75.5 25.5h-117v65l131 170h-213v-352h-139v533q0 99 61.5 159.5t161.5 60.5v-134q-38 0 -61 -23.5t-23 -62.5v-54h401
v-84z" />
    <glyph glyph-name="agrave" unicode="&#xe0;" horiz-adv-x="613" 
d="M263 555l-100 154h152l74 -154h-126zM552 479v-479h-139v28q-59 -38 -136 -38q-99 0 -169 72.5t-70 176.5q0 105 70 177.5t169 72.5q77 0 136 -38v28h139zM300 108q72 0 113 56v152q-41 56 -113 56q-54 0 -89 -39t-35 -94q0 -54 35 -92.5t89 -38.5z" />
    <glyph glyph-name="aacute" unicode="&#xe1;" horiz-adv-x="613" 
d="M376 555h-126l75 154h151zM552 479v-479h-139v28q-59 -38 -136 -38q-99 0 -169 72.5t-70 176.5q0 105 70 177.5t169 72.5q77 0 136 -38v28h139zM300 108q72 0 113 56v152q-41 56 -113 56q-54 0 -89 -39t-35 -94q0 -54 35 -92.5t89 -38.5z" />
    <glyph glyph-name="acircumflex" unicode="&#xe2;" horiz-adv-x="613" 
d="M258 546h-126l117 157h131l117 -157h-126l-56 71zM552 479v-479h-139v28q-59 -38 -136 -38q-99 0 -169 72.5t-70 176.5q0 105 70 177.5t169 72.5q77 0 136 -38v28h139zM300 108q72 0 113 56v152q-41 56 -113 56q-54 0 -89 -39t-35 -94q0 -54 35 -92.5t89 -38.5z" />
    <glyph glyph-name="atilde" unicode="&#xe3;" horiz-adv-x="613" 
d="M326 571l-46 27q-25 11 -33.5 3t-8.5 -27h-108q0 47 18 80t45.5 46t57.5 12.5t56 -14.5l46 -28q16 -10 25.5 -6.5t13 11.5t3.5 19h108q0 -47 -18 -80t-45.5 -46t-57.5 -12.5t-56 15.5zM552 479v-479h-139v28q-59 -38 -136 -38q-99 0 -169 72.5t-70 176.5q0 105 70 177.5
t169 72.5q77 0 136 -38v28h139zM300 108q72 0 113 56v152q-41 56 -113 56q-54 0 -89 -39t-35 -94q0 -54 35 -92.5t89 -38.5z" />
    <glyph glyph-name="adieresis" unicode="&#xe4;" horiz-adv-x="613" 
d="M206 549q-35 0 -59.5 23.5t-24.5 57.5t24.5 57t59.5 23t59.5 -23t24.5 -57t-24.5 -57.5t-59.5 -23.5zM425 549q-35 0 -59.5 23.5t-24.5 57.5t24.5 57t59.5 23t59 -23t24 -57t-24 -57.5t-59 -23.5zM552 479v-479h-139v28q-59 -38 -136 -38q-99 0 -169 72.5t-70 176.5
q0 105 70 177.5t169 72.5q77 0 136 -38v28h139zM300 108q72 0 113 56v152q-41 56 -113 56q-54 0 -89 -39t-35 -94q0 -54 35 -92.5t89 -38.5z" />
    <glyph glyph-name="aring" unicode="&#xe5;" horiz-adv-x="613" 
d="M315 543q-53 0 -85.5 30t-32.5 80t32.5 80t85.5 30t85.5 -30t32.5 -80t-32.5 -80t-85.5 -30zM315 696q-19 0 -31 -12t-12 -31t12 -31t31 -12t31 12t12 31t-12 31t-31 12zM552 479v-479h-139v28q-59 -38 -136 -38q-99 0 -169 72.5t-70 176.5q0 105 70 177.5t169 72.5
q77 0 136 -38v28h139zM300 108q72 0 113 56v152q-41 56 -113 56q-54 0 -89 -39t-35 -94q0 -54 35 -92.5t89 -38.5z" />
    <glyph glyph-name="ae" unicode="&#xe6;" horiz-adv-x="884" 
d="M846 249q0 -40 -3 -60h-350q25 -85 121 -85q57 0 81 36h145q-19 -69 -81.5 -110t-147.5 -41q-118 0 -190 75q-29 -22 -49.5 -35t-59 -25.5t-80.5 -12.5q-92 0 -147 41.5t-55 113.5q0 68 50 104t136 36h140q0 92 -86 92q-35 0 -57.5 -16t-26.5 -45h-137q3 59 37 100.5
t81.5 59t103.5 17.5q107 0 167 -63q67 58 171 58q102 0 169.5 -67t67.5 -173zM604 375q-89 0 -112 -89h216q-7 42 -34 65.5t-70 23.5zM241 102q66 0 129 44q-8 22 -12 43h-147q-22 0 -35.5 -9.5t-13.5 -24.5q0 -22 19 -37.5t60 -15.5z" />
    <glyph glyph-name="ccedilla" unicode="&#xe7;" horiz-adv-x="574" 
d="M295 113q40 0 67 20t35 55h138q-10 -88 -78 -143.5t-162 -55.5q-110 0 -183.5 71.5t-73.5 178.5q0 108 73.5 179t183.5 71q94 0 162 -55.5t78 -143.5h-138q-8 35 -35 55.5t-67 20.5q-54 0 -87 -36t-33 -91q0 -54 33 -90t87 -36zM227 -50h135l-60 -165h-118z" />
    <glyph glyph-name="egrave" unicode="&#xe8;" horiz-adv-x="568" 
d="M240 555l-100 154h152l74 -154h-126zM530 249q0 -40 -3 -60h-350q25 -85 121 -85q58 0 81 36h145q-19 -69 -81.5 -110t-147.5 -41q-115 0 -186 70.5t-71 179.5t70.5 179.5t184.5 70.5q102 0 169.5 -67t67.5 -173zM288 375q-89 0 -112 -89h216q-7 42 -34 65.5t-70 23.5z
" />
    <glyph glyph-name="eacute" unicode="&#xe9;" horiz-adv-x="568" 
d="M353 555h-126l75 154h151zM530 249q0 -40 -3 -60h-350q25 -85 121 -85q58 0 81 36h145q-19 -69 -81.5 -110t-147.5 -41q-115 0 -186 70.5t-71 179.5t70.5 179.5t184.5 70.5q102 0 169.5 -67t67.5 -173zM288 375q-89 0 -112 -89h216q-7 42 -34 65.5t-70 23.5z" />
    <glyph glyph-name="ecircumflex" unicode="&#xea;" horiz-adv-x="568" 
d="M235 546h-126l117 157h131l117 -157h-126l-56 71zM530 249q0 -40 -3 -60h-350q25 -85 121 -85q58 0 81 36h145q-19 -69 -81.5 -110t-147.5 -41q-115 0 -186 70.5t-71 179.5t70.5 179.5t184.5 70.5q102 0 169.5 -67t67.5 -173zM288 375q-89 0 -112 -89h216q-7 42 -34 65.5
t-70 23.5z" />
    <glyph glyph-name="edieresis" unicode="&#xeb;" horiz-adv-x="568" 
d="M183 549q-35 0 -59.5 23.5t-24.5 57.5t24.5 57t59.5 23t59.5 -23t24.5 -57t-24.5 -57.5t-59.5 -23.5zM402 549q-35 0 -59.5 23.5t-24.5 57.5t24.5 57t59.5 23t59 -23t24 -57t-24 -57.5t-59 -23.5zM530 249q0 -40 -3 -60h-350q25 -85 121 -85q58 0 81 36h145
q-19 -69 -81.5 -110t-147.5 -41q-115 0 -186 70.5t-71 179.5t70.5 179.5t184.5 70.5q102 0 169.5 -67t67.5 -173zM288 375q-89 0 -112 -89h216q-7 42 -34 65.5t-70 23.5z" />
    <glyph glyph-name="igrave" unicode="&#xec;" horiz-adv-x="269" 
d="M209 555h-126l-100 154h152zM205 479v-479h-139v479h139z" />
    <glyph glyph-name="iacute" unicode="&#xed;" horiz-adv-x="269" 
d="M296 709l-100 -154h-126l75 154h151zM205 479v-479h-139v479h139z" />
    <glyph glyph-name="icircumflex" unicode="&#xee;" horiz-adv-x="269" 
d="M135 617l-57 -71h-126l117 157h131l117 -157h-126zM205 479v-479h-139v479h139z" />
    <glyph glyph-name="idieresis" unicode="&#xef;" horiz-adv-x="269" 
d="M26 710q35 0 59.5 -23t24.5 -57t-24.5 -57.5t-59.5 -23.5t-59.5 23.5t-24.5 57.5t24.5 57t59.5 23zM245 710q35 0 59 -23t24 -57t-24 -57.5t-59 -23.5t-59.5 23.5t-24.5 57.5t24.5 57t59.5 23zM205 479v-479h-139v479h139z" />
    <glyph glyph-name="eth" unicode="&#xf0;" horiz-adv-x="588" 
d="M461 614l-54 -19q143 -149 143 -356q0 -110 -72.5 -182t-182.5 -72q-111 0 -184 72t-73 182q0 109 73 179.5t184 70.5q28 0 50 -7q-29 39 -63 67l-146 -52l-33 87l84 30q-43 25 -95 49l134 57q57 -26 99 -56l102 37zM295 109q53 0 85.5 37.5t32.5 92.5q0 54 -32.5 90
t-85.5 36q-54 0 -87 -36t-33 -90q0 -55 33 -92.5t87 -37.5z" />
    <glyph glyph-name="ntilde" unicode="&#xf1;" horiz-adv-x="601" 
d="M312 571l-45 27q-25 11 -34 3t-9 -27h-108q0 47 18.5 80t45.5 46t57.5 12.5t56.5 -14.5l45 -28q16 -10 25.5 -6.5t13 11.5t3.5 19h109q0 -47 -18.5 -80t-45.5 -46t-57.5 -12.5t-56.5 15.5zM337 494q95 0 152.5 -63t57.5 -168v-263h-139v251q0 57 -27 87t-76 30
q-56 0 -105 -60v-308h-139v479h139v-34q62 49 137 49z" />
    <glyph glyph-name="ograve" unicode="&#xf2;" horiz-adv-x="588" 
d="M369 555h-126l-100 154h152zM294 489q111 0 183.5 -71t72.5 -179q0 -109 -73 -181.5t-183 -72.5q-111 0 -183.5 72t-72.5 182q0 109 72.5 179.5t183.5 70.5zM295 109q53 0 86 37.5t33 92.5q0 54 -33 90t-86 36q-54 0 -87 -36t-33 -90q0 -55 33 -92.5t87 -37.5z" />
    <glyph glyph-name="oacute" unicode="&#xf3;" horiz-adv-x="588" 
d="M456 709l-100 -154h-126l75 154h151zM294 489q111 0 183.5 -71t72.5 -179q0 -109 -73 -181.5t-183 -72.5q-111 0 -183.5 72t-72.5 182q0 109 72.5 179.5t183.5 70.5zM295 109q53 0 86 37.5t33 92.5q0 54 -33 90t-86 36q-54 0 -87 -36t-33 -90q0 -55 33 -92.5t87 -37.5z
" />
    <glyph glyph-name="ocircumflex" unicode="&#xf4;" horiz-adv-x="588" 
d="M295 617l-57 -71h-126l117 157h131l117 -157h-126zM294 489q111 0 183.5 -71t72.5 -179q0 -109 -73 -181.5t-183 -72.5q-111 0 -183.5 72t-72.5 182q0 109 72.5 179.5t183.5 70.5zM295 109q53 0 86 37.5t33 92.5q0 54 -33 90t-86 36q-54 0 -87 -36t-33 -90
q0 -55 33 -92.5t87 -37.5z" />
    <glyph glyph-name="otilde" unicode="&#xf5;" horiz-adv-x="588" 
d="M375 694h108q0 -47 -18 -80t-45.5 -46t-57.5 -12.5t-56 15.5l-46 27q-25 11 -33.5 3t-8.5 -27h-108q0 47 18 80t45.5 46t57.5 12.5t56 -14.5l46 -28q16 -10 25.5 -6.5t13 11.5t3.5 19zM294 489q111 0 183.5 -71t72.5 -179q0 -109 -73 -181.5t-183 -72.5q-111 0 -183.5 72
t-72.5 182q0 109 72.5 179.5t183.5 70.5zM295 109q53 0 86 37.5t33 92.5q0 54 -33 90t-86 36q-54 0 -87 -36t-33 -90q0 -55 33 -92.5t87 -37.5z" />
    <glyph glyph-name="odieresis" unicode="&#xf6;" horiz-adv-x="588" 
d="M186 710q35 0 59.5 -23t24.5 -57t-24.5 -57.5t-59.5 -23.5t-59.5 23.5t-24.5 57.5t24.5 57t59.5 23zM405 710q35 0 59 -23t24 -57t-24 -57.5t-59 -23.5t-59.5 23.5t-24.5 57.5t24.5 57t59.5 23zM294 489q111 0 183.5 -71t72.5 -179q0 -109 -73 -181.5t-183 -72.5
q-111 0 -183.5 72t-72.5 182q0 109 72.5 179.5t183.5 70.5zM295 109q53 0 86 37.5t33 92.5q0 54 -33 90t-86 36q-54 0 -87 -36t-33 -90q0 -55 33 -92.5t87 -37.5z" />
    <glyph glyph-name="divide" unicode="&#xf7;" horiz-adv-x="682" 
d="M341 452q-33 0 -55.5 21.5t-22.5 53.5t22.5 53.5t55.5 21.5t56 -21.5t23 -53.5t-23 -53.5t-56 -21.5zM99 393h484v-123h-484v123zM341 66q-32 0 -55 22t-23 53q0 32 23 54t55 22q33 0 56 -22t23 -54q0 -31 -23.5 -53t-55.5 -22z" />
    <glyph glyph-name="oslash" unicode="&#xf8;" horiz-adv-x="588" 
d="M514 436l-25 -30q61 -69 61 -167q0 -109 -73 -181.5t-183 -72.5q-71 0 -131 33l-27 -33l-67 55l27 33q-58 67 -58 166q0 109 72.5 179.5t183.5 70.5q69 0 127 -30l26 31zM175 239q0 -32 12 -59l149 178q-17 7 -41 7q-54 0 -87 -36t-33 -90zM295 109q53 0 86 37.5t33 92.5
q0 32 -14 62l-152 -183q21 -9 47 -9z" />
    <glyph glyph-name="ugrave" unicode="&#xf9;" horiz-adv-x="601" 
d="M249 555l-100 154h152l74 -154h-126zM540 479v-479h-139v34q-62 -49 -137 -49q-95 0 -152.5 63t-57.5 167v264h139v-251q0 -57 27 -87t76 -30q56 0 105 60v308h139z" />
    <glyph glyph-name="uacute" unicode="&#xfa;" horiz-adv-x="601" 
d="M362 555h-126l75 154h151zM540 479v-479h-139v34q-62 -49 -137 -49q-95 0 -152.5 63t-57.5 167v264h139v-251q0 -57 27 -87t76 -30q56 0 105 60v308h139z" />
    <glyph glyph-name="ucircumflex" unicode="&#xfb;" horiz-adv-x="601" 
d="M244 546h-126l117 157h131l117 -157h-126l-56 71zM540 479v-479h-139v34q-62 -49 -137 -49q-95 0 -152.5 63t-57.5 167v264h139v-251q0 -57 27 -87t76 -30q56 0 105 60v308h139z" />
    <glyph glyph-name="udieresis" unicode="&#xfc;" horiz-adv-x="601" 
d="M192 549q-35 0 -59.5 23.5t-24.5 57.5t24.5 57t59.5 23t59.5 -23t24.5 -57t-24.5 -57.5t-59.5 -23.5zM411 549q-35 0 -59.5 23.5t-24.5 57.5t24.5 57t59.5 23t59 -23t24 -57t-24 -57.5t-59 -23.5zM540 479v-479h-139v34q-62 -49 -137 -49q-95 0 -152.5 63t-57.5 167v264
h139v-251q0 -57 27 -87t76 -30q56 0 105 60v308h139z" />
    <glyph glyph-name="yacute" unicode="&#xfd;" horiz-adv-x="635" 
d="M380 555h-126l75 154h151zM612 480l-303 -710h-146l93 218l-233 492h148l155 -327l140 327h146z" />
    <glyph glyph-name="thorn" unicode="&#xfe;" horiz-adv-x="605" 
d="M336 489q99 0 168.5 -72.5t69.5 -177.5q0 -104 -69.5 -176.5t-168.5 -72.5q-77 0 -136 38v-259h-139v911h139v-229q59 38 136 38zM313 108q53 0 88.5 38.5t35.5 92.5t-35.5 93.5t-88.5 39.5q-72 0 -113 -56v-153q42 -55 113 -55z" />
    <glyph glyph-name="ydieresis" unicode="&#xff;" horiz-adv-x="635" 
d="M210 549q-35 0 -59.5 23.5t-24.5 57.5t24.5 57t59.5 23t59.5 -23t24.5 -57t-24.5 -57.5t-59.5 -23.5zM429 549q-35 0 -59.5 23.5t-24.5 57.5t24.5 57t59.5 23t59 -23t24 -57t-24 -57.5t-59 -23.5zM612 480l-303 -710h-146l93 218l-233 492h148l155 -327l140 327h146z" />
    <glyph glyph-name="Amacron" unicode="&#x100;" horiz-adv-x="755" 
d="M518 755h-282v111h282v-111zM532 131h-308l-53 -131h-155l293 684h137l293 -684h-154zM478 262l-101 249l-100 -249h201z" />
    <glyph glyph-name="amacron" unicode="&#x101;" horiz-adv-x="613" 
d="M456 573h-282v111h282v-111zM552 479v-479h-139v28q-59 -38 -136 -38q-99 0 -169 72.5t-70 176.5q0 105 70 177.5t169 72.5q77 0 136 -38v28h139zM300 108q72 0 113 56v152q-41 56 -113 56q-54 0 -89 -39t-35 -94q0 -54 35 -92.5t89 -38.5z" />
    <glyph glyph-name="Abreve" unicode="&#x102;" horiz-adv-x="755" 
d="M377 753q-73 0 -118 42.5t-45 119.5h100q0 -70 63 -70t63 70h100q0 -77 -45 -119.5t-118 -42.5zM532 131h-308l-53 -131h-155l293 684h137l293 -684h-154zM478 262l-101 249l-100 -249h201z" />
    <glyph glyph-name="abreve" unicode="&#x103;" horiz-adv-x="613" 
d="M315 540q-73 0 -118 42.5t-45 119.5h100q0 -70 63 -70t63 70h100q0 -77 -45 -119.5t-118 -42.5zM552 479v-479h-139v28q-59 -38 -136 -38q-99 0 -169 72.5t-70 176.5q0 105 70 177.5t169 72.5q77 0 136 -38v28h139zM300 108q72 0 113 56v152q-41 56 -113 56
q-54 0 -89 -39t-35 -94q0 -54 35 -92.5t89 -38.5z" />
    <glyph glyph-name="Aogonek" unicode="&#x104;" horiz-adv-x="755" 
d="M736 -56l13 -102q-28 -13 -75 -13q-67 0 -109 32.5t-42 86.5q0 49 50 81l-41 102h-308l-53 -131h-155l293 684h137l293 -684h-67q-34 -11 -34 -34q0 -28 54 -28q17 0 44 6zM478 262l-101 249l-100 -249h201z" />
    <glyph glyph-name="aogonek" unicode="&#x105;" horiz-adv-x="613" 
d="M583 -61l13 -102q-28 -13 -75 -13q-67 0 -109 32.5t-42 86.5q0 44 43 76v9q-59 -38 -136 -38q-99 0 -169 72.5t-70 176.5q0 105 70 177.5t169 72.5q77 0 136 -38v28h139v-479h-10q-57 -9 -57 -39q0 -28 54 -28q17 0 44 6zM300 108q72 0 113 56v152q-41 56 -113 56
q-54 0 -89 -39t-35 -94q0 -54 35 -92.5t89 -38.5z" />
    <glyph glyph-name="Cacute" unicode="&#x106;" horiz-adv-x="792" 
d="M467 753h-126l75 154h151zM406 124q73 0 121.5 39t65.5 112h149q-22 -131 -113 -210t-222 -79q-151 0 -253.5 100.5t-102.5 253.5t102.5 253.5t253.5 100.5q131 0 222 -79t113 -210h-149q-17 73 -65.5 112t-121.5 39q-91 0 -150 -60t-59 -156t59 -156t150 -60z" />
    <glyph glyph-name="cacute" unicode="&#x107;" horiz-adv-x="574" 
d="M349 555h-126l75 154h151zM295 113q40 0 67 20t35 55h138q-10 -88 -78 -143.5t-162 -55.5q-110 0 -183.5 71.5t-73.5 178.5q0 108 73.5 179t183.5 71q94 0 162 -55.5t78 -143.5h-138q-8 35 -35 55.5t-67 20.5q-54 0 -87 -36t-33 -91q0 -54 33 -90t87 -36z" />
    <glyph glyph-name="Cdotaccent" unicode="&#x10a;" horiz-adv-x="792" 
d="M406 747q-35 0 -59.5 23.5t-24.5 57.5t24.5 57t59.5 23t59.5 -23t24.5 -57t-24.5 -57.5t-59.5 -23.5zM406 124q73 0 121.5 39t65.5 112h149q-22 -131 -113 -210t-222 -79q-151 0 -253.5 100.5t-102.5 253.5t102.5 253.5t253.5 100.5q131 0 222 -79t113 -210h-149
q-17 73 -65.5 112t-121.5 39q-91 0 -150 -60t-59 -156t59 -156t150 -60z" />
    <glyph glyph-name="cdotaccent" unicode="&#x10b;" horiz-adv-x="574" 
d="M288 549q-35 0 -59.5 23.5t-24.5 57.5t24.5 57t59.5 23t59.5 -23t24.5 -57t-24.5 -57.5t-59.5 -23.5zM295 113q40 0 67 20t35 55h138q-10 -88 -78 -143.5t-162 -55.5q-110 0 -183.5 71.5t-73.5 178.5q0 108 73.5 179t183.5 71q94 0 162 -55.5t78 -143.5h-138
q-8 35 -35 55.5t-67 20.5q-54 0 -87 -36t-33 -91q0 -54 33 -90t87 -36z" />
    <glyph glyph-name="Ccaron" unicode="&#x10c;" horiz-adv-x="792" 
d="M340 744l-118 156h127l57 -70l56 70h127l-118 -156h-131zM406 124q73 0 121.5 39t65.5 112h149q-22 -131 -113 -210t-222 -79q-151 0 -253.5 100.5t-102.5 253.5t102.5 253.5t253.5 100.5q131 0 222 -79t113 -210h-149q-17 73 -65.5 112t-121.5 39q-91 0 -150 -60
t-59 -156t59 -156t150 -60z" />
    <glyph glyph-name="ccaron" unicode="&#x10d;" horiz-adv-x="574" 
d="M222 547l-118 156h127l57 -70l56 70h127l-118 -156h-131zM295 113q40 0 67 20t35 55h138q-10 -88 -78 -143.5t-162 -55.5q-110 0 -183.5 71.5t-73.5 178.5q0 108 73.5 179t183.5 71q94 0 162 -55.5t78 -143.5h-138q-8 35 -35 55.5t-67 20.5q-54 0 -87 -36t-33 -91
q0 -54 33 -90t87 -36z" />
    <glyph glyph-name="Dcaron" unicode="&#x10e;" horiz-adv-x="738" 
d="M273 744l-118 156h127l57 -70l56 70h127l-118 -156h-131zM67 680h264q158 0 261.5 -96t103.5 -241q0 -148 -103.5 -245.5t-261.5 -97.5h-264v680zM211 133h120q92 0 155 61t63 149q0 86 -63.5 145.5t-154.5 59.5h-120v-415z" />
    <glyph glyph-name="dcaron" unicode="&#x10f;" horiz-adv-x="613" 
d="M413 710h139v-710h-139v28q-59 -38 -136 -38q-99 0 -169 72.5t-70 177.5q0 104 70 176.5t169 72.5q77 0 136 -38v259zM746 710l-39 -204h-103l5 204h137zM300 107q72 0 113 56v152q-41 56 -113 56q-54 0 -89 -38.5t-35 -92.5q0 -55 35 -94t89 -39z" />
    <glyph glyph-name="Dcroat" unicode="&#x110;" horiz-adv-x="738" 
d="M67 680h264q158 0 261.5 -96t103.5 -241q0 -148 -103.5 -245.5t-261.5 -97.5h-264v267h-60v131h60v282zM211 133h120q92 0 155 61t63 149q0 86 -63.5 145.5t-154.5 59.5h-120v-150h120v-131h-120v-134z" />
    <glyph glyph-name="dcroat" unicode="&#x111;" horiz-adv-x="613" 
d="M584 544h-32v-544h-139v28q-59 -38 -136 -38q-99 0 -169 72.5t-70 177.5q0 104 70 176.5t169 72.5q77 0 136 -38v93h-155v110h155v56h139v-56h32v-110zM300 107q72 0 113 56v152q-41 56 -113 56q-54 0 -89 -38.5t-35 -92.5q0 -55 35 -94t89 -39z" />
    <glyph glyph-name="Emacron" unicode="&#x112;" horiz-adv-x="612" 
d="M456 755h-282v111h282v-111zM211 549v-148h319v-131h-319v-139h360v-131h-504v680h504v-131h-360z" />
    <glyph glyph-name="emacron" unicode="&#x113;" horiz-adv-x="568" 
d="M433 573h-282v111h282v-111zM530 249q0 -40 -3 -60h-350q25 -85 121 -85q58 0 81 36h145q-19 -69 -81.5 -110t-147.5 -41q-115 0 -186 70.5t-71 179.5t70.5 179.5t184.5 70.5q102 0 169.5 -67t67.5 -173zM288 375q-89 0 -112 -89h216q-7 42 -34 65.5t-70 23.5z" />
    <glyph glyph-name="Edotaccent" unicode="&#x116;" horiz-adv-x="612" 
d="M315 747q-35 0 -59.5 23.5t-24.5 57.5t24.5 57t59.5 23t59.5 -23t24.5 -57t-24.5 -57.5t-59.5 -23.5zM211 549v-148h319v-131h-319v-139h360v-131h-504v680h504v-131h-360z" />
    <glyph glyph-name="edotaccent" unicode="&#x117;" horiz-adv-x="568" 
d="M292 549q-35 0 -59.5 23.5t-24.5 57.5t24.5 57t59.5 23t59.5 -23t24.5 -57t-24.5 -57.5t-59.5 -23.5zM530 249q0 -40 -3 -60h-350q25 -85 121 -85q58 0 81 36h145q-19 -69 -81.5 -110t-147.5 -41q-115 0 -186 70.5t-71 179.5t70.5 179.5t184.5 70.5q102 0 169.5 -67
t67.5 -173zM288 375q-89 0 -112 -89h216q-7 42 -34 65.5t-70 23.5z" />
    <glyph glyph-name="Eogonek" unicode="&#x118;" horiz-adv-x="612" 
d="M602 -61l13 -102q-28 -13 -75 -13q-67 0 -109 32.5t-42 86.5q0 32 22 57h-344v680h504v-131h-360v-148h319v-131h-319v-139h360v-131h-10q-57 -9 -57 -39q0 -28 54 -28q17 0 44 6z" />
    <glyph glyph-name="eogonek" unicode="&#x119;" horiz-adv-x="568" 
d="M530 249q0 -40 -3 -60h-350q25 -85 121 -85q58 0 81 36h145q-17 -59 -65 -98q-35 -27 -45 -43t-10 -35q0 -37 54 -37q18 0 44 6l14 -102q-28 -13 -75 -13q-68 0 -109 32.5t-41 85.5q0 29 14 53h-10q-115 0 -186 70.5t-71 179.5t70.5 179.5t184.5 70.5q102 0 169.5 -67
t67.5 -173zM288 375q-89 0 -112 -89h216q-7 42 -34 65.5t-70 23.5z" />
    <glyph glyph-name="Ecaron" unicode="&#x11a;" horiz-adv-x="612" 
d="M249 744l-118 156h127l57 -70l56 70h127l-118 -156h-131zM211 549v-148h319v-131h-319v-139h360v-131h-504v680h504v-131h-360z" />
    <glyph glyph-name="ecaron" unicode="&#x11b;" horiz-adv-x="568" 
d="M226 547l-118 156h127l57 -70l56 70h127l-118 -156h-131zM530 249q0 -40 -3 -60h-350q25 -85 121 -85q58 0 81 36h145q-19 -69 -81.5 -110t-147.5 -41q-115 0 -186 70.5t-71 179.5t70.5 179.5t184.5 70.5q102 0 169.5 -67t67.5 -173zM288 375q-89 0 -112 -89h216
q-7 42 -34 65.5t-70 23.5z" />
    <glyph glyph-name="Gbreve" unicode="&#x11e;" horiz-adv-x="814" 
d="M407 753q-73 0 -118 42.5t-45 119.5h100q0 -70 63 -70t63 70h100q0 -77 -45 -119.5t-118 -42.5zM752 379v-379h-111l-8 93q-78 -107 -226 -107q-154 0 -255 101t-101 244q0 159 103.5 261t256.5 102q120 0 213 -65.5t120 -186.5h-154q-41 115 -176 115q-96 0 -156.5 -61
t-60.5 -164q0 -87 58.5 -147.5t153.5 -60.5q69 0 117 34t70 93h-201v128h357z" />
    <glyph glyph-name="gbreve" unicode="&#x11f;" horiz-adv-x="617" 
d="M320 540q-73 0 -118 42.5t-45 119.5h100q0 -70 63 -70t63 70h100q0 -77 -45 -119.5t-118 -42.5zM556 479v-473q0 -111 -68.5 -175.5t-179.5 -64.5q-104 0 -174 57.5t-78 149.5h140q5 -38 34 -60.5t78 -22.5q48 0 78.5 30t30.5 85v51q-57 -37 -135 -37q-98 0 -168.5 70
t-70.5 164q0 107 69.5 176t169.5 69q75 0 135 -37v18h139zM305 136q71 0 112 57v131q-41 56 -112 56q-55 0 -89.5 -35.5t-34.5 -91.5q0 -44 36 -80.5t88 -36.5z" />
    <glyph glyph-name="Gdotaccent" unicode="&#x120;" horiz-adv-x="814" 
d="M407 747q-35 0 -59.5 23.5t-24.5 57.5t24.5 57t59.5 23t59.5 -23t24.5 -57t-24.5 -57.5t-59.5 -23.5zM752 379v-379h-111l-8 93q-78 -107 -226 -107q-154 0 -255 101t-101 244q0 159 103.5 261t256.5 102q120 0 213 -65.5t120 -186.5h-154q-41 115 -176 115
q-96 0 -156.5 -61t-60.5 -164q0 -87 58.5 -147.5t153.5 -60.5q69 0 117 34t70 93h-201v128h357z" />
    <glyph glyph-name="gdotaccent" unicode="&#x121;" horiz-adv-x="617" 
d="M320 549q-35 0 -59.5 23.5t-24.5 57.5t24.5 57t59.5 23t59.5 -23t24.5 -57t-24.5 -57.5t-59.5 -23.5zM556 479v-473q0 -111 -68.5 -175.5t-179.5 -64.5q-104 0 -174 57.5t-78 149.5h140q5 -38 34 -60.5t78 -22.5q48 0 78.5 30t30.5 85v51q-57 -37 -135 -37
q-98 0 -168.5 70t-70.5 164q0 107 69.5 176t169.5 69q75 0 135 -37v18h139zM305 136q71 0 112 57v131q-41 56 -112 56q-55 0 -89.5 -35.5t-34.5 -91.5q0 -44 36 -80.5t88 -36.5z" />
    <glyph glyph-name="Gcommaaccent" unicode="&#x122;" horiz-adv-x="814" 
d="M752 379v-379h-111l-8 93q-78 -107 -226 -107q-154 0 -255 101t-101 244q0 159 103.5 261t256.5 102q120 0 213 -65.5t120 -186.5h-154q-41 115 -176 115q-96 0 -156.5 -61t-60.5 -164q0 -87 58.5 -147.5t153.5 -60.5q69 0 117 34t70 93h-201v128h357zM407 -45
q32 0 54.5 -21t22.5 -50q0 -19 -8.5 -36.5t-44.5 -74.5q-12 -19 -19 -30h-74l38 78q-45 18 -45 63q0 29 22.5 50t53.5 21z" />
    <glyph glyph-name="gcommaaccent" unicode="&#x123;" horiz-adv-x="617" 
d="M320 524q-32 0 -54.5 21t-22.5 50q0 19 8.5 36.5t44.5 74.5q12 19 19 30h75l-39 -78q46 -18 46 -63q0 -29 -23 -50t-54 -21zM556 479v-473q0 -111 -68.5 -175.5t-179.5 -64.5q-104 0 -174 57.5t-78 149.5h140q5 -38 34 -60.5t78 -22.5q48 0 78.5 30t30.5 85v51
q-57 -37 -135 -37q-98 0 -168.5 70t-70.5 164q0 107 69.5 176t169.5 69q75 0 135 -37v18h139zM305 136q71 0 112 57v131q-41 56 -112 56q-55 0 -89.5 -35.5t-34.5 -91.5q0 -44 36 -80.5t88 -36.5z" />
    <glyph glyph-name="Hbar" unicode="&#x126;" horiz-adv-x="728" 
d="M702 480h-42v-480h-144v266h-305v-266h-144v480h-51v112h51v88h144v-88h305v88h144v-88h42v-112zM516 480h-305v-82h305v82z" />
    <glyph glyph-name="hbar" unicode="&#x127;" horiz-adv-x="601" 
d="M337 494q95 0 152.5 -63t57.5 -168v-263h-139v251q0 57 -27 87t-76 30q-56 0 -105 -60v-308h-139v577h-34v93h34v40h139v-40h127v-93h-127v-132q62 49 137 49z" />
    <glyph glyph-name="Imacron" unicode="&#x12a;" horiz-adv-x="279" 
d="M281 866v-111h-282v111h282zM211 680v-680h-144v680h144z" />
    <glyph glyph-name="imacron" unicode="&#x12b;" horiz-adv-x="269" 
d="M276 684v-111h-282v111h282zM205 479v-479h-139v479h139z" />
    <glyph glyph-name="Iogonek" unicode="&#x12e;" horiz-adv-x="279" 
d="M243 -61l13 -102q-28 -13 -75 -13q-67 0 -109 32.5t-42 86.5q0 40 37 72v665h144v-680h-9q-57 -9 -57 -39q0 -28 54 -28q17 0 44 6z" />
    <glyph glyph-name="iogonek" unicode="&#x12f;" horiz-adv-x="269" 
d="M135 568q-35 0 -59.5 23t-24.5 57q0 35 24.5 58.5t59.5 23.5t59.5 -23.5t24.5 -58.5q0 -34 -24.5 -57t-59.5 -23zM235 -61l13 -102q-28 -13 -75 -13q-67 0 -109 32.5t-42 86.5q0 45 44 77v459h139v-479h-11q-57 -9 -57 -39q0 -28 54 -28q17 0 44 6z" />
    <glyph glyph-name="Idotaccent" unicode="&#x130;" horiz-adv-x="279" 
d="M140 751q-37 0 -62.5 24.5t-25.5 60.5q0 35 25.5 59.5t62.5 24.5q36 0 61.5 -24.5t25.5 -59.5q0 -36 -25.5 -60.5t-61.5 -24.5zM211 680v-680h-144v680h144z" />
    <glyph glyph-name="dotlessi" unicode="&#x131;" horiz-adv-x="269" 
d="M205 479v-479h-139v479h139z" />
    <glyph glyph-name="IJ" unicode="&#x132;" horiz-adv-x="880" 
d="M211 680v-680h-144v680h144zM821 680v-420q0 -131 -72.5 -203t-199.5 -72q-112 0 -184 64.5t-77 178.5h146q2 -53 36 -81t87 -28q52 0 85 38.5t33 105.5v417h146z" />
    <glyph glyph-name="ij" unicode="&#x133;" horiz-adv-x="534" 
d="M135 568q-35 0 -59.5 23t-24.5 57q0 35 24.5 58.5t59.5 23.5t59.5 -23.5t24.5 -58.5q0 -34 -24.5 -57t-59.5 -23zM399 568q-35 0 -59.5 23t-24.5 57q0 35 24.5 58.5t59.5 23.5t59.5 -23.5t24.5 -58.5q0 -34 -24.5 -57t-59.5 -23zM205 479v-479h-139v479h139zM469 479
v-444q0 -115 -48 -170.5t-174 -57.5l-11 119q55 5 74.5 24t19.5 67v462h139z" />
    <glyph glyph-name="Kcommaaccent" unicode="&#x136;" horiz-adv-x="716" 
d="M707 0h-179l-210 271l-107 -121v-150h-144v680h144v-334l297 334h172l-264 -299zM358 -45q32 0 54.5 -21t22.5 -50q0 -19 -8.5 -36.5t-44.5 -74.5q-12 -19 -19 -30h-74l38 78q-45 18 -45 63q0 29 22.5 50t53.5 21z" />
    <glyph glyph-name="kcommaaccent" unicode="&#x137;" horiz-adv-x="584" 
d="M579 0h-175l-127 180l-77 -81v-99h-139v710h139v-429l185 198h173l-186 -198zM292 -45q32 0 54.5 -21t22.5 -50q0 -19 -8.5 -36.5t-44.5 -74.5q-12 -19 -19 -30h-74l38 78q-46 18 -46 63q0 29 23 50t54 21z" />
    <glyph glyph-name="Lacute" unicode="&#x139;" horiz-adv-x="581" 
d="M199 753h-126l75 154h151zM559 129v-129h-492v680h144v-551h348z" />
    <glyph glyph-name="lacute" unicode="&#x13a;" horiz-adv-x="261" 
d="M292 940l-100 -154h-126l75 154h151zM200 710v-710h-139v710h139z" />
    <glyph glyph-name="Lcommaaccent" unicode="&#x13b;" horiz-adv-x="581" 
d="M559 129v-129h-492v680h144v-551h348zM327 -45q32 0 54.5 -21t22.5 -50q0 -19 -8.5 -36.5t-44.5 -74.5q-12 -19 -19 -30h-74l38 78q-46 18 -46 63q0 29 23 50t54 21z" />
    <glyph glyph-name="lcommaaccent" unicode="&#x13c;" horiz-adv-x="261" 
d="M200 710v-710h-139v710h139zM59 -257l38 78q-46 18 -46 63q0 29 23 50t54 21q32 0 54.5 -21t22.5 -50q0 -19 -8.5 -36.5t-44.5 -74.5q-12 -19 -19 -30h-74z" />
    <glyph glyph-name="Lcaron" unicode="&#x13d;" horiz-adv-x="581" 
d="M559 129v-129h-492v680h144v-551h348zM426 476h-103l5 204h137z" />
    <glyph glyph-name="lcaron" unicode="&#x13e;" horiz-adv-x="261" 
d="M200 710v-710h-139v710h139zM376 710l-39 -204h-103l5 204h137z" />
    <glyph glyph-name="Ldot" unicode="&#x13f;" horiz-adv-x="581" 
d="M559 129v-129h-492v680h144v-551h348zM399 271q-35 0 -59 23.5t-24 57.5t24 57t59 23t59.5 -23t24.5 -57t-24.5 -57.5t-59.5 -23.5z" />
    <glyph glyph-name="ldot" unicode="&#x140;" horiz-adv-x="429" 
d="M200 710v-710h-139v710h139zM305 255q-35 0 -59 23.5t-24 57.5t24 57t59 23t59.5 -23t24.5 -57t-24.5 -57.5t-59.5 -23.5z" />
    <glyph glyph-name="Lslash" unicode="&#x141;" horiz-adv-x="581" 
d="M559 129v-129h-492v239l-58 -22v118l58 22v323h144v-268l159 61v-118l-159 -61v-165h348z" />
    <glyph glyph-name="lslash" unicode="&#x142;" horiz-adv-x="261" 
d="M260 354l-60 -24v-330h-139v275l-61 -24v136l61 24v299h139v-243l60 24v-137z" />
    <glyph glyph-name="Nacute" unicode="&#x143;" horiz-adv-x="748" 
d="M436 753h-126l75 154h151zM680 680v-680h-111l-358 414v-414h-144v680h109l360 -424v424h144z" />
    <glyph glyph-name="nacute" unicode="&#x144;" horiz-adv-x="601" 
d="M362 555h-126l75 154h151zM337 494q95 0 152.5 -63t57.5 -168v-263h-139v251q0 57 -27 87t-76 30q-56 0 -105 -60v-308h-139v479h139v-34q62 49 137 49z" />
    <glyph glyph-name="Ncommaaccent" unicode="&#x145;" horiz-adv-x="748" 
d="M680 680v-680h-111l-358 414v-414h-144v680h109l360 -424v424h144zM374 -45q32 0 54.5 -21t22.5 -50q0 -19 -8.5 -36.5t-44.5 -74.5q-12 -19 -19 -30h-74l38 78q-45 18 -45 63q0 29 22.5 50t53.5 21z" />
    <glyph glyph-name="ncommaaccent" unicode="&#x146;" horiz-adv-x="601" 
d="M337 494q95 0 152.5 -63t57.5 -168v-263h-139v251q0 57 -27 87t-76 30q-56 0 -105 -60v-308h-139v479h139v-34q62 49 137 49zM301 -45q32 0 54.5 -21t22.5 -50q0 -19 -8.5 -36.5t-44.5 -74.5q-12 -19 -19 -30h-74l38 78q-46 18 -46 63q0 29 23 50t54 21z" />
    <glyph glyph-name="Ncaron" unicode="&#x147;" horiz-adv-x="748" 
d="M309 744l-118 156h127l57 -70l56 70h127l-118 -156h-131zM680 680v-680h-111l-358 414v-414h-144v680h109l360 -424v424h144z" />
    <glyph glyph-name="ncaron" unicode="&#x148;" horiz-adv-x="601" 
d="M235 547l-118 156h127l57 -70l55 70h127l-117 -156h-131zM337 494q95 0 152.5 -63t57.5 -168v-263h-139v251q0 57 -27 87t-76 30q-56 0 -105 -60v-308h-139v479h139v-34q62 49 137 49z" />
    <glyph glyph-name="Omacron" unicode="&#x14c;" horiz-adv-x="813" 
d="M547 866v-111h-282v111h282zM407 694q148 0 251.5 -103t103.5 -251t-103.5 -251t-251.5 -103q-149 0 -252.5 103t-103.5 251t103.5 251t252.5 103zM406 121q90 0 149.5 64t59.5 155t-59.5 155t-149.5 64q-89 0 -149 -64t-60 -155t60 -155t149 -64z" />
    <glyph glyph-name="omacron" unicode="&#x14d;" horiz-adv-x="588" 
d="M436 684v-111h-282v111h282zM294 489q111 0 183.5 -71t72.5 -179q0 -109 -73 -181.5t-183 -72.5q-111 0 -183.5 72t-72.5 182q0 109 72.5 179.5t183.5 70.5zM295 109q53 0 86 37.5t33 92.5q0 54 -33 90t-86 36q-54 0 -87 -36t-33 -90q0 -55 33 -92.5t87 -37.5z" />
    <glyph glyph-name="Ohungarumlaut" unicode="&#x150;" horiz-adv-x="813" 
d="M462 907l-79 -153h-112l53 153h138zM615 907l-78 -153h-112l53 153h137zM407 694q148 0 251.5 -103t103.5 -251t-103.5 -251t-251.5 -103q-149 0 -252.5 103t-103.5 251t103.5 251t252.5 103zM406 121q90 0 149.5 64t59.5 155t-59.5 155t-149.5 64q-89 0 -149 -64
t-60 -155t60 -155t149 -64z" />
    <glyph glyph-name="ohungarumlaut" unicode="&#x151;" horiz-adv-x="588" 
d="M350 709l-79 -153h-112l53 153h138zM503 709l-78 -153h-112l53 153h137zM294 489q111 0 183.5 -71t72.5 -179q0 -109 -73 -181.5t-183 -72.5q-111 0 -183.5 72t-72.5 182q0 109 72.5 179.5t183.5 70.5zM295 109q53 0 86 37.5t33 92.5q0 54 -33 90t-86 36q-54 0 -87 -36
t-33 -90q0 -55 33 -92.5t87 -37.5z" />
    <glyph glyph-name="OE" unicode="&#x152;" horiz-adv-x="980" 
d="M580 549v-148h319v-131h-319v-139h359v-131h-542q-163 0 -268.5 96t-105.5 244t105.5 244t268.5 96h542v-131h-359zM436 135v410h-39q-103 0 -165.5 -57t-62.5 -148t62.5 -148t165.5 -57h39z" />
    <glyph glyph-name="oe" unicode="&#x153;" horiz-adv-x="944" 
d="M906 249q0 -40 -3 -60h-349q25 -85 121 -85q57 0 80 36h146q-20 -69 -82.5 -110t-147.5 -41q-115 0 -189 74q-72 -78 -188 -78q-111 0 -183.5 72t-72.5 182q0 109 72.5 179.5t183.5 70.5q113 0 187 -74q72 74 189 74q102 0 169 -67t67 -173zM665 375q-46 0 -74 -24.5
t-38 -64.5h215q-6 42 -33 65.5t-70 23.5zM295 109q53 0 86 37.5t33 92.5q0 54 -33 90t-86 36q-54 0 -87 -36t-33 -90q0 -55 33 -92.5t87 -37.5z" />
    <glyph glyph-name="Racute" unicode="&#x154;" horiz-adv-x="691" 
d="M368 753h-126l75 154h151zM330 211h-119v-211h-144v680h290q119 0 194.5 -64.5t75.5 -169.5q0 -73 -38 -128t-104 -83l187 -235h-175zM211 344h141q56 0 94 28t38 74t-38 74t-94 28h-141v-204z" />
    <glyph glyph-name="racute" unicode="&#x155;" horiz-adv-x="397" 
d="M276 555h-126l75 154h151zM200 479v-54q67 62 169 62v-132q-110 -4 -169 -69v-286h-139v479h139z" />
    <glyph glyph-name="Rcommaaccent" unicode="&#x156;" horiz-adv-x="691" 
d="M672 0h-175l-167 211h-119v-211h-144v680h290q119 0 194.5 -64.5t75.5 -169.5q0 -73 -38 -128t-104 -83zM211 344h141q56 0 94 28t38 74t-38 74t-94 28h-141v-204zM344 -45q32 0 54.5 -21t22.5 -50q0 -19 -8.5 -36.5t-44.5 -74.5q-12 -19 -19 -30h-74l38 78
q-45 18 -45 63q0 29 22.5 50t53.5 21z" />
    <glyph glyph-name="rcommaaccent" unicode="&#x157;" horiz-adv-x="397" 
d="M200 479v-54q67 62 169 62v-132q-110 -4 -169 -69v-286h-139v479h139zM126 -45q32 0 54.5 -21t22.5 -50q0 -19 -8.5 -36.5t-44.5 -74.5q-12 -19 -19 -30h-74l38 78q-46 18 -46 63q0 29 23 50t54 21z" />
    <glyph glyph-name="Rcaron" unicode="&#x158;" horiz-adv-x="691" 
d="M241 744l-118 156h127l57 -70l56 70h127l-118 -156h-131zM330 211h-119v-211h-144v680h290q119 0 194.5 -64.5t75.5 -169.5q0 -73 -38 -128t-104 -83l187 -235h-175zM211 344h141q56 0 94 28t38 74t-38 74t-94 28h-141v-204z" />
    <glyph glyph-name="rcaron" unicode="&#x159;" horiz-adv-x="397" 
d="M149 547l-118 156h127l57 -70l56 70h127l-118 -156h-131zM200 479v-54q67 62 169 62v-132q-110 -4 -169 -69v-286h-139v479h139z" />
    <glyph glyph-name="Sacute" unicode="&#x15a;" horiz-adv-x="672" 
d="M497 907l-100 -154h-126l75 154h151zM335 695q47 0 90.5 -10.5t86.5 -34.5t71.5 -69.5t34.5 -108.5h-144q-15 100 -129 100q-53 0 -85 -22t-32 -61q0 -33 23.5 -50.5t71.5 -27.5l84 -17q104 -22 156 -66t52 -126q0 -98 -74 -157t-196 -59q-126 0 -208 63.5t-90 175.5h143
q8 -52 51.5 -82t110.5 -30q54 0 83.5 19t29.5 54q0 54 -86 70l-110 21q-195 39 -195 200q0 98 72 158t189 60z" />
    <glyph glyph-name="sacute" unicode="&#x15b;" horiz-adv-x="508" 
d="M415 709l-100 -154h-126l75 154h151zM28 166l127 -1q11 -71 100 -71q36 0 58.5 11t22.5 30q0 31 -48 40l-102 17q-62 11 -101.5 45.5t-39.5 96.5q0 73 57 115.5t150 42.5q35 0 67.5 -7t66 -23.5t55.5 -50.5t26 -82l-127 -1q-2 31 -26.5 45.5t-61.5 14.5
q-34 0 -52.5 -11.5t-18.5 -29.5q0 -35 57 -45l87 -14q145 -26 145 -141q0 -78 -60 -120t-156 -42q-93 0 -156 43t-70 138z" />
    <glyph glyph-name="Scedilla" unicode="&#x15e;" horiz-adv-x="672" 
d="M335 695q47 0 90.5 -10.5t86.5 -34.5t71.5 -69.5t34.5 -108.5h-144q-15 100 -129 100q-53 0 -85 -22t-32 -61q0 -33 23.5 -50.5t71.5 -27.5l84 -17q104 -22 156 -66t52 -126q0 -98 -74 -157t-196 -59q-126 0 -208 63.5t-90 175.5h143q8 -52 51.5 -82t110.5 -30
q54 0 83.5 19t29.5 54q0 54 -86 70l-110 21q-195 39 -195 200q0 98 72 158t189 60zM360 -215h-118l43 165h135z" />
    <glyph glyph-name="scedilla" unicode="&#x15f;" horiz-adv-x="508" 
d="M28 166l127 -1q11 -71 100 -71q36 0 58.5 11t22.5 30q0 31 -48 40l-102 17q-62 11 -101.5 45.5t-39.5 96.5q0 73 57 115.5t150 42.5q35 0 67.5 -7t66 -23.5t55.5 -50.5t26 -82l-127 -1q-2 31 -26.5 45.5t-61.5 14.5q-34 0 -52.5 -11.5t-18.5 -29.5q0 -35 57 -45l87 -14
q145 -26 145 -141q0 -78 -60 -120t-156 -42q-93 0 -156 43t-70 138zM266 -215h-118l43 165h135z" />
    <glyph glyph-name="Scaron" unicode="&#x160;" horiz-adv-x="672" 
d="M519 900l-118 -156h-131l-118 156h127l57 -70l56 70h127zM335 695q47 0 90.5 -10.5t86.5 -34.5t71.5 -69.5t34.5 -108.5h-144q-15 100 -129 100q-53 0 -85 -22t-32 -61q0 -33 23.5 -50.5t71.5 -27.5l84 -17q104 -22 156 -66t52 -126q0 -98 -74 -157t-196 -59
q-126 0 -208 63.5t-90 175.5h143q8 -52 51.5 -82t110.5 -30q54 0 83.5 19t29.5 54q0 54 -86 70l-110 21q-195 39 -195 200q0 98 72 158t189 60z" />
    <glyph glyph-name="scaron" unicode="&#x161;" horiz-adv-x="508" 
d="M437 703l-118 -156h-131l-118 156h127l57 -70l56 70h127zM28 166l127 -1q11 -71 100 -71q36 0 58.5 11t22.5 30q0 31 -48 40l-102 17q-62 11 -101.5 45.5t-39.5 96.5q0 73 57 115.5t150 42.5q35 0 67.5 -7t66 -23.5t55.5 -50.5t26 -82l-127 -1q-2 31 -26.5 45.5
t-61.5 14.5q-34 0 -52.5 -11.5t-18.5 -29.5q0 -35 57 -45l87 -14q145 -26 145 -141q0 -78 -60 -120t-156 -42q-93 0 -156 43t-70 138z" />
    <glyph glyph-name="Tcedilla" unicode="&#x162;" horiz-adv-x="651" 
d="M625 548h-228v-548h-144v548h-227v132h599v-132zM262 -50h135l-60 -165h-118z" />
    <glyph glyph-name="tcedilla" unicode="&#x163;" horiz-adv-x="457" 
d="M410 126l18 -119q-71 -22 -130 -22q-86 0 -139 56.5t-53 149.5v171h-100v117h100v171h139v-171h173v-117h-173v-170q0 -79 83 -79q32 0 82 13zM207 -50h135l-60 -165h-118z" />
    <glyph glyph-name="Tcaron" unicode="&#x164;" horiz-adv-x="651" 
d="M260 744l-118 156h127l57 -70l56 70h127l-118 -156h-131zM625 548h-228v-548h-144v548h-227v132h599v-132z" />
    <glyph glyph-name="tcaron" unicode="&#x165;" horiz-adv-x="457" 
d="M392 510h-103l5 204h137zM328 113q32 0 82 13l18 -119q-71 -22 -130 -22q-86 0 -139 56.5t-53 149.5v171h-100v117h100v171h139v-171h173v-117h-173v-170q0 -79 83 -79z" />
    <glyph glyph-name="Umacron" unicode="&#x16a;" horiz-adv-x="730" 
d="M506 866v-111h-282v111h282zM672 680v-371q0 -151 -83.5 -237.5t-224.5 -86.5q-140 0 -223.5 86.5t-83.5 237.5v371h145v-372q0 -85 44.5 -136.5t117.5 -51.5t118 51.5t45 136.5v372h145z" />
    <glyph glyph-name="umacron" unicode="&#x16b;" horiz-adv-x="601" 
d="M442 573h-282v111h282v-111zM540 479v-479h-139v34q-62 -49 -137 -49q-95 0 -152.5 63t-57.5 167v264h139v-251q0 -57 27 -87t76 -30q56 0 105 60v308h139z" />
    <glyph glyph-name="Uring" unicode="&#x16e;" horiz-adv-x="730" 
d="M365 978q53 0 85.5 -30t32.5 -80t-32.5 -80t-85.5 -30t-85.5 30t-32.5 80t32.5 80t85.5 30zM365 825q19 0 31 11.5t12 31.5t-12 31.5t-31 11.5t-31 -11.5t-12 -31.5t12 -31.5t31 -11.5zM672 680v-371q0 -151 -83.5 -237.5t-224.5 -86.5q-140 0 -223.5 86.5t-83.5 237.5
v371h145v-372q0 -85 44.5 -136.5t117.5 -51.5t118 51.5t45 136.5v372h145z" />
    <glyph glyph-name="uring" unicode="&#x16f;" horiz-adv-x="601" 
d="M301 543q-53 0 -85.5 30t-32.5 80t32.5 80t85.5 30t85.5 -30t32.5 -80t-32.5 -80t-85.5 -30zM301 696q-19 0 -31 -12t-12 -31t12 -31t31 -12t31 12t12 31t-12 31t-31 12zM540 479v-479h-139v34q-62 -49 -137 -49q-95 0 -152.5 63t-57.5 167v264h139v-251q0 -57 27 -87
t76 -30q56 0 105 60v308h139z" />
    <glyph glyph-name="Uhungarumlaut" unicode="&#x170;" horiz-adv-x="730" 
d="M421 907l-79 -153h-112l53 153h138zM574 907l-78 -153h-112l53 153h137zM672 680v-371q0 -151 -83.5 -237.5t-224.5 -86.5q-140 0 -223.5 86.5t-83.5 237.5v371h145v-372q0 -85 44.5 -136.5t117.5 -51.5t118 51.5t45 136.5v372h145z" />
    <glyph glyph-name="uhungarumlaut" unicode="&#x171;" horiz-adv-x="601" 
d="M277 556h-112l53 153h138zM319 556l53 153h137l-78 -153h-112zM540 479v-479h-139v34q-62 -49 -137 -49q-95 0 -152.5 63t-57.5 167v264h139v-251q0 -57 27 -87t76 -30q56 0 105 60v308h139z" />
    <glyph glyph-name="Uogonek" unicode="&#x172;" horiz-adv-x="730" 
d="M672 680v-371q0 -104 -41 -178.5t-115 -112.5q-69 -50 -69 -91q0 -35 49 -35q20 0 45 7l13 -114q-26 -10 -75 -10q-67 0 -106.5 32t-39.5 85q0 46 44 93h-13q-140 0 -223.5 86.5t-83.5 237.5v371h145v-372q0 -85 44.5 -136.5t117.5 -51.5t118 51.5t45 136.5v372h145z" />
    <glyph glyph-name="uogonek" unicode="&#x173;" horiz-adv-x="601" 
d="M572 -62l13 -102q-28 -13 -75 -13q-67 0 -109 32.5t-42 86.5q0 44 42 76v16q-62 -49 -137 -49q-95 0 -152.5 63t-57.5 167v264h139v-251q0 -57 27 -87t76 -30q56 0 105 60v308h139v-479h-3q-63 -9 -63 -40q0 -28 54 -28q17 0 44 6z" />
    <glyph glyph-name="Wcircumflex" unicode="&#x174;" horiz-adv-x="1081" 
d="M484 754h-126l117 157h131l117 -157h-126l-56 71zM831 -2v-2h-142l-149 434l-149 -434h-141l-223 684h153l143 -459l156 459h122l157 -458l142 458h153z" />
    <glyph glyph-name="wcircumflex" unicode="&#x175;" horiz-adv-x="799" 
d="M343 546h-126l117 157h131l117 -157h-126l-56 71zM785 479l-175 -479h-122l-88 264l-88 -264h-122l-175 479h149l88 -267l90 267h115l91 -268l88 268h149z" />
    <glyph glyph-name="Ycircumflex" unicode="&#x176;" horiz-adv-x="703" 
d="M295 754h-126l117 157h131l117 -157h-126l-56 71zM695 680l-270 -461v-219h-146v219h-1l-270 461h160l183 -316l184 316h160z" />
    <glyph glyph-name="ycircumflex" unicode="&#x177;" horiz-adv-x="635" 
d="M262 546h-126l117 157h131l117 -157h-126l-56 71zM612 480l-303 -710h-146l93 218l-233 492h148l155 -327l140 327h146z" />
    <glyph glyph-name="Ydieresis" unicode="&#x178;" horiz-adv-x="703" 
d="M242 747q-35 0 -59 23.5t-24 57.5t24 57t59 23t59.5 -23t24.5 -57t-24.5 -57.5t-59.5 -23.5zM461 747q-35 0 -59.5 23.5t-24.5 57.5t24.5 57t59.5 23t59 -23t24 -57t-24 -57.5t-59 -23.5zM695 680l-270 -461v-219h-146v219h-1l-270 461h160l183 -316l184 316h160z" />
    <glyph glyph-name="Zacute" unicode="&#x179;" horiz-adv-x="654" 
d="M389 753h-126l75 154h151zM613 130v-130h-574v68l359 482h-343v130h553v-68l-344 -482h349z" />
    <glyph glyph-name="zacute" unicode="&#x17a;" horiz-adv-x="502" 
d="M312 555h-126l75 154h151zM470 405l-234 -290h234v-115h-439v65l242 299h-236v115h433v-74z" />
    <glyph glyph-name="Zdotaccent" unicode="&#x17b;" horiz-adv-x="654" 
d="M328 747q-35 0 -59.5 23.5t-24.5 57.5t24.5 57t59.5 23t59.5 -23t24.5 -57t-24.5 -57.5t-59.5 -23.5zM613 130v-130h-574v68l359 482h-343v130h553v-68l-344 -482h349z" />
    <glyph glyph-name="zdotaccent" unicode="&#x17c;" horiz-adv-x="502" 
d="M251 549q-35 0 -59.5 23.5t-24.5 57.5t24.5 57t59.5 23t59.5 -23t24.5 -57t-24.5 -57.5t-59.5 -23.5zM470 405l-234 -290h234v-115h-439v65l242 299h-236v115h433v-74z" />
    <glyph glyph-name="Zcaron" unicode="&#x17d;" horiz-adv-x="654" 
d="M262 744l-118 156h127l57 -70l56 70h127l-118 -156h-131zM613 130v-130h-574v68l359 482h-343v130h553v-68l-344 -482h349z" />
    <glyph glyph-name="zcaron" unicode="&#x17e;" horiz-adv-x="502" 
d="M185 547l-118 156h127l57 -70l56 70h127l-118 -156h-131zM470 405l-234 -290h234v-115h-439v65l242 299h-236v115h433v-74z" />
    <glyph glyph-name="florin" unicode="&#x192;" horiz-adv-x="586" 
d="M458 557q-82 0 -93 -88l-12 -90h164v-115h-180l-22 -164q-14 -101 -67 -158.5t-141 -57.5q-58 0 -118 16l19 121q36 -9 71 -9q82 0 93 88l22 164h-128v115h143l12 90q14 101 67 158.5t142 57.5q60 0 118 -17l-19 -120q-43 9 -71 9z" />
    <glyph glyph-name="Acaron" unicode="&#x1cd;" horiz-adv-x="755" 
d="M311 744l-118 156h127l57 -70l56 70h127l-118 -156h-131zM532 131h-308l-53 -131h-155l293 684h137l293 -684h-154zM478 262l-101 249l-100 -249h201z" />
    <glyph glyph-name="acaron" unicode="&#x1ce;" horiz-adv-x="613" 
d="M249 547l-118 156h127l57 -70l56 70h127l-118 -156h-131zM552 479v-479h-139v28q-59 -38 -136 -38q-99 0 -169 72.5t-70 176.5q0 105 70 177.5t169 72.5q77 0 136 -38v28h139zM300 108q72 0 113 56v152q-41 56 -113 56q-54 0 -89 -39t-35 -94q0 -54 35 -92.5t89 -38.5z
" />
    <glyph glyph-name="Scommaaccent" unicode="&#x218;" horiz-adv-x="672" 
d="M335 695q47 0 90.5 -10.5t86.5 -34.5t71.5 -69.5t34.5 -108.5h-144q-15 100 -129 100q-53 0 -85 -22t-32 -61q0 -33 23.5 -50.5t71.5 -27.5l84 -17q104 -22 156 -66t52 -126q0 -98 -74 -157t-196 -59q-126 0 -208 63.5t-90 175.5h143q8 -52 51.5 -82t110.5 -30
q54 0 83.5 19t29.5 54q0 54 -86 70l-110 21q-195 39 -195 200q0 98 72 158t189 60zM258 -257l38 78q-46 18 -46 63q0 29 23 50t54 21q32 0 54.5 -21t22.5 -50q0 -19 -8.5 -36.5t-44.5 -74.5q-12 -19 -19 -30h-74z" />
    <glyph glyph-name="scommaaccent" unicode="&#x219;" horiz-adv-x="508" 
d="M28 166l127 -1q11 -71 100 -71q36 0 58.5 11t22.5 30q0 31 -48 40l-102 17q-62 11 -101.5 45.5t-39.5 96.5q0 73 57 115.5t150 42.5q35 0 67.5 -7t66 -23.5t55.5 -50.5t26 -82l-127 -1q-2 31 -26.5 45.5t-61.5 14.5q-34 0 -52.5 -11.5t-18.5 -29.5q0 -35 57 -45l87 -14
q145 -26 145 -141q0 -78 -60 -120t-156 -42q-93 0 -156 43t-70 138zM163 -257l38 78q-46 18 -46 63q0 29 23 50t54 21q32 0 54.5 -21t22.5 -50q0 -19 -8.5 -36.5t-44.5 -74.5q-12 -19 -19 -30h-74z" />
    <glyph glyph-name="uni021A" unicode="&#x21a;" horiz-adv-x="651" 
d="M625 548h-228v-548h-144v548h-227v132h599v-132zM303 -45q32 0 54.5 -21t22.5 -50q0 -19 -8.5 -36.5t-44.5 -74.5q-12 -19 -19 -30h-74l38 78q-46 18 -46 63q0 29 23 50t54 21z" />
    <glyph glyph-name="uni021B" unicode="&#x21b;" horiz-adv-x="457" 
d="M410 126l18 -119q-71 -22 -130 -22q-86 0 -139 56.5t-53 149.5v171h-100v117h100v171h139v-171h173v-117h-173v-170q0 -79 83 -79q32 0 82 13zM248 -45q32 0 54.5 -21t22.5 -50q0 -19 -8.5 -36.5t-44.5 -74.5q-12 -19 -19 -30h-74l38 78q-46 18 -46 63q0 29 23 50t54 21z
" />
    <glyph glyph-name="circumflex" unicode="&#x2c6;" 
d="M301 618l-57 -71h-126l117 157h131l117 -157h-126z" />
    <glyph glyph-name="caron" unicode="&#x2c7;" 
d="M484 703l-118 -156h-131l-118 156h127l57 -70l56 70h127z" />
    <glyph glyph-name="breve" unicode="&#x2d8;" 
d="M363 698h100q0 -77 -45 -119.5t-118 -42.5t-118 42.5t-45 119.5h100q0 -70 63 -70t63 70z" />
    <glyph glyph-name="dotaccent" unicode="&#x2d9;" 
d="M300 549q-35 0 -59.5 23.5t-24.5 57.5t24.5 57t59.5 23t59.5 -23t24.5 -57t-24.5 -57.5t-59.5 -23.5z" />
    <glyph glyph-name="ring" unicode="&#x2da;" 
d="M297 763q53 0 85.5 -30t32.5 -80t-32.5 -80t-85.5 -30t-85.5 30t-32.5 80t32.5 80t85.5 30zM297 610q19 0 31 12t12 31t-12 31t-31 12t-31 -12t-12 -31t12 -31t31 -12z" />
    <glyph glyph-name="ogonek" unicode="&#x2db;" 
d="M358 65l13 -59q-63 -9 -63 -40q0 -28 54 -28q17 0 44 6l13 -102q-28 -13 -75 -13q-67 0 -109 32.5t-42 86.5q0 44 43.5 77t121.5 40z" />
    <glyph glyph-name="tilde" unicode="&#x2dc;" 
d="M381 694h108q0 -47 -18 -80t-45.5 -46t-57.5 -12.5t-56 15.5l-46 27q-25 11 -33.5 3t-8.5 -27h-108q0 47 18 80t45.5 46t57.5 12.5t56 -14.5l46 -28q16 -10 25.5 -6.5t13 11.5t3.5 19z" />
    <glyph glyph-name="hungarumlaut" unicode="&#x2dd;" 
d="M354 709l-79 -153h-112l53 153h138zM507 709l-78 -153h-112l53 153h137z" />
    <glyph glyph-name="uni0326" unicode="&#x326;" horiz-adv-x="0" 
d="M228 -257l38 78q-46 18 -46 63q0 29 23 50t54 21q32 0 54.5 -21t22.5 -50q0 -19 -8.5 -36.5t-44.5 -74.5q-12 -19 -19 -30h-74z" />
    <glyph glyph-name="Wgrave" unicode="&#x1e80;" horiz-adv-x="1081" 
d="M491 753l-100 154h152l74 -154h-126zM831 -2v-2h-142l-149 434l-149 -434h-141l-223 684h153l143 -459l156 459h122l157 -458l142 458h153z" />
    <glyph glyph-name="wgrave" unicode="&#x1e81;" horiz-adv-x="799" 
d="M348 555l-100 154h152l74 -154h-126zM785 479l-175 -479h-122l-88 264l-88 -264h-122l-175 479h149l88 -267l90 267h115l91 -268l88 268h149z" />
    <glyph glyph-name="Wacute" unicode="&#x1e82;" horiz-adv-x="1081" 
d="M602 753h-126l75 154h151zM831 -2v-2h-142l-149 434l-149 -434h-141l-223 684h153l143 -459l156 459h122l157 -458l142 458h153z" />
    <glyph glyph-name="wacute" unicode="&#x1e83;" horiz-adv-x="799" 
d="M461 555h-126l75 154h151zM785 479l-175 -479h-122l-88 264l-88 -264h-122l-175 479h149l88 -267l90 267h115l91 -268l88 268h149z" />
    <glyph glyph-name="Wdieresis" unicode="&#x1e84;" horiz-adv-x="1081" 
d="M431 747q-35 0 -59 23.5t-24 57.5t24 57t59 23t59.5 -23t24.5 -57t-24.5 -57.5t-59.5 -23.5zM650 747q-35 0 -59.5 23.5t-24.5 57.5t24.5 57t59.5 23t59 -23t24 -57t-24 -57.5t-59 -23.5zM831 -2v-2h-142l-149 434l-149 -434h-141l-223 684h153l143 -459l156 459h122
l157 -458l142 458h153z" />
    <glyph glyph-name="wdieresis" unicode="&#x1e85;" horiz-adv-x="799" 
d="M291 549q-35 0 -59 23.5t-24 57.5t24 57t59 23t59.5 -23t24.5 -57t-24.5 -57.5t-59.5 -23.5zM510 549q-35 0 -59.5 23.5t-24.5 57.5t24.5 57t59.5 23t59 -23t24 -57t-24 -57.5t-59 -23.5zM785 479l-175 -479h-122l-88 264l-88 -264h-122l-175 479h149l88 -267l90 267h115
l91 -268l88 268h149z" />
    <glyph glyph-name="Ygrave" unicode="&#x1ef2;" horiz-adv-x="703" 
d="M302 753l-100 154h152l74 -154h-126zM695 680l-270 -461v-219h-146v219h-1l-270 461h160l183 -316l184 316h160z" />
    <glyph glyph-name="ygrave" unicode="&#x1ef3;" horiz-adv-x="635" 
d="M266 555l-100 154h152l74 -154h-126zM612 480l-303 -710h-146l93 218l-233 492h148l155 -327l140 327h146z" />
    <glyph glyph-name="endash" unicode="&#x2013;" horiz-adv-x="695" 
d="M596 329v-137h-497v137h497z" />
    <glyph glyph-name="emdash" unicode="&#x2014;" horiz-adv-x="1056" 
d="M957 329v-137h-858v137h858z" />
    <glyph glyph-name="quoteleft" unicode="&#x2018;" horiz-adv-x="222" 
d="M193 679l-49 -104q48 -21 48 -66q0 -33 -23.5 -55.5t-57.5 -22.5q-35 0 -58.5 22.5t-23.5 55.5q0 26 27 74l56 96h81z" />
    <glyph glyph-name="quoteright" unicode="&#x2019;" horiz-adv-x="222" 
d="M29 441l49 105q-48 20 -48 66q0 32 23.5 54.5t57.5 22.5t58 -22.5t24 -54.5q0 -27 -27 -74l-56 -97h-81z" />
    <glyph glyph-name="quotesinglbase" unicode="&#x201a;" horiz-adv-x="222" 
d="M29 -109l49 104q-48 20 -48 66q0 33 23.5 55.5t57.5 22.5t58 -22.5t24 -55.5q0 -27 -28 -74l-55 -96h-81z" />
    <glyph glyph-name="quotedblleft" unicode="&#x201c;" horiz-adv-x="416" 
d="M193 679l-49 -104q48 -21 48 -66q0 -33 -23.5 -55.5t-57.5 -22.5q-35 0 -58.5 22.5t-23.5 55.5q0 26 27 74l56 96h81zM387 679l-49 -104q48 -20 48 -66q0 -33 -23.5 -55.5t-57.5 -22.5t-58 22.5t-24 55.5q0 26 28 74l55 96h81z" />
    <glyph glyph-name="quotedblright" unicode="&#x201d;" horiz-adv-x="416" 
d="M29 441l49 105q-48 20 -48 66q0 32 23.5 54.5t57.5 22.5t58 -22.5t24 -54.5q0 -27 -27 -74l-56 -97h-81zM223 441l49 105q-48 20 -48 66q0 32 24 54.5t57 22.5q34 0 58 -22.5t24 -54.5q0 -27 -27 -74l-56 -97h-81z" />
    <glyph glyph-name="quotedblbase" unicode="&#x201e;" horiz-adv-x="419" 
d="M29 -109l49 104q-48 20 -48 66q0 33 23.5 55.5t57.5 22.5t58 -22.5t24 -55.5q0 -27 -28 -74l-55 -96h-81zM226 -109l49 104q-48 21 -48 66q0 33 23.5 55.5t57.5 22.5q35 0 58.5 -22.5t23.5 -55.5q0 -27 -27 -74l-56 -96h-81z" />
    <glyph glyph-name="dagger" unicode="&#x2020;" horiz-adv-x="407" 
d="M248 515v-215h-89v215h-115v89h115v115h89v-115h115v-89h-115z" />
    <glyph glyph-name="daggerdbl" unicode="&#x2021;" horiz-adv-x="407" 
d="M248 485h115v-90h-115v-95h-89v95h-115v90h115v53h-115v89h115v92h89v-92h115v-89h-115v-53z" />
    <glyph glyph-name="bullet" unicode="&#x2022;" horiz-adv-x="341" 
d="M170 157q-56 0 -98.5 42t-42.5 98t42.5 98t98.5 42q57 0 99.5 -42t42.5 -98t-42.5 -98t-99.5 -42z" />
    <glyph glyph-name="ellipsis" unicode="&#x2026;" horiz-adv-x="699" 
d="M111 -19q-34 0 -58 23t-24 57q0 33 24 56t58 23t58.5 -23t24.5 -56q0 -34 -24.5 -57t-58.5 -23zM346 -19q-34 0 -58 23t-24 57q0 33 24 56t58 23q35 0 59 -22.5t24 -56.5t-24 -57t-59 -23zM587 -19q-34 0 -58 23t-24 57q0 33 24.5 56t57.5 23q35 0 59 -22.5t24 -56.5
t-24 -57t-59 -23z" />
    <glyph glyph-name="perthousand" unicode="&#x2030;" horiz-adv-x="1548" 
d="M276 695q86 0 143.5 -54.5t57.5 -141.5q0 -88 -57.5 -143t-143.5 -55q-87 0 -144 55t-57 143q0 87 57 141.5t144 54.5zM353 0h-95l462 680h96zM276 397q42 0 70.5 28.5t28.5 73.5q0 44 -29 72t-70 28q-42 0 -71 -28t-29 -72q0 -45 29 -73.5t71 -28.5zM811 379
q87 0 144.5 -54.5t57.5 -141.5q0 -88 -57.5 -143t-144.5 -55q-86 0 -143 55t-57 143q0 87 57 141.5t143 54.5zM1271 379q87 0 144.5 -54.5t57.5 -141.5q0 -88 -57.5 -143t-144.5 -55q-86 0 -143 55t-57 143q0 87 57 141.5t143 54.5zM811 81q42 0 71 28.5t29 73.5
q0 44 -29 72t-71 28q-41 0 -70 -28t-29 -72q0 -45 28.5 -73.5t70.5 -28.5zM1272 81q42 0 71 28.5t29 73.5q0 44 -29 72t-71 28q-41 0 -70 -28t-29 -72q0 -45 28.5 -73.5t70.5 -28.5z" />
    <glyph glyph-name="guilsinglleft" unicode="&#x2039;" horiz-adv-x="272" 
d="M248 408l-93 -156l93 -156h-131l-93 156l93 156h131z" />
    <glyph glyph-name="guilsinglright" unicode="&#x203a;" horiz-adv-x="273" 
d="M248 252l-92 -156h-131l93 156l-93 156h131z" />
    <glyph glyph-name="fraction" unicode="&#x2044;" horiz-adv-x="505" 
d="M69 0h-95l462 680h95z" />
    <glyph glyph-name="zerosuperior" unicode="&#x2070;" horiz-adv-x="453" 
d="M226 701q92 0 145 -60t53 -154t-53 -154t-145 -60q-91 0 -144 60.5t-53 153.5t53 153.5t144 60.5zM226 367q46 0 70 34t24 86t-24 86t-70 34t-70 -34t-24 -86t24 -86t70 -34z" />
    <glyph glyph-name="foursuperior" unicode="&#x2074;" horiz-adv-x="419" 
d="M389 360h-51v-74h-100v74h-213v65l115 270h105l-101 -246h94v106h100v-106h51v-89z" />
    <glyph glyph-name="fivesuperior" unicode="&#x2075;" horiz-adv-x="396" 
d="M159 554h43q73 0 111.5 -37t38.5 -98q0 -62 -43.5 -102t-113.5 -40q-68 0 -110.5 34t-50.5 91h101q15 -37 61 -37q27 0 43.5 15t16.5 37q0 51 -58 51h-134v227h272v-92h-177v-49z" />
    <glyph glyph-name="sixsuperior" unicode="&#x2076;" horiz-adv-x="392" 
d="M292 695l-79 -125q67 -4 108 -44.5t41 -99.5q0 -63 -46 -106t-119 -43t-120.5 43.5t-47.5 103.5q0 42 41 107l102 164h120zM197 360q28 0 46.5 17.5t18.5 43.5q0 28 -18.5 45.5t-47.5 17.5q-28 0 -48 -17q-19 -29 -19 -44q0 -26 19 -44.5t49 -18.5z" />
    <glyph glyph-name="sevensuperior" unicode="&#x2077;" horiz-adv-x="343" 
d="M324 695v-62l-162 -347h-115l146 312h-174v97h305z" />
    <glyph glyph-name="eightsuperior" unicode="&#x2078;" horiz-adv-x="413" 
d="M315 498q60 -34 60 -99q0 -56 -45.5 -91t-123.5 -35q-77 0 -122.5 35t-45.5 91q0 66 60 99q-44 30 -44 82q0 54 42.5 87t109.5 33q68 0 110 -33t42 -87q0 -53 -43 -82zM206 621q-22 0 -37 -13t-15 -34q0 -22 15 -35.5t37 -13.5t37 13.5t15 35.5q0 21 -15 34t-37 13z
M206 358q25 0 40.5 13t15.5 35t-15.5 35.5t-40.5 13.5t-40.5 -13.5t-15.5 -35.5t15.5 -35t40.5 -13z" />
    <glyph glyph-name="ninesuperior" unicode="&#x2079;" horiz-adv-x="392" 
d="M195 701q72 0 119.5 -43.5t47.5 -102.5q0 -43 -41 -108l-102 -164h-120l79 125q-67 4 -108 44.5t-41 99.5q0 63 46 106t120 43zM195 494q28 0 48 17q19 29 19 44q0 26 -19 44.5t-48 18.5q-28 0 -47 -17.5t-19 -43.5q0 -28 18.5 -45.5t47.5 -17.5z" />
    <glyph glyph-name="zeroinferior" unicode="&#x2080;" horiz-adv-x="453" 
d="M226 239q92 0 145 -60t53 -154t-53 -154t-145 -60q-91 0 -144 60.5t-53 153.5t53 153.5t144 60.5zM226 -96q46 0 70 34.5t24 86.5t-24 86t-70 34t-70 -34t-24 -86t24 -86.5t70 -34.5z" />
    <glyph glyph-name="oneinferior" unicode="&#x2081;" horiz-adv-x="340" 
d="M335 -95v-85h-306v85h106v216l-102 -29v89l143 48h56v-324h103z" />
    <glyph glyph-name="twoinferior" unicode="&#x2082;" horiz-adv-x="369" 
d="M340 -95v-85h-304v52l145 158q29 30 39.5 46.5t10.5 32.5q0 17 -12 27.5t-32 10.5q-50 0 -52 -51h-101q1 65 40.5 103.5t110.5 38.5q70 0 110 -35.5t40 -86.5q0 -56 -68 -133l-69 -78h142z" />
    <glyph glyph-name="threeinferior" unicode="&#x2083;" horiz-adv-x="382" 
d="M296 26q52 -28 52 -87q0 -55 -43 -92t-112 -37q-68 0 -109.5 34.5t-51.5 95.5h101q14 -42 61 -42q25 0 40.5 11.5t15.5 29.5q0 42 -68 42h-32v81h32q25 0 40 12.5t15 31.5t-12 30t-35 11q-21 0 -33 -12t-14 -30h-101q5 60 44 95t103 35q66 0 105 -36t39 -92
q0 -52 -37 -81z" />
    <glyph glyph-name="fourinferior" unicode="&#x2084;" horiz-adv-x="419" 
d="M389 -106h-51v-74h-100v74h-213v65l115 270h105l-101 -246h94v106h100v-106h51v-89z" />
    <glyph glyph-name="fiveinferior" unicode="&#x2085;" horiz-adv-x="396" 
d="M159 88h43q73 0 111.5 -37t38.5 -98q0 -62 -43.5 -102t-113.5 -40q-68 0 -110.5 34t-50.5 91h101q15 -37 61 -37q27 0 43.5 15t16.5 37q0 51 -58 51h-134v227h272v-92h-177v-49z" />
    <glyph glyph-name="sixinferior" unicode="&#x2086;" horiz-adv-x="392" 
d="M292 229l-79 -125q67 -4 108 -44.5t41 -99.5q0 -63 -46 -106t-119 -43t-120.5 43t-47.5 103q0 43 41 108l102 164h120zM197 -106q28 0 46.5 17.5t18.5 43.5q0 28 -18.5 45.5t-47.5 17.5q-28 0 -48 -17q-19 -29 -19 -44q0 -26 19 -44.5t49 -18.5z" />
    <glyph glyph-name="seveninferior" unicode="&#x2087;" horiz-adv-x="343" 
d="M324 229v-62l-162 -347h-115l146 312h-174v97h305z" />
    <glyph glyph-name="eightinferior" unicode="&#x2088;" horiz-adv-x="413" 
d="M315 36q60 -34 60 -99q0 -56 -45.5 -91t-123.5 -35q-77 0 -122.5 35t-45.5 91q0 66 60 99q-44 30 -44 82q0 54 42.5 87t109.5 33q68 0 110 -33t42 -87q0 -53 -43 -82zM206 158q-22 0 -37 -12.5t-15 -33.5q0 -22 15 -35.5t37 -13.5t37 13.5t15 35.5q0 21 -15 33.5
t-37 12.5zM206 -104q25 0 40.5 13t15.5 35t-15.5 35.5t-40.5 13.5t-40.5 -13.5t-15.5 -35.5t15.5 -35t40.5 -13z" />
    <glyph glyph-name="nineinferior" unicode="&#x2089;" horiz-adv-x="392" 
d="M195 239q72 0 119.5 -43.5t47.5 -102.5q0 -43 -41 -108l-102 -164h-120l79 125q-67 4 -108 44.5t-41 99.5q0 63 46 106t120 43zM195 32q28 0 48 17q19 28 19 44q0 26 -19 44.5t-48 18.5q-28 0 -47 -17.5t-19 -43.5q0 -28 18.5 -45.5t47.5 -17.5z" />
    <glyph glyph-name="Euro" unicode="&#x20ac;" horiz-adv-x="855" 
d="M469 124q73 0 121.5 39t65.5 112h149q-22 -131 -113 -210t-222 -79q-115 0 -205.5 61t-128.5 164h-97v91h77q-2 24 -2 38v19h-75v91h91q34 110 126.5 177t213.5 67q131 0 222 -79t113 -210h-149q-17 73 -65.5 112t-121.5 39q-61 0 -109 -28t-74 -78h252l-24 -91h-253
l-1 -19q0 -20 3 -38h239l-23 -91h-182q59 -87 172 -87z" />
    <glyph glyph-name="uni2116" unicode="&#x2116;" horiz-adv-x="1375" 
d="M1053 181q-111 0 -183.5 72t-72.5 182q0 109 72.5 179.5t183.5 70.5q110 0 182.5 -70.5t72.5 -179.5q0 -110 -72.5 -182t-182.5 -72zM536 680h144v-680h-111l-358 414v-414h-144v680h109l360 -424v424zM1053 561q-54 0 -87 -36t-33 -90q0 -56 33 -93t87 -37q53 0 86 37
t33 93q0 54 -33 90t-86 36zM811 117h482v-117h-482v117z" />
    <glyph glyph-name="uni2117" unicode="&#x2117;" horiz-adv-x="829" 
d="M415 695q150 0 257 -102t107 -253t-107 -253t-257 -102t-257 102t-107 253t107 253t257 102zM414 608q-111 0 -191.5 -78t-80.5 -190t80.5 -190t191.5 -78t192 78t81 190t-81 190t-192 78zM302 506h136q58 0 93 -31t35 -82t-35 -80.5t-95 -29.5h-54v-87h-80v310zM382 432
v-78h55q46 0 46 40q0 17 -12.5 27.5t-33.5 10.5h-55z" />
    <glyph glyph-name="trademark" unicode="&#x2122;" horiz-adv-x="699" 
d="M295 679v-73h-95v-219h-76v219h-95v73h266zM655 679v-292h-77v139l-70 -105h-41v1l-71 106l1 -141h-76v292h56l111 -160l110 160h57z" />
    <glyph glyph-name="oneeighth" unicode="&#x215b;" horiz-adv-x="968" 
d="M29 271v85h106v216l-102 -29v89l143 48h56v-324h103v-85h-306zM760 680l-462 -680h-96l463 680h95zM871 216q59 -34 59 -99q0 -56 -45 -91t-123 -35t-123.5 35t-45.5 91q0 64 60 99q-44 30 -44 82q0 54 42.5 87t110.5 33q67 0 109.5 -33t42.5 -87q0 -52 -43 -82zM762 338
q-23 0 -38 -12.5t-15 -33.5q0 -22 15 -35.5t38 -13.5q22 0 37 13.5t15 35.5q0 21 -15 33.5t-37 12.5zM762 76q25 0 40 13t15 35t-15 35.5t-40 13.5t-40.5 -13.5t-15.5 -35.5t15.5 -35t40.5 -13z" />
    <glyph glyph-name="threeeighths" unicode="&#x215c;" horiz-adv-x="944" 
d="M350 394q0 -55 -43 -92t-112 -37q-68 0 -109.5 34.5t-51.5 95.5h101q14 -42 61 -42q25 0 40.5 11.5t15.5 29.5q0 42 -68 42h-32v81h32q25 0 40 12.5t15 31.5t-12 30t-35 11q-21 0 -33 -12t-14 -30h-101q5 60 44 95t103 35q66 0 105 -36t39 -92q0 -52 -37 -81
q52 -28 52 -87zM736 680l-462 -680h-95l462 680h95zM847 216q59 -34 59 -99q0 -56 -45 -91t-123 -35t-123.5 35t-45.5 91q0 64 60 99q-44 30 -44 82q0 54 42.5 87t110.5 33q67 0 109.5 -33t42.5 -87q0 -52 -43 -82zM738 338q-22 0 -37 -12.5t-15 -33.5q0 -22 15 -35.5
t37 -13.5t37 13.5t15 35.5q0 21 -15 33.5t-37 12.5zM738 76q25 0 40.5 13t15.5 35t-15.5 35.5t-40.5 13.5t-40.5 -13.5t-15.5 -35.5t15.5 -35t40.5 -13z" />
    <glyph glyph-name="fiveeighths" unicode="&#x215d;" horiz-adv-x="949" 
d="M352 404q0 -62 -43.5 -102t-113.5 -40q-68 0 -110.5 34t-50.5 91h101q15 -37 61 -37q27 0 43.5 15t16.5 37q0 51 -58 51h-134v227h272v-92h-177v-49h43q73 0 111.5 -37t38.5 -98zM742 680l-463 -680h-95l462 680h96zM852 216q59 -34 59 -99q0 -56 -45 -91t-123 -35
q-77 0 -122.5 35t-45.5 91q0 66 60 99q-44 30 -44 82q0 54 42 87t110 33t110 -33t42 -87q0 -52 -43 -82zM743 338q-22 0 -37 -12.5t-15 -33.5q0 -22 15 -35.5t37 -13.5t37 13.5t15 35.5q0 21 -15 33.5t-37 12.5zM743 76q25 0 40.5 13t15.5 35t-15.5 35.5t-40.5 13.5
t-40.5 -13.5t-15.5 -35.5t15.5 -35t40.5 -13z" />
    <glyph glyph-name="seveneighths" unicode="&#x215e;" horiz-adv-x="863" 
d="M65 271l146 312h-174v97h305v-62l-162 -347h-115zM655 680l-462 -680h-95l462 680h95zM766 216q59 -34 59 -99q0 -56 -45 -91t-123 -35t-123.5 35t-45.5 91q0 66 61 99q-44 30 -44 82q0 54 42 87t110 33q67 0 109.5 -33t42.5 -87q0 -52 -43 -82zM657 338q-22 0 -37 -12.5
t-15 -33.5q0 -22 15 -35.5t37 -13.5t37 13.5t15 35.5q0 21 -15 33.5t-37 12.5zM657 76q25 0 40.5 13t15.5 35t-15.5 35.5t-40.5 13.5t-40.5 -13.5t-15.5 -35.5t15.5 -35t40.5 -13z" />
    <glyph glyph-name="arrowleft" unicode="&#x2190;" horiz-adv-x="766" 
d="M274 276l195 -189l-91 -91l-344 345l344 345l91 -91l-194 -188h451v-131h-452z" />
    <glyph glyph-name="arrowup" unicode="&#x2191;" horiz-adv-x="779" 
d="M325 452l-190 -195l-90 91l345 344l344 -344l-90 -91l-189 194v-451h-130v452z" />
    <glyph glyph-name="arrowright" unicode="&#x2192;" horiz-adv-x="766" 
d="M40 407h451l-194 188l91 91l344 -345l-344 -345l-91 91l195 189h-452v131z" />
    <glyph glyph-name="arrowdown" unicode="&#x2193;" horiz-adv-x="779" 
d="M455 680v-451l189 194l90 -91l-344 -344l-345 344l90 91l190 -195v452h130z" />
    <glyph glyph-name="arrowupleft" unicode="&#x2196;" horiz-adv-x="795" 
d="M678 -1l-461 461l1 -268h-128v488h488v-128l-269 1l461 -461z" />
    <glyph glyph-name="arrowupright" unicode="&#x2197;" horiz-adv-x="795" 
d="M485 553l-268 -1v128h488v-488h-128v268l-460 -461l-92 93z" />
    <glyph glyph-name="arrowdownright" unicode="&#x2198;" horiz-adv-x="795" 
d="M117 680l460 -460v268h128v-488h-488v128l268 -1l-460 461z" />
    <glyph glyph-name="arrowdownleft" unicode="&#x2199;" horiz-adv-x="795" 
d="M309 127l269 1v-128h-488v488h128l-1 -268l461 460l92 -92z" />
    <glyph glyph-name="minus" unicode="&#x2212;" horiz-adv-x="679" 
d="M99 393h481v-123h-481v123z" />
    <glyph glyph-name="R.ss02" horiz-adv-x="691" 
d="M241 211h-29v-211h-145v680h285q125 0 200 -63.5t75 -170.5q0 -87 -52.5 -147.5t-143.5 -79.5l240 -219h-197zM212 548v-204h136q62 0 99 28t37 74q0 47 -37 74.5t-99 27.5h-136z" />
    <glyph glyph-name="Racute.ss02" horiz-adv-x="691" 
d="M386 753h-126l75 154h151zM240 211h-29v-211h-144v680h285q125 0 200 -64t75 -170q0 -87 -52.5 -147.5t-143.5 -79.5l240 -219h-198zM211 548v-204h137q61 0 98.5 28t37.5 74q0 47 -37.5 74.5t-98.5 27.5h-137z" />
    <glyph glyph-name="Rcaron.ss02" horiz-adv-x="691" 
d="M259 744l-118 156h127l57 -70l56 70h127l-118 -156h-131zM240 211h-29v-211h-144v680h285q125 0 200 -64t75 -170q0 -87 -52.5 -147.5t-143.5 -79.5l240 -219h-198zM211 548v-204h137q61 0 98.5 28t37.5 74q0 47 -37.5 74.5t-98.5 27.5h-137z" />
    <glyph glyph-name="Rcommaaccent.ss02" horiz-adv-x="691" 
d="M671 0h-198l-233 211h-29v-211h-144v680h285q125 0 200 -64t75 -170q0 -87 -52.5 -147.5t-143.5 -79.5zM211 548v-204h137q61 0 98.5 28t37.5 74q0 47 -37.5 74.5t-98.5 27.5h-137zM336 -45q32 0 54.5 -21t22.5 -50q0 -19 -8.5 -36.5t-44.5 -74.5q-12 -19 -19 -30h-74
l38 78q-45 18 -45 63q0 29 22.5 50t53.5 21z" />
    <glyph glyph-name="Q.ss03" horiz-adv-x="813" 
d="M407 694q148 0 251.5 -103t103.5 -251t-103.5 -251t-251.5 -103q-149 0 -252.5 103t-103.5 251t103.5 251t252.5 103zM406 121q90 0 149.5 64t59.5 155t-59.5 155t-149.5 64q-89 0 -149 -64t-60 -155t60 -155t149 -64zM723 -94l-16 -132q-169 21 -330 70l12 102z" />
    <glyph glyph-name="i.loclTRK" horiz-adv-x="269" 
d="M135 568q-35 0 -59.5 23t-24.5 57q0 35 24.5 58.5t59.5 23.5t59.5 -23.5t24.5 -58.5q0 -34 -24.5 -57t-59.5 -23zM205 479v-479h-139v479h139z" />
    <glyph glyph-name="germandbls.case" horiz-adv-x="1312" 
d="M335 695q47 0 90.5 -10.5t86.5 -34.5t71.5 -69.5t34.5 -108.5h-144q-15 100 -129 100q-53 0 -85 -22t-32 -61q0 -33 23.5 -50.5t71.5 -27.5l84 -17q104 -22 156 -66t52 -126q0 -98 -74 -157t-196 -59q-126 0 -208 63.5t-90 175.5h143q8 -52 51.5 -82t110.5 -30
q54 0 83.5 19t29.5 54q0 54 -86 70l-110 21q-195 39 -195 200q0 98 72 158t189 60zM976 695q47 0 91 -10.5t86.5 -34.5t71 -69.5t34.5 -108.5h-143q-15 100 -129 100q-54 0 -85.5 -22t-31.5 -61q0 -33 23 -51t72 -27l84 -17q104 -22 155.5 -66t51.5 -126q0 -98 -74 -157
t-196 -59q-126 0 -207.5 63.5t-89.5 175.5h143q8 -52 51 -82t111 -30q54 0 83 19t29 54q0 54 -85 70l-111 21q-194 39 -194 200q0 98 71.5 158t188.5 60z" />
    <glyph glyph-name="l.ss01" horiz-adv-x="379" 
d="M200 710v-538q0 -60 59 -60q28 0 74 13l18 -119q-71 -21 -117 -21q-83 0 -128 45.5t-45 129.5v550h139z" />
    <glyph glyph-name="lacute.ss01" horiz-adv-x="379" 
d="M292 940l-100 -154h-126l75 154h151zM200 710v-538q0 -60 59 -60q28 0 73 13l19 -119q-71 -21 -117 -21q-83 0 -128 45.5t-45 129.5v550h139z" />
    <glyph glyph-name="lcaron.ss01" horiz-adv-x="379" 
d="M200 710v-538q0 -60 59 -60q28 0 73 13l19 -119q-71 -21 -117 -21q-83 0 -128 45.5t-45 129.5v550h139zM404 710l-39 -204h-103l5 204h137z" />
    <glyph glyph-name="lcommaaccent.ss01" horiz-adv-x="379" 
d="M200 710v-538q0 -60 59 -60q28 0 73 13l19 -119q-71 -21 -117 -21q-83 0 -128 45.5t-45 129.5v550h139zM135 -257l38 78q-46 18 -46 63q0 29 23 50t54 21q32 0 54.5 -21t22.5 -50q0 -19 -8.5 -36.5t-44.5 -74.5q-12 -19 -19 -30h-74z" />
    <glyph glyph-name="ldot.ss01" horiz-adv-x="429" 
d="M200 710v-538q0 -60 59 -60q28 0 73 13l19 -119q-71 -21 -117 -21q-83 0 -128 45.5t-45 129.5v550h139zM324 255q-35 0 -59.5 23.5t-24.5 57.5t24.5 57t59.5 23t59 -23t24 -57t-24 -57.5t-59 -23.5z" />
    <glyph glyph-name="lslash.ss01" horiz-adv-x="379" 
d="M332 125l19 -119q-71 -21 -117 -21q-83 0 -128 45.5t-45 129.5v115l-61 -24v136l61 24v299h139v-244l62 25v-136l-62 -25v-158q0 -60 59 -60q28 0 73 13z" />
    <glyph glyph-name="y.ss04" horiz-adv-x="607" 
d="M546 479v-473q0 -111 -68.5 -175.5t-178.5 -64.5q-105 0 -174.5 57.5t-77.5 149.5h140q5 -38 34.5 -60.5t77.5 -22.5q47 0 77.5 30t30.5 85v60q-62 -49 -136 -49q-95 0 -152.5 63t-57.5 167v233h138v-220q0 -57 27 -87t77 -30q54 0 104 59v278h139z" />
    <glyph glyph-name="yacute.ss04" horiz-adv-x="607" 
d="M365 555h-126l75 154h151zM546 479v-473q0 -111 -68.5 -175.5t-178.5 -64.5q-105 0 -174.5 57.5t-77.5 149.5h140q5 -37 34.5 -60t76.5 -23q48 0 78.5 30t30.5 85v59q-62 -48 -136 -48q-95 0 -152.5 63t-57.5 167v233h139v-220q0 -57 27 -87t76 -30q55 0 104 58v279h139z
" />
    <glyph glyph-name="ycircumflex.ss04" horiz-adv-x="607" 
d="M247 546h-126l117 157h131l117 -157h-126l-56 71zM546 479v-473q0 -111 -68.5 -175.5t-178.5 -64.5q-105 0 -174.5 57.5t-77.5 149.5h140q5 -37 34.5 -60t76.5 -23q48 0 78.5 30t30.5 85v59q-62 -48 -136 -48q-95 0 -152.5 63t-57.5 167v233h139v-220q0 -57 27 -87
t76 -30q55 0 104 58v279h139z" />
    <glyph glyph-name="ydieresis.ss04" horiz-adv-x="607" 
d="M195 549q-35 0 -59.5 23.5t-24.5 57.5t24.5 57t59.5 23t59.5 -23t24.5 -57t-24.5 -57.5t-59.5 -23.5zM414 549q-35 0 -59.5 23.5t-24.5 57.5t24.5 57t59.5 23t59 -23t24 -57t-24 -57.5t-59 -23.5zM546 479v-473q0 -111 -68.5 -175.5t-178.5 -64.5q-105 0 -174.5 57.5
t-77.5 149.5h140q5 -37 34.5 -60t76.5 -23q48 0 78.5 30t30.5 85v59q-62 -48 -136 -48q-95 0 -152.5 63t-57.5 167v233h139v-220q0 -57 27 -87t76 -30q55 0 104 58v279h139z" />
    <glyph glyph-name="ygrave.ss04" horiz-adv-x="607" 
d="M251 555l-100 154h152l74 -154h-126zM546 479v-473q0 -111 -68.5 -175.5t-178.5 -64.5q-105 0 -174.5 57.5t-77.5 149.5h140q5 -37 34.5 -60t76.5 -23q48 0 78.5 30t30.5 85v59q-62 -48 -136 -48q-95 0 -152.5 63t-57.5 167v233h139v-220q0 -57 27 -87t76 -30
q55 0 104 58v279h139z" />
    <glyph glyph-name="a.ss06" horiz-adv-x="544" 
d="M270 494q99 0 159.5 -56t60.5 -152v-286h-134v23q-64 -32 -134 -32q-91 0 -141.5 41t-50.5 114q0 68 50 104t136 36h140q0 39 -21.5 65.5t-64.5 26.5q-35 0 -58 -16t-27 -45h-136q3 87 68 132t153 45zM241 102q61 0 115 35v52h-140q-55 0 -55 -39q0 -21 19.5 -34.5
t60.5 -13.5z" />
    <glyph glyph-name="aacute.ss06" horiz-adv-x="544" 
d="M334 555h-126l75 154h151zM270 494q100 0 160.5 -56t60.5 -152v-286h-135v23q-64 -32 -134 -32q-91 0 -141.5 41t-50.5 114q0 68 50 104t136 36h140q0 39 -21.5 65.5t-64.5 26.5q-34 0 -57 -16t-27 -45h-137q4 87 69 132t152 45zM241 102q61 0 115 35v52h-140
q-27 0 -40.5 -11t-13.5 -28q0 -48 79 -48z" />
    <glyph glyph-name="abreve.ss06" horiz-adv-x="544" 
d="M273 540q-73 0 -118 42.5t-45 119.5h100q0 -70 63 -70t63 70h100q0 -77 -45 -119.5t-118 -42.5zM270 494q100 0 160.5 -56t60.5 -152v-286h-135v23q-64 -32 -134 -32q-91 0 -141.5 41t-50.5 114q0 68 50 104t136 36h140q0 39 -21.5 65.5t-64.5 26.5q-34 0 -57 -16
t-27 -45h-137q4 87 69 132t152 45zM241 102q61 0 115 35v52h-140q-27 0 -40.5 -11t-13.5 -28q0 -48 79 -48z" />
    <glyph glyph-name="acaron.ss06" horiz-adv-x="544" 
d="M207 547l-118 156h127l57 -70l56 70h127l-118 -156h-131zM270 494q100 0 160.5 -56t60.5 -152v-286h-135v23q-64 -32 -134 -32q-91 0 -141.5 41t-50.5 114q0 68 50 104t136 36h140q0 39 -21.5 65.5t-64.5 26.5q-34 0 -57 -16t-27 -45h-137q4 87 69 132t152 45zM241 102
q61 0 115 35v52h-140q-27 0 -40.5 -11t-13.5 -28q0 -48 79 -48z" />
    <glyph glyph-name="acircumflex.ss06" horiz-adv-x="544" 
d="M216 546h-126l117 157h131l117 -157h-126l-56 71zM270 494q100 0 160.5 -56t60.5 -152v-286h-135v23q-64 -32 -134 -32q-91 0 -141.5 41t-50.5 114q0 68 50 104t136 36h140q0 39 -21.5 65.5t-64.5 26.5q-34 0 -57 -16t-27 -45h-137q4 87 69 132t152 45zM241 102
q61 0 115 35v52h-140q-27 0 -40.5 -11t-13.5 -28q0 -48 79 -48z" />
    <glyph glyph-name="adieresis.ss06" horiz-adv-x="544" 
d="M164 549q-35 0 -59.5 23.5t-24.5 57.5t24.5 57t59.5 23t59.5 -23t24.5 -57t-24.5 -57.5t-59.5 -23.5zM383 549q-35 0 -59.5 23.5t-24.5 57.5t24.5 57t59.5 23t59 -23t24 -57t-24 -57.5t-59 -23.5zM270 494q100 0 160.5 -56t60.5 -152v-286h-135v23q-64 -32 -134 -32
q-91 0 -141.5 41t-50.5 114q0 68 50 104t136 36h140q0 39 -21.5 65.5t-64.5 26.5q-34 0 -57 -16t-27 -45h-137q4 87 69 132t152 45zM241 102q61 0 115 35v52h-140q-27 0 -40.5 -11t-13.5 -28q0 -48 79 -48z" />
    <glyph glyph-name="agrave.ss06" horiz-adv-x="544" 
d="M221 555l-100 154h152l74 -154h-126zM270 494q100 0 160.5 -56t60.5 -152v-286h-135v23q-64 -32 -134 -32q-91 0 -141.5 41t-50.5 114q0 68 50 104t136 36h140q0 39 -21.5 65.5t-64.5 26.5q-34 0 -57 -16t-27 -45h-137q4 87 69 132t152 45zM241 102q61 0 115 35v52h-140
q-27 0 -40.5 -11t-13.5 -28q0 -48 79 -48z" />
    <glyph glyph-name="amacron.ss06" horiz-adv-x="544" 
d="M414 573h-282v111h282v-111zM270 494q100 0 160.5 -56t60.5 -152v-286h-135v23q-64 -32 -134 -32q-91 0 -141.5 41t-50.5 114q0 68 50 104t136 36h140q0 39 -21.5 65.5t-64.5 26.5q-34 0 -57 -16t-27 -45h-137q4 87 69 132t152 45zM241 102q61 0 115 35v52h-140
q-27 0 -40.5 -11t-13.5 -28q0 -48 79 -48z" />
    <glyph glyph-name="aogonek.ss06" horiz-adv-x="544" 
d="M524 -62l13 -102q-28 -13 -75 -13q-67 0 -109 32.5t-42 86.5q0 47 45 78v3q-64 -32 -134 -32q-91 0 -141.5 41t-50.5 114q0 68 50 104t136 36h140q0 39 -21.5 65.5t-64.5 26.5q-34 0 -57 -16t-27 -45h-137q4 87 69 132t152 45q100 0 160.5 -56t60.5 -152v-286h-2
q-63 -9 -63 -40q0 -28 54 -28q17 0 44 6zM241 102q61 0 115 35v52h-140q-27 0 -40.5 -11t-13.5 -28q0 -48 79 -48z" />
    <glyph glyph-name="aring.ss06" horiz-adv-x="544" 
d="M273 543q-53 0 -85.5 30t-32.5 80t32.5 80t85.5 30t85.5 -30t32.5 -80t-32.5 -80t-85.5 -30zM273 696q-19 0 -31 -12t-12 -31t12 -31t31 -12t31 12t12 31t-12 31t-31 12zM270 494q100 0 160.5 -56t60.5 -152v-286h-135v23q-64 -32 -134 -32q-91 0 -141.5 41t-50.5 114
q0 68 50 104t136 36h140q0 39 -21.5 65.5t-64.5 26.5q-34 0 -57 -16t-27 -45h-137q4 87 69 132t152 45zM241 102q61 0 115 35v52h-140q-27 0 -40.5 -11t-13.5 -28q0 -48 79 -48z" />
    <glyph glyph-name="atilde.ss06" horiz-adv-x="544" 
d="M284 571l-46 27q-25 11 -33.5 3t-8.5 -27h-108q0 47 18 80t45.5 46t57.5 12.5t56 -14.5l46 -28q16 -10 25.5 -6.5t13 11.5t3.5 19h108q0 -47 -18 -80t-45.5 -46t-57.5 -12.5t-56 15.5zM270 494q100 0 160.5 -56t60.5 -152v-286h-135v23q-64 -32 -134 -32q-91 0 -141.5 41
t-50.5 114q0 68 50 104t136 36h140q0 39 -21.5 65.5t-64.5 26.5q-34 0 -57 -16t-27 -45h-137q4 87 69 132t152 45zM241 102q61 0 115 35v52h-140q-27 0 -40.5 -11t-13.5 -28q0 -48 79 -48z" />
    <glyph glyph-name="zero.osf" horiz-adv-x="645" 
d="M323 555q124 0 203.5 -78.5t79.5 -204.5q0 -127 -79 -205.5t-204 -78.5q-124 0 -204.5 79t-80.5 205t80.5 204.5t204.5 78.5zM323 113q63 0 105.5 44.5t42.5 114.5q0 69 -42.5 113.5t-105.5 44.5t-106.5 -44.5t-43.5 -113.5q0 -70 43.5 -114.5t106.5 -44.5z" />
    <glyph glyph-name="one.osf" horiz-adv-x="522" 
d="M517 118v-118h-478v118h173v278l-165 -49v123l224 79h83v-431h163z" />
    <glyph glyph-name="two.osf" horiz-adv-x="564" 
d="M516 118v-118h-465v74l141 102q9 6 34 24t35.5 26t30.5 23.5t29.5 25.5t21.5 23.5t16.5 25.5t4.5 24q0 32 -22 54.5t-68 22.5t-73 -26.5t-29 -73.5h-139q2 102 64.5 163.5t172.5 61.5t173.5 -59t63.5 -144q0 -37 -14 -68.5t-44.5 -60.5t-59.5 -49.5t-78 -50.5h205z" />
    <glyph glyph-name="three.osf" horiz-adv-x="565" 
d="M440 203q91 -47 91 -150q0 -90 -67 -149t-175 -59q-112 0 -174.5 54t-76.5 151h139q12 -42 36.5 -63t77.5 -21q47 0 76.5 24.5t29.5 62.5q0 40 -33 64t-86 24h-54v113h54q44 0 71 24.5t27 63.5q0 40 -24.5 64t-64.5 24q-39 0 -65 -23t-31 -61h-138q7 92 70.5 148.5
t161.5 56.5q100 0 162 -57.5t62 -148.5q0 -93 -69 -142z" />
    <glyph glyph-name="four.osf" horiz-adv-x="642" 
d="M604 0h-88v-131h-138v131h-348v89l190 460h144l-170 -427h184v194h138v-194h88v-122z" />
    <glyph glyph-name="five.osf" horiz-adv-x="597" 
d="M221 302h86q107 0 173 -62t66 -158q0 -102 -69.5 -168t-179.5 -66q-109 0 -176.5 55t-81.5 150h139q25 -84 119 -84q51 0 83 31t32 78q0 46 -33.5 74.5t-90.5 28.5h-199v362h428v-127h-296v-114z" />
    <glyph glyph-name="six.osf" horiz-adv-x="620" 
d="M450 680l-133 -211q113 -2 186 -70t73 -168q0 -105 -75.5 -175.5t-191.5 -70.5t-191 70.5t-75 171.5q0 71 62 171l178 282h167zM309 100q56 0 92.5 37t36.5 87t-36.5 86t-92.5 36q-48 0 -86 -25l-1 -2q-42 -59 -42 -97q0 -49 37 -85.5t92 -36.5z" />
    <glyph glyph-name="seven.osf" horiz-adv-x="509" 
d="M490 540v-85l-270 -595h-159l252 547h-303v133h480z" />
    <glyph glyph-name="eight.osf" horiz-adv-x="626" 
d="M476 359q107 -53 107 -166q0 -93 -73 -150.5t-197 -57.5t-197 57.5t-73 150.5q0 54 28 97t79 69q-80 50 -80 141q0 86 67.5 140.5t174.5 54.5t175 -54.5t68 -140.5q0 -92 -79 -141zM312 585q-46 0 -75 -26.5t-29 -66.5t29 -67t75 -27t76 27.5t30 66.5q0 40 -29.5 66.5
t-76.5 26.5zM313 102q49 0 82 29.5t33 71.5q0 41 -32.5 69.5t-82.5 28.5t-82.5 -28t-32.5 -70q0 -43 32.5 -72t82.5 -29z" />
    <glyph glyph-name="nine.osf" horiz-adv-x="620" 
d="M310 559q116 0 191.5 -70.5t75.5 -171.5q0 -71 -62 -171l-178 -282h-167l133 211q-114 2 -187 70t-73 168q0 105 75.5 175.5t191.5 70.5zM397 224l1 1q41 57 41 97q0 49 -37 85.5t-92 36.5t-91.5 -37t-36.5 -87q0 -49 36 -85t92 -36q51 0 87 25z" />
    <glyph glyph-name="zero.tf" horiz-adv-x="643" 
d="M319 695q142 0 220 -98.5t78 -256.5t-78 -256.5t-220 -98.5t-221 98.5t-79 256.5t79 256.5t221 98.5zM319 114q78 0 116.5 62.5t38.5 163.5t-38.5 163.5t-116.5 62.5q-80 0 -118.5 -62.5t-38.5 -163.5t38.5 -163.5t118.5 -62.5z" />
    <glyph glyph-name="one.tf" horiz-adv-x="643" 
d="M589 118v-118h-520v118h201v409l-165 -49v123l224 79h83v-562h177z" />
    <glyph glyph-name="two.tf" horiz-adv-x="643" 
d="M546 118v-118h-465v73l207 253q12 15 33 40t31 37t21.5 29t16 30.5t4.5 27.5q0 32 -22 56t-68 24q-43 0 -69 -26t-31 -73h-141q2 102 64.5 163t172.5 61t174.5 -59.5t64.5 -145.5q0 -47 -27.5 -90.5t-104.5 -135.5l-120 -146h259z" />
    <glyph glyph-name="three.tf" horiz-adv-x="643" 
d="M472 343q91 -47 91 -150q0 -90 -67.5 -149t-174.5 -59q-112 0 -174.5 54t-76.5 151h139q12 -42 36.5 -63t77.5 -21q47 0 76.5 24.5t29.5 62.5q0 40 -33 64t-86 24h-54v113h54q44 0 71 24.5t27 63.5q0 40 -24.5 64t-64.5 24q-39 0 -65 -23t-31 -61h-138q7 92 70.5 148.5
t161.5 56.5q100 0 162 -57.5t62 -148.5q0 -93 -69 -142z" />
    <glyph glyph-name="four.tf" horiz-adv-x="643" 
d="M586 131h-88v-131h-138v131h-348v89l190 460h144l-170 -427h184v194h138v-194h88v-122z" />
    <glyph glyph-name="five.tf" horiz-adv-x="643" 
d="M223 439h86q107 0 173 -62t66 -158q0 -102 -69.5 -168t-179.5 -66q-109 0 -176.5 55t-81.5 150h139q25 -84 119 -84q51 0 83 31t32 78q0 46 -33.5 74.5t-90.5 28.5h-199v362h428v-127h-296v-114z" />
    <glyph glyph-name="six.tf" horiz-adv-x="643" 
d="M458 680l-133 -211q114 -2 187 -70t73 -168q0 -105 -75.5 -175.5t-191.5 -70.5t-191.5 70.5t-75.5 171.5q0 71 62 171l179 282h166zM318 100q55 0 91.5 37t36.5 87t-36 86t-92 36q-50 0 -87 -26l-1 -1q-41 -57 -41 -97q0 -49 37 -85.5t92 -36.5z" />
    <glyph glyph-name="seven.tf" horiz-adv-x="643" 
d="M562 680v-85l-271 -595h-158l251 547h-302v133h480z" />
    <glyph glyph-name="eight.tf" horiz-adv-x="643" 
d="M491 359q108 -53 108 -166q0 -93 -73 -150.5t-198 -57.5q-124 0 -196.5 57.5t-72.5 150.5q0 113 107 166q-80 50 -80 141q0 86 67.5 140.5t174.5 54.5t175 -54.5t68 -140.5q0 -92 -80 -141zM328 585q-46 0 -75 -26.5t-29 -66.5t29 -67t75 -27t75.5 27.5t29.5 66.5
q0 40 -29 66.5t-76 26.5zM328 102q50 0 83 29.5t33 71.5q0 41 -33 69.5t-83 28.5t-82.5 -28t-32.5 -70q0 -43 32.5 -72t82.5 -29z" />
    <glyph glyph-name="nine.tf" horiz-adv-x="606" 
d="M298 695q116 0 191.5 -70.5t75.5 -171.5q0 -71 -62 -171l-178 -282h-167l133 211q-114 2 -187 70t-73 168q0 105 75.5 175.5t191.5 70.5zM385 360l1 1q41 57 41 97q0 49 -37 85.5t-92 36.5t-91.5 -37t-36.5 -87q0 -49 36 -85t92 -36q51 0 87 25z" />
    <glyph glyph-name="zero.zero" horiz-adv-x="719" 
d="M360 695q143 0 225.5 -99t82.5 -256t-82.5 -256t-225.5 -99t-226 99.5t-83 255.5t83 255.5t226 99.5zM360 566q-80 0 -123 -63.5t-43 -162.5q0 -58 15 -104l218 315q-29 15 -67 15zM360 114q80 0 123 63.5t43 162.5q0 61 -16 108l-220 -318q32 -16 70 -16z" />
    <glyph glyph-name="zero.osf.zero" horiz-adv-x="645" 
d="M323 555q124 0 203.5 -78.5t79.5 -204.5q0 -127 -79.5 -205.5t-203.5 -78.5q-125 0 -205 78.5t-80 205.5q0 126 80 204.5t205 78.5zM323 430q-64 0 -107 -44t-43 -114q0 -37 12 -67l205 209q-32 16 -67 16zM323 113q62 0 105 44.5t43 114.5q0 35 -12 65l-205 -208
q34 -16 69 -16z" />
    <glyph glyph-name="zero.dnom" horiz-adv-x="453" 
d="M226 419q92 0 145 -60t53 -154t-53 -154t-145 -60q-91 0 -144 60.5t-53 153.5t53 153.5t144 60.5zM226 85q46 0 70 34t24 86t-24 86t-70 34t-70 -34t-24 -86t24 -86t70 -34z" />
    <glyph glyph-name="one.dnom" horiz-adv-x="340" 
d="M335 85v-85h-306v85h106v216l-102 -29v89l143 48h56v-324h103z" />
    <glyph glyph-name="two.dnom" horiz-adv-x="369" 
d="M340 85v-85h-304v53l145 157q29 30 39.5 46.5t10.5 32.5q0 17 -12 27.5t-32 10.5q-50 0 -52 -51h-101q1 65 40.5 103.5t110.5 38.5q70 0 110 -35.5t40 -86.5q0 -56 -68 -133l-69 -78h142z" />
    <glyph glyph-name="three.dnom" horiz-adv-x="382" 
d="M296 206q52 -28 52 -87q0 -55 -43 -92t-112 -37q-68 0 -109.5 34.5t-51.5 95.5h101q14 -42 61 -42q25 0 40.5 11.5t15.5 29.5q0 42 -68 42h-32v81h32q25 0 40 12.5t15 31.5t-12 30t-35 11q-21 0 -33 -12t-14 -30h-101q5 60 44 95t103 35q66 0 105 -36t39 -92
q0 -52 -37 -81z" />
    <glyph glyph-name="four.dnom" horiz-adv-x="419" 
d="M389 74h-51v-74h-100v74h-213v65l115 270h105l-101 -246h94v106h100v-106h51v-89z" />
    <glyph glyph-name="five.dnom" horiz-adv-x="396" 
d="M159 268h43q73 0 111.5 -37t38.5 -98q0 -62 -43.5 -102t-113.5 -40q-68 0 -110.5 34t-50.5 91h101q15 -37 61 -37q27 0 43.5 15t16.5 37q0 51 -58 51h-134v227h272v-92h-177v-49z" />
    <glyph glyph-name="six.dnom" horiz-adv-x="392" 
d="M292 409l-79 -125q67 -4 108 -44.5t41 -99.5q0 -63 -46 -106t-119 -43t-120.5 43.5t-47.5 103.5q0 42 41 107l102 164h120zM197 74q28 0 46.5 17.5t18.5 43.5q0 28 -18.5 45.5t-47.5 17.5q-28 0 -48 -17q-19 -29 -19 -44q0 -26 19 -44.5t49 -18.5z" />
    <glyph glyph-name="seven.dnom" horiz-adv-x="343" 
d="M324 409v-62l-162 -347h-115l146 312h-174v97h305z" />
    <glyph glyph-name="eight.dnom" horiz-adv-x="413" 
d="M315 216q60 -34 60 -99q0 -56 -45.5 -91t-123.5 -35q-77 0 -122.5 35t-45.5 91q0 66 60 99q-44 30 -44 82q0 54 42.5 87t109.5 33q68 0 110 -33t42 -87q0 -53 -43 -82zM206 338q-22 0 -37 -12.5t-15 -33.5q0 -22 15 -35.5t37 -13.5t37 13.5t15 35.5q0 21 -15 33.5
t-37 12.5zM206 76q25 0 40.5 13t15.5 35t-15.5 35.5t-40.5 13.5t-40.5 -13.5t-15.5 -35.5t15.5 -35t40.5 -13z" />
    <glyph glyph-name="nine.dnom" horiz-adv-x="392" 
d="M195 419q72 0 119.5 -43.5t47.5 -102.5q0 -43 -41 -108l-102 -164h-120l79 125q-67 4 -108 44.5t-41 99.5q0 63 46 106t120 43zM195 212q28 0 48 17q19 29 19 44q0 26 -19 44.5t-48 18.5q-28 0 -47 -17.5t-19 -43.5q0 -28 18.5 -45.5t47.5 -17.5z" />
    <glyph glyph-name="zero.numr" horiz-adv-x="453" 
d="M226 690q92 0 145 -60t53 -154t-53 -154t-145 -60q-91 0 -144 60.5t-53 153.5t53 153.5t144 60.5zM226 356q46 0 70 34t24 86t-24 86t-70 34t-70 -34t-24 -86t24 -86t70 -34z" />
    <glyph glyph-name="one.numr" horiz-adv-x="340" 
d="M335 356v-85h-306v85h106v216l-102 -29v89l143 48h56v-324h103z" />
    <glyph glyph-name="two.numr" horiz-adv-x="369" 
d="M340 356v-85h-304v53l145 157q29 30 39.5 46.5t10.5 32.5q0 17 -12 27.5t-32 10.5q-50 0 -52 -51h-101q1 65 40.5 103.5t110.5 38.5q70 0 110 -35.5t40 -86.5q0 -56 -68 -133l-69 -78h142z" />
    <glyph glyph-name="three.numr" horiz-adv-x="382" 
d="M296 481q52 -28 52 -87q0 -55 -43 -92t-112 -37q-68 0 -109.5 34.5t-51.5 95.5h101q14 -42 61 -42q25 0 40.5 11.5t15.5 29.5q0 42 -68 42h-32v81h32q25 0 40 12.5t15 31.5t-12 30t-35 11q-21 0 -33 -12t-14 -30h-101q5 60 44 95t103 35q66 0 105 -36t39 -92
q0 -52 -37 -81z" />
    <glyph glyph-name="four.numr" horiz-adv-x="419" 
d="M389 345h-51v-74h-100v74h-213v65l115 270h105l-101 -246h94v106h100v-106h51v-89z" />
    <glyph glyph-name="five.numr" horiz-adv-x="396" 
d="M159 539h43q73 0 111.5 -37t38.5 -98q0 -62 -43.5 -102t-113.5 -40q-68 0 -110.5 34t-50.5 91h101q15 -37 61 -37q27 0 43.5 15t16.5 37q0 51 -58 51h-134v227h272v-92h-177v-49z" />
    <glyph glyph-name="six.numr" horiz-adv-x="392" 
d="M292 680l-79 -125q67 -4 108 -44.5t41 -99.5q0 -63 -46 -106t-119 -43t-120.5 43.5t-47.5 103.5q0 42 41 107l102 164h120zM197 345q28 0 46.5 17.5t18.5 43.5q0 28 -18.5 45.5t-47.5 17.5q-28 0 -48 -17q-19 -28 -19 -44q0 -26 19 -44.5t49 -18.5z" />
    <glyph glyph-name="seven.numr" horiz-adv-x="343" 
d="M324 680v-62l-162 -347h-115l146 312h-174v97h305z" />
    <glyph glyph-name="eight.numr" horiz-adv-x="413" 
d="M315 491q60 -34 60 -99q0 -56 -45.5 -91t-123.5 -35q-77 0 -122.5 35t-45.5 91q0 66 60 99q-44 30 -44 82q0 54 42.5 87t109.5 33q68 0 110 -33t42 -87q0 -53 -43 -82zM206 614q-22 0 -37 -13t-15 -34q0 -22 15 -35.5t37 -13.5t37 13.5t15 35.5q0 21 -15 34t-37 13z
M206 351q25 0 40.5 13t15.5 35t-15.5 35.5t-40.5 13.5t-40.5 -13.5t-15.5 -35.5t15.5 -35t40.5 -13z" />
    <glyph glyph-name="nine.numr" horiz-adv-x="392" 
d="M195 694q72 0 119.5 -43.5t47.5 -102.5q0 -43 -41 -108l-102 -164h-120l79 125q-67 4 -108 44.5t-41 99.5q0 63 46 106t120 43zM195 487q28 0 48 17q19 28 19 44q0 26 -19 44.5t-48 18.5q-28 0 -47 -17.5t-19 -43.5q0 -28 18.5 -45.5t47.5 -17.5z" />
    <glyph glyph-name="backslash.case" horiz-adv-x="380" 
d="M10 730h142l219 -777h-143z" />
    <glyph glyph-name="bullet.case" horiz-adv-x="341" 
d="M170 192q-56 0 -98.5 42t-42.5 98t42.5 98t98.5 42q57 0 99.5 -42t42.5 -98t-42.5 -98t-99.5 -42z" />
    <glyph glyph-name="exclamdown.case" horiz-adv-x="287" 
d="M143 689q34 0 58 -22.5t24 -55.5t-24 -55.5t-58 -22.5q-33 0 -57 22.5t-24 55.5t24 55.5t57 22.5zM70 0l12 461h122l12 -461h-146z" />
    <glyph glyph-name="periodcentered.case" horiz-adv-x="223" 
d="M111 252q-34 0 -58 23t-24 57q0 33 24 55.5t58 22.5q35 0 59 -22.5t24 -55.5q0 -34 -24 -57t-59 -23z" />
    <glyph glyph-name="questiondown.case" horiz-adv-x="527" 
d="M294 689q34 0 57.5 -22.5t23.5 -55.5t-23.5 -55.5t-57.5 -22.5t-58 22.5t-24 55.5t24 55.5t58 22.5zM345 466l10 -161h-75q-47 0 -78 -26.5t-31 -71.5q0 -44 27 -70.5t71 -26.5q41 0 68.5 23t31.5 61h139q-7 -94 -67.5 -149.5t-165.5 -55.5q-102 0 -169 60.5t-67 156.5
q0 82 51.5 132t141.5 61l6 67h107z" />
    <glyph glyph-name="slash.case" horiz-adv-x="380" 
d="M37 -47l219 777h142l-218 -777h-143z" />
    <glyph glyph-name="braceleft.case" horiz-adv-x="357" 
d="M249 553v-101q0 -46 -15.5 -70t-60.5 -38q45 -14 60.5 -38t15.5 -71v-101q0 -26 21.5 -41.5t57.5 -15.5v-134q-98 0 -158 52t-60 137v97q0 20 -3.5 31.5t-16 16.5t-23.5 6t-38 1v119q49 0 65 8.5t16 46.5v97q0 86 59.5 137.5t158.5 51.5v-134q-36 0 -57.5 -15.5
t-21.5 -41.5z" />
    <glyph glyph-name="braceright.case" horiz-adv-x="371" 
d="M122 452v101q0 26 -21.5 41.5t-57.5 15.5v134q98 0 158 -51.5t60 -137.5v-97q0 -38 15.5 -46.5t64.5 -8.5v-119q-27 0 -38 -1t-23 -6t-15.5 -16.5t-3.5 -31.5v-97q0 -85 -60 -137t-158 -52v134q36 0 57.5 15.5t21.5 41.5v101q0 47 15.5 71t59.5 38q-44 14 -59.5 38
t-15.5 70z" />
    <glyph glyph-name="bracketleft.case" horiz-adv-x="382" 
d="M206 87h147v-132h-286v775h286v-132h-147v-511z" />
    <glyph glyph-name="bracketright.case" horiz-adv-x="382" 
d="M29 598v132h286v-775h-286v132h147v511h-147z" />
    <glyph glyph-name="parenleft.case" horiz-adv-x="358" 
d="M246 736l92 -90q-79 -84 -109.5 -144.5t-30.5 -151.5q0 -92 30.5 -152.5t109.5 -144.5l-92 -90q-102 93 -148.5 182.5t-46.5 204.5t46.5 204.5t148.5 181.5z" />
    <glyph glyph-name="parenright.case" horiz-adv-x="358" 
d="M20 646l91 90q103 -92 149.5 -181.5t46.5 -204.5t-46.5 -204.5t-149.5 -182.5l-91 90q79 84 109.5 144.5t30.5 152.5q0 91 -30.5 151.5t-109.5 144.5z" />
    <glyph glyph-name="emdash.case" horiz-adv-x="1056" 
d="M957 399v-137h-858v137h858z" />
    <glyph glyph-name="endash.case" horiz-adv-x="695" 
d="M596 399v-137h-497v137h497z" />
    <glyph glyph-name="hyphen.case" horiz-adv-x="550" 
d="M451 398v-137h-352v137h352z" />
    <glyph glyph-name="guillemotleft.case" horiz-adv-x="465" 
d="M248 487l-93 -156l93 -155h-131l-93 155l93 156h131zM441 487l-93 -156l93 -155h-131l-93 155l93 156h131z" />
    <glyph glyph-name="guillemotright.case" horiz-adv-x="465" 
d="M247 331l-92 -155h-131l93 155l-93 156h131zM441 331l-93 -155h-130l92 155l-92 156h130z" />
    <glyph glyph-name="guilsinglleft.case" horiz-adv-x="272" 
d="M248 487l-93 -156l93 -155h-131l-93 155l93 156h131z" />
    <glyph glyph-name="guilsinglright.case" horiz-adv-x="272" 
d="M247 331l-92 -155h-131l93 155l-93 156h131z" />
    <glyph glyph-name="florin.tf" horiz-adv-x="643" 
d="M506 557q-82 0 -93 -88l-12 -90h164v-115h-180l-22 -164q-14 -101 -67 -158.5t-141 -57.5q-58 0 -118 16l19 121q36 -9 71 -9q82 0 93 88l22 164h-128v115h144l12 90q13 101 66 158.5t142 57.5q60 0 118 -17l-19 -120q-43 9 -71 9z" />
    <glyph glyph-name="cent.tf" horiz-adv-x="643" 
d="M318 113q40 0 67 20t35 55h138q-9 -73 -57.5 -124t-120.5 -68v-102h-121v101q-88 19 -143 86t-55 158q0 92 55 159t143 85v118h121v-119q72 -17 120.5 -68t57.5 -124h-138q-8 35 -35 55.5t-67 20.5q-54 0 -87 -36t-33 -91q0 -54 33 -90t87 -36z" />
    <glyph glyph-name="dollar.tf" horiz-adv-x="643" 
d="M313 411l84 -17q104 -22 156 -66t52 -126q0 -84 -55.5 -140.5t-152.5 -71.5v-105h-121v105q-103 15 -167.5 76t-71.5 159h143q8 -52 51.5 -82t110.5 -30q54 0 83.5 19t29.5 54q0 54 -86 70l-110 21q-195 39 -195 200q0 87 57.5 145t154.5 70v107h121v-110
q84 -15 142.5 -67t68.5 -150h-144q-15 100 -129 100q-53 0 -85 -22t-32 -61q0 -33 23.5 -50.5t71.5 -27.5z" />
    <glyph glyph-name="Euro.tf" horiz-adv-x="643" 
d="M361 114q67 0 94 41h165q-28 -79 -96 -124.5t-163 -45.5q-111 0 -186.5 60.5t-105.5 165.5h-59v91h43q-1 12 -1 38v19h-42v91h54q26 112 103.5 178.5t193.5 66.5q100 0 170 -50.5t97 -137.5h-158q-27 59 -109 59q-55 0 -93 -31t-56 -85h249l-24 -91h-242v-19q0 -14 2 -38
h227l-23 -91h-182q43 -97 142 -97z" />
    <glyph glyph-name="sterling.tf" horiz-adv-x="643" 
d="M246 120h347v-120h-544v120h58v153h-58v117h58v62q0 109 69 175.5t182 66.5q103 0 170.5 -56.5t78.5 -152.5h-141q-8 41 -36.5 64t-71.5 23q-51 0 -81.5 -32.5t-30.5 -87.5v-62h191v-117h-191v-153z" />
    <glyph glyph-name="yen.tf" horiz-adv-x="643" 
d="M437 305h132v-97h-175v-45h175v-97h-175v-66h-146v66h-176v97h176v45h-176v97h133l-186 375h160l142 -303l141 303h160z" />
    <glyph glyph-name="arrowdown.ss05" horiz-adv-x="705" 
d="M437 215l-84 -84l-84 84l-182 184l83 84l183 -184l181 182l84 -83z" />
    <glyph glyph-name="arrowleft.ss05" horiz-adv-x="705" 
d="M534 132l-181 182l-183 -184l-83 84l182 184l84 84l84 -84l181 -183z" />
    <glyph glyph-name="arrowright.ss05" horiz-adv-x="569" 
d="M264 334l183 -181l-84 -84l-183 181l-83 84l83 84l1 -1l184 183l83 -83z" />
    <glyph glyph-name="arrowup.ss05" horiz-adv-x="569" 
d="M388 250l-182 -181l-84 84l182 181l-184 183l84 83l184 -182l84 -84z" />
    <glyph glyph-name="at.case" horiz-adv-x="998" 
d="M710 511v-234q0 -82 56 -82q76 0 76 125q0 143 -95 235t-240 92q-147 0 -248.5 -97.5t-101.5 -238.5t100.5 -238t242.5 -97q122 0 215 72l54 -81q-117 -85 -268 -85q-185 0 -314 123t-129 306t130 306.5t318 123.5q187 0 310 -118t123 -301q0 -103 -42.5 -164t-131.5 -61
q-105 0 -146 66q-58 -64 -149 -64q-87 0 -145 60.5t-58 149.5q0 90 58 150.5t145 60.5q67 0 118 -37v28h122zM491 205q63 0 99 56q-2 30 -2 47v53q-38 54 -97 54q-40 0 -71 -29t-31 -76q0 -48 31 -76.5t71 -28.5z" />
    <glyph glyph-name="bar.case" horiz-adv-x="324" 
d="M226 730v-777h-128v777h128z" />
    <glyph glyph-name="brokenbar.case" horiz-adv-x="324" 
d="M226 392h-128v338h128v-338zM226 -47h-128v337h128v-337z" />
    <glyph glyph-name="registered.ss07" horiz-adv-x="829" 
d="M415 695q150 0 257 -102t107 -253t-107 -253t-257 -102t-257 102t-107 253t107 253t257 102zM414 72q111 0 192 78t81 190t-81 190t-192 78t-191.5 -78t-80.5 -190t80.5 -190t191.5 -78zM559 393q0 -65 -56 -94l68 -103h-100l-52 87h-45v-87h-80v310h136q58 0 93.5 -31
t35.5 -82zM374 354h55q46 0 46 40q0 17 -12 27.5t-34 10.5h-55v-78z" />
    <glyph glyph-name="caron.alt" 
d="M377 680l-39 -204h-103l5 204h137z" />
    <glyph glyph-name="acute.case" 
d="M450 869l-100 -154h-126l75 154h151z" />
    <glyph glyph-name="breve.case" 
d="M363 878h100q0 -77 -45 -119.5t-118 -42.5t-118 42.5t-45 119.5h100q0 -70 63 -70t63 70z" />
    <glyph glyph-name="caron.case" 
d="M484 863l-118 -156h-131l-118 156h127l57 -70l56 70h127z" />
    <glyph glyph-name="circumflex.case" 
d="M301 778l-57 -71h-126l117 157h131l117 -157h-126z" />
    <glyph glyph-name="dieresis.case" 
d="M191 890q35 0 59.5 -23t24.5 -57t-24.5 -57.5t-59.5 -23.5t-59.5 23.5t-24.5 57.5t24.5 57t59.5 23zM410 890q35 0 59 -23t24 -57t-24 -57.5t-59 -23.5t-59.5 23.5t-24.5 57.5t24.5 57t59.5 23z" />
    <glyph glyph-name="dotaccent.case" 
d="M300 728q-35 0 -59.5 23t-24.5 57t24.5 57.5t59.5 23.5t59.5 -23.5t24.5 -57.5t-24.5 -57t-59.5 -23z" />
    <glyph glyph-name="grave.case" 
d="M406 715h-126l-100 154h151z" />
    <glyph glyph-name="hungarumlaut.case" 
d="M354 869l-79 -153h-112l53 153h138zM507 869l-78 -153h-112l53 153h137z" />
    <glyph glyph-name="macron.case" 
d="M441 844v-111h-282v111h282z" />
    <glyph glyph-name="ring.case" 
d="M297 942q53 0 85.5 -30t32.5 -80t-32.5 -80.5t-85.5 -30.5t-85.5 30.5t-32.5 80.5t32.5 80t85.5 30zM297 789q19 0 31 11.5t12 31.5q0 19 -12 30.5t-31 11.5t-31 -11.5t-12 -30.5q0 -20 12 -31.5t31 -11.5z" />
    <glyph glyph-name="tilde.case" 
d="M381 854h108q0 -47 -18 -80t-45.5 -46t-57.5 -12.5t-56 15.5l-46 27q-25 11 -33.5 3t-8.5 -27h-108q0 47 18 80t45.5 46t57.5 12.5t56 -14.5l46 -28q16 -10 25.5 -6.5t13 11.5t3.5 19z" />
    </font>
</defs>
</svg>
