<?xml version="1.0" standalone="no"?>
<!DOCTYPE svg PUBLIC "-//W3C//DTD SVG 1.1//EN" "http://www.w3.org/Graphics/SVG/1.1/DTD/svg11.dtd" >
<svg xmlns="http://www.w3.org/2000/svg" xmlns:xlink="http://www.w3.org/1999/xlink" version="1.1">
<metadata>
Created by FontForge 20170731 at Wed Feb 19 04:58:30 2014
 By Aleksey,,,
Copyright (c) 2014 by Rene' Bieder. All rights reserved.
</metadata>
<defs>
<font id="Campton-SemiBoldItalic" horiz-adv-x="600" >
  <font-face 
    font-family="Campton SemiBold"
    font-weight="625"
    font-style="italic"
    font-stretch="normal"
    units-per-em="1000"
    panose-1="0 0 7 0 0 0 0 0 0 0"
    ascent="800"
    descent="-200"
    x-height="479"
    cap-height="680"
    bbox="-88 -256 1502 976"
    underline-thickness="50"
    underline-position="-200"
    slope="-10"
    unicode-range="U+0020-FB02"
  />
<missing-glyph horiz-adv-x="870" 
d="M770 680v-680h-670v680h670zM700 610h-481l481 -481v481zM170 70h477l-477 477v-477z" />
    <glyph glyph-name="fi" unicode="fi" horiz-adv-x="721" 
d="M697 479l-85 -479h-139l64 362h-245l-64 -362h-139l64 362h-129l21 117h128l12 68q18 97 85 156.5t159 59.5q80 0 207 -43l-40 -120q-108 35 -162 35q-43 0 -73 -24.5t-37 -65.5l-12 -66h385z" />
    <glyph glyph-name="fl" unicode="fl" horiz-adv-x="713" 
d="M453 362h-161l-64 -362h-139l64 362h-129l21 117h128l12 68q17 97 84 156.5t158 59.5q55 0 115 -17l-40 -119q-41 9 -68 9q-43 0 -73 -24.5t-37 -65.5l-12 -67h162zM735 710l-126 -710h-139l127 710h138z" />
    <glyph glyph-name=".notdef" horiz-adv-x="870" 
d="M770 680v-680h-670v680h670zM700 610h-481l481 -481v481zM170 70h477l-477 477v-477z" />
    <glyph glyph-name=".null" horiz-adv-x="0" 
 />
    <glyph glyph-name="nonmarkingreturn" horiz-adv-x="333" 
 />
    <glyph glyph-name="space" unicode=" " horiz-adv-x="259" 
 />
    <glyph glyph-name="exclam" unicode="!" horiz-adv-x="289" 
d="M203 219h-122l69 461h146zM113 -10q-33 0 -57 23t-24 56t24 55.5t57 22.5q34 0 58 -22.5t24 -55.5t-24 -56t-58 -23z" />
    <glyph glyph-name="quotedbl" unicode="&#x22;" horiz-adv-x="343" 
d="M226 680l-50 -283h-116l50 283h116zM385 680l-50 -283h-116l50 283h116z" />
    <glyph glyph-name="numbersign" unicode="#" horiz-adv-x="776" 
d="M584 282h109l-22 -123h-148l-77 -159h-141l77 159h-139l-77 -159h-141l77 159h-93l22 123h132l48 98h-107l22 123h145l87 178h141l-87 -178h138l88 178h141l-88 -178h97l-22 -123h-135zM352 380l-48 -98h139l47 98h-138z" />
    <glyph glyph-name="dollar" unicode="$" horiz-adv-x="671" 
d="M655 472h-144q2 47 -25 73.5t-86 26.5q-60 0 -96.5 -25t-36.5 -69q0 -50 83 -67l81 -17q88 -20 133 -57.5t45 -103.5q0 -102 -76 -169t-199 -77l-18 -102h-121l19 109q-88 20 -134.5 80t-38.5 151h144q-1 -58 33.5 -85t108.5 -27q59 0 92.5 22t33.5 60q0 47 -74 61
l-107 21q-170 35 -163 184q5 94 68.5 152t159.5 75l19 111h121l-19 -107q42 -5 76.5 -18.5t65 -38t45.5 -66.5t10 -97z" />
    <glyph glyph-name="percent" unicode="%" horiz-adv-x="1091" 
d="M330 695q76 0 123 -45.5t47 -119.5q0 -98 -71 -163.5t-169 -65.5q-76 0 -122.5 45.5t-46.5 120.5q0 98 70.5 163t168.5 65zM366 0h-96l463 680h95zM278 397q47 0 82.5 33.5t35.5 84.5q0 38 -23.5 61t-59.5 23q-48 0 -84 -33.5t-36 -83.5q0 -38 24 -61.5t61 -23.5z
M851 379q76 0 123 -45.5t47 -119.5q0 -98 -71 -163.5t-169 -65.5q-75 0 -122 45.5t-47 120.5q0 98 70.5 163t168.5 65zM799 81q47 0 83 33.5t36 84.5q0 38 -23.5 61t-60.5 23q-47 0 -83 -33.5t-36 -83.5q0 -39 23.5 -62t60.5 -23z" />
    <glyph glyph-name="ampersand" unicode="&#x26;" horiz-adv-x="727" 
d="M559 154l-10 -12l123 -142h-181l-44 49q-94 -64 -206 -64q-103 0 -162.5 50t-59.5 132q0 70 41 125.5t110 87.5q-26 50 -26 93q0 93 75.5 157.5t180.5 64.5q93 0 140.5 -56t41.5 -149h-137q2 39 -15.5 61t-49.5 22q-38 0 -64.5 -25t-26.5 -64q0 -30 21 -62t72 -89
l92 -105l104 130h144zM264 106q51 0 106 30l-112 127l-24 28q-78 -38 -78 -100q0 -36 30.5 -60.5t77.5 -24.5z" />
    <glyph glyph-name="quotesingle" unicode="'" horiz-adv-x="184" 
d="M226 680l-50 -283h-116l50 283h116z" />
    <glyph glyph-name="parenleft" unicode="(" horiz-adv-x="399" 
d="M348 738l86 -101q-107 -94 -160 -164.5t-71 -172.5q-18 -105 7.5 -183.5t91.5 -165.5l-108 -91q-87 91 -121.5 207.5t-11.5 241.5q41 242 287 429z" />
    <glyph glyph-name="parenright" unicode=")" horiz-adv-x="398" 
d="M118 646l107 92q88 -92 122.5 -208t11.5 -242q-42 -241 -287 -428l-86 100q107 95 160 165.5t71 172.5q18 104 -7.5 183t-91.5 165z" />
    <glyph glyph-name="asterisk" unicode="*" horiz-adv-x="410" 
d="M413 601l19 -72l-102 -25l68 -68l-55 -55l-67 68l-26 -102l-73 19l26 106l-106 -26l-21 74l103 25l-68 67l55 55l67 -67l25 103l75 -21l-27 -106z" />
    <glyph glyph-name="plus" unicode="+" horiz-adv-x="682" 
d="M409 270l-30 -169h-127l30 169h-177l21 123h177l30 169h127l-30 -169h177l-21 -123h-177z" />
    <glyph glyph-name="comma" unicode="," horiz-adv-x="222" 
d="M-21 -109l69 104q-48 21 -48 66q0 33 24 55.5t57 22.5q35 0 58.5 -22.5t23.5 -55.5q0 -41 -48 -100l-55 -70h-81z" />
    <glyph glyph-name="hyphen" unicode="-" horiz-adv-x="553" 
d="M467 328l-25 -137h-352l24 137h353z" />
    <glyph glyph-name="period" unicode="." horiz-adv-x="223" 
d="M81 -19q-34 0 -58 23t-24 57q0 33 24 56t58 23q35 0 59 -22.5t24 -56.5t-24 -57t-59 -23z" />
    <glyph glyph-name="slash" unicode="/" horiz-adv-x="412" 
d="M79 -160h-133l407 890h133z" />
    <glyph glyph-name="zero" unicode="0" horiz-adv-x="718" 
d="M438 695q121 0 187 -79.5t66 -211.5q0 -174 -106.5 -296.5t-272.5 -122.5q-122 0 -188 80t-66 212q0 113 47 208t135 152.5t198 57.5zM335 114q97 0 154 84t57 204q0 71 -33.5 117.5t-97.5 46.5q-98 0 -155 -84t-57 -203q0 -72 33 -118.5t99 -46.5z" />
    <glyph glyph-name="one" unicode="1" horiz-adv-x="522" 
d="M481 118l-21 -118h-478l21 118h173l73 409l-174 -49l22 123l237 79h84l-99 -562h162z" />
    <glyph glyph-name="two" unicode="2" horiz-adv-x="564" 
d="M227 118h259l-21 -118h-465l12 73l252 253q15 15 44 43t40 39.5t26.5 30.5t20.5 33t5 30q0 28 -18.5 48t-58.5 20q-46 0 -77.5 -26.5t-42.5 -72.5h-139q21 102 94.5 163t183.5 61q98 0 152 -50.5t54 -125.5q0 -25 -7.5 -48t-16.5 -40.5t-37 -48.5t-46.5 -50t-67.5 -68z
" />
    <glyph glyph-name="three" unicode="3" horiz-adv-x="565" 
d="M454 341q67 -41 67 -120q0 -107 -73 -171.5t-200 -64.5q-102 0 -164 56t-60 149h139q7 -84 98 -84q53 0 88 28.5t35 70.5q0 35 -28 55.5t-76 20.5l3 18l-3 -18h-54l19 113h54q50 0 83 29.5t33 73.5q0 34 -20.5 53.5t-55.5 19.5q-86 0 -110 -84h-138q23 94 93.5 149.5
t175.5 55.5q87 0 138.5 -48t51.5 -126q0 -117 -96 -176z" />
    <glyph glyph-name="four" unicode="4" horiz-adv-x="642" 
d="M592 131h-89l-23 -131h-138l23 131h-347l16 89l270 460h144l-244 -427h183l34 194h138l-34 -194h88z" />
    <glyph glyph-name="five" unicode="5" horiz-adv-x="597" 
d="M277 553l-20 -114h86q94 0 148.5 -51.5t54.5 -133.5q0 -113 -84.5 -191t-209.5 -78q-109 0 -166.5 55t-54.5 150h139q10 -84 104 -84q57 0 96 36.5t39 88.5q0 39 -28.5 63t-78.5 24h-199l64 362h428l-23 -127h-295z" />
    <glyph glyph-name="six" unicode="6" horiz-adv-x="620" 
d="M529 680l-170 -211q100 -1 161 -58.5t61 -145.5q0 -117 -89.5 -198.5t-225.5 -81.5q-103 0 -165 59.5t-62 149.5q0 52 22 95t74 109l228 282h166zM287 100q62 0 107 43t45 98q0 44 -30 74.5t-79 30.5t-91 -26l-1 -1q-37 -41 -48.5 -63.5t-11.5 -50.5q0 -43 30 -74t79 -31
z" />
    <glyph glyph-name="seven" unicode="7" horiz-adv-x="509" 
d="M574 680l-15 -85l-375 -595h-159l348 547h-303l23 133h481z" />
    <glyph glyph-name="eight" unicode="8" horiz-adv-x="626" 
d="M492 358q81 -47 81 -137q0 -103 -85.5 -169.5t-224.5 -66.5q-111 0 -173.5 49t-62.5 130q0 65 36.5 116t103.5 81q-59 40 -59 114q0 95 81 157.5t200 62.5q95 0 152.5 -46.5t57.5 -121.5q0 -112 -107 -169zM369 585q-51 0 -87 -31t-36 -75q0 -35 24.5 -58t65.5 -23
q51 0 87 32t36 75q0 34 -24.5 57t-65.5 23zM284 102q55 0 95 34t40 80q0 36 -28 60.5t-73 24.5q-55 0 -94 -32.5t-39 -79.5q0 -37 27 -62t72 -25z" />
    <glyph glyph-name="nine" unicode="9" horiz-adv-x="620" 
d="M394 695q103 0 165 -59.5t62 -149.5q0 -52 -22 -95t-74 -109l-228 -282h-166l170 211q-100 1 -161 58.5t-61 145.5q0 117 89.5 198.5t225.5 81.5zM421 360l1 1q37 41 48.5 63.5t11.5 50.5q0 43 -30 74t-79 31q-62 0 -107 -43t-45 -98q0 -44 30 -74t79 -30q50 0 91 25z
" />
    <glyph glyph-name="colon" unicode=":" horiz-adv-x="223" 
d="M141 335q-34 0 -58 23t-24 56t24 56t58 23t58.5 -23t24.5 -56t-24.5 -56t-58.5 -23zM78 -19q-34 0 -58 23t-24 57q0 33 24 56t58 23t58.5 -23t24.5 -56q0 -34 -24.5 -57t-58.5 -23z" />
    <glyph glyph-name="semicolon" unicode=";" horiz-adv-x="223" 
d="M142 335q-33 0 -57.5 23t-24.5 56t24.5 56t57.5 23q35 0 59 -22.5t24 -56.5t-24 -56.5t-59 -22.5zM-22 -109l70 104q-49 21 -49 66q0 33 24 55.5t57 22.5q35 0 58.5 -22.5t23.5 -55.5q0 -41 -47 -100l-56 -70h-81z" />
    <glyph glyph-name="less" unicode="&#x3c;" horiz-adv-x="534" 
d="M67 373l455 190l-24 -142l-293 -123l250 -118l-24 -132l-388 190z" />
    <glyph glyph-name="equal" unicode="=" horiz-adv-x="684" 
d="M603 362h-482l21 123h482zM568 160h-482l21 123h482z" />
    <glyph glyph-name="greater" unicode="&#x3e;" horiz-adv-x="534" 
d="M491 238l-455 -190l24 142l293 123l-250 119l24 131l388 -190z" />
    <glyph glyph-name="question" unicode="?" horiz-adv-x="527" 
d="M333 691q96 0 151.5 -51.5t53.5 -138.5q-1 -91 -64.5 -149.5t-165.5 -69.5l-18 -68h-107l18 161h75q52 0 90 31.5t38 82.5q0 38 -22 59.5t-62 21.5t-71.5 -23t-42.5 -61h-139q23 94 94.5 149.5t171.5 55.5zM208 147q34 0 58 -22.5t24 -55.5t-24 -56t-58 -23q-33 0 -57 23
t-24 56t24 55.5t57 22.5z" />
    <glyph glyph-name="at" unicode="@" horiz-adv-x="983" 
d="M575 671q165 0 266 -98.5t101 -254.5q0 -78 -21 -141.5t-73 -106.5t-128 -43q-106 0 -134 66q-69 -64 -160 -64q-76 0 -123 50.5t-47 126.5q0 100 73 172t171 72q67 0 112 -37l5 28h121l-41 -234q-14 -82 41 -82q54 0 79.5 50t25.5 128q0 121 -78 197.5t-206 76.5
q-107 0 -202.5 -51.5t-153.5 -141t-58 -192.5q0 -123 82 -204.5t207 -81.5q123 0 227 72l40 -81q-131 -85 -282 -85q-163 0 -269 103.5t-106 262.5q0 134 74.5 248.5t196.5 179.5t260 65zM466 135q62 0 109 57q2 24 6 46l9 52q-28 55 -87 55q-46 0 -84.5 -34t-38.5 -88
q0 -40 25 -64t61 -24z" />
    <glyph glyph-name="A" unicode="A" horiz-adv-x="755" 
d="M511 131h-303l-77 -131h-158l414 684h136l171 -684h-153zM481 262l-56 240l-141 -240h197z" />
    <glyph glyph-name="B" unicode="B" horiz-adv-x="706" 
d="M552 351q50 -11 74.5 -47.5t24.5 -87.5q0 -96 -77.5 -156t-202.5 -60h-345l120 680h320q97 0 154 -41t57 -111q0 -59 -35.5 -109.5t-89.5 -67.5zM268 555l-28 -156h166q60 0 94.5 26t34.5 68q0 62 -100 62h-167zM192 125h191q61 0 94.5 26.5t33.5 63.5q0 30 -25.5 45.5
t-70.5 15.5h-196z" />
    <glyph glyph-name="C" unicode="C" horiz-adv-x="791" 
d="M460 556q-93 0 -161.5 -61t-85.5 -155q-17 -97 31.5 -156.5t140.5 -59.5q63 0 123.5 41.5t88.5 109.5h148q-44 -131 -148.5 -210t-235.5 -79q-151 0 -236.5 100t-58.5 254q27 153 148 253.5t272 100.5q131 0 207.5 -79t74.5 -210h-148q-5 73 -46 112t-114 39z" />
    <glyph glyph-name="D" unicode="D" horiz-adv-x="747" 
d="M146 680h264q139 0 225 -81t86 -206q0 -109 -59 -199.5t-158 -142t-214 -51.5h-264zM193 133h120q102 0 180 70.5t78 167.5q0 76 -52 126.5t-132 50.5h-120z" />
    <glyph glyph-name="E" unicode="E" horiz-adv-x="613" 
d="M255 549l-26 -148h318l-23 -131h-318l-25 -139h359l-23 -131h-503l120 680h503l-23 -131h-359z" />
    <glyph glyph-name="F" unicode="F" horiz-adv-x="602" 
d="M267 548l-30 -167h307l-23 -131h-307l-44 -250h-144l120 680h496l-23 -132h-352z" />
    <glyph glyph-name="G" unicode="G" horiz-adv-x="813" 
d="M414 379h357l-8 -43l-59 -336h-111l8 93q-96 -107 -244 -107q-154 0 -237.5 101t-58.5 244q29 159 150.5 261t274.5 102q119 0 200 -65.5t88 -186.5h-145q-20 120 -161 120q-96 0 -168.5 -63.5t-91.5 -167.5q-15 -86 32.5 -146.5t141.5 -60.5q69 0 123 34t87 93h-200z
" />
    <glyph glyph-name="H" unicode="H" horiz-adv-x="729" 
d="M739 680l-120 -680h-144l47 266h-305l-47 -266h-144l120 680h144l-50 -282h305l50 282h144z" />
    <glyph glyph-name="I" unicode="I" horiz-adv-x="280" 
d="M170 0h-144l120 680h144z" />
    <glyph glyph-name="J" unicode="J" horiz-adv-x="611" 
d="M631 680l-74 -420q-24 -136 -108 -205.5t-205 -69.5q-110 0 -174.5 67.5t-50.5 175.5h146q-7 -51 17 -80t79 -29t97 39.5t54 104.5l73 417h146z" />
    <glyph glyph-name="K" unicode="K" horiz-adv-x="721" 
d="M442 381l223 -381h-179l-162 270l-128 -120l-26 -150h-144l120 680h144l-55 -313l333 313h191z" />
    <glyph glyph-name="L" unicode="L" horiz-adv-x="598" 
d="M541 129l-24 -129h-491l120 680h144l-97 -551h348z" />
    <glyph glyph-name="M" unicode="M" horiz-adv-x="850" 
d="M860 680l-120 -680h-145l64 361l-215 -259h-85v1l-124 270l-64 -373h-145l120 680h103l181 -394l327 394h103z" />
    <glyph glyph-name="N" unicode="N" horiz-adv-x="749" 
d="M759 680l-120 -680h-112l-283 419l-74 -419h-144l120 680h91l300 -438l78 438h144z" />
    <glyph glyph-name="O" unicode="O" horiz-adv-x="812" 
d="M482 694q135 0 219 -86t84 -216q0 -107 -59.5 -201.5t-156.5 -149.5t-204 -55q-134 0 -218.5 86.5t-84.5 215.5q0 107 60 201.5t157 149.5t203 55zM380 123q100 0 178.5 76t78.5 180q0 76 -45.5 127t-126.5 51q-103 0 -178.5 -75.5t-75.5 -178.5q0 -76 45 -128t124 -52z
" />
    <glyph glyph-name="P" unicode="P" horiz-adv-x="648" 
d="M146 680h255q112 0 179.5 -55.5t67.5 -152.5q0 -124 -96.5 -205t-246.5 -81h-102l-33 -186h-144zM226 317h115q70 0 116 39t46 95q0 46 -32 71.5t-88 25.5h-116z" />
    <glyph glyph-name="Q" unicode="Q" horiz-adv-x="812" 
d="M785 392q0 -96 -48 -181.5t-128 -142.5l110 -130l-106 -97l-137 161q-58 -16 -111 -16q-134 0 -218.5 86.5t-84.5 215.5q0 107 60 201.5t157 149.5t203 55q135 0 219 -86t84 -216zM211 303q0 -77 45 -128.5t125 -51.5q100 0 178.5 76t77.5 180q0 77 -45 127.5t-127 50.5
q-102 0 -178 -75.5t-76 -178.5z" />
    <glyph glyph-name="R" unicode="R" horiz-adv-x="690" 
d="M668 479q0 -83 -50 -148t-133 -96l145 -235h-166l-129 211h-128l-37 -211h-144l120 680h271q113 0 182 -54t69 -147zM231 344h141q61 0 106 32.5t45 81.5q0 42 -32.5 66t-82.5 24h-141z" />
    <glyph glyph-name="S" unicode="S" horiz-adv-x="671" 
d="M412 695q47 0 89 -10.5t80.5 -34.5t58.5 -69.5t15 -108.5h-144q2 47 -25 73.5t-86 26.5q-60 0 -96.5 -25t-36.5 -69q0 -50 83 -67l81 -17q88 -20 133 -57.5t45 -103.5q0 -110 -87.5 -178.5t-224.5 -68.5q-125 0 -195.5 63.5t-60.5 175.5h144q-1 -58 33.5 -85t108.5 -27
q59 0 92.5 22t33.5 60q0 47 -74 61l-107 21q-170 35 -163 184q6 113 94.5 173.5t208.5 60.5z" />
    <glyph glyph-name="T" unicode="T" horiz-adv-x="651" 
d="M679 548h-227l-97 -548h-145l97 548h-227l23 132h599z" />
    <glyph glyph-name="U" unicode="U" horiz-adv-x="730" 
d="M750 680l-65 -371q-58 -324 -365 -324q-138 0 -207 91t-43 233l65 371h145l-66 -372q-15 -87 18 -137.5t112 -50.5q74 0 128 51.5t68 136.5l66 372h144z" />
    <glyph glyph-name="V" unicode="V" horiz-adv-x="779" 
d="M836 680l-424 -684h-136l-183 684h153l124 -485l301 485h165z" />
    <glyph glyph-name="W" unicode="W" horiz-adv-x="1079" 
d="M1129 680l-344 -684h-142l-70 423l-227 -423h-141l-102 684h152l60 -443l240 443h121l75 -451l220 451h158z" />
    <glyph glyph-name="X" unicode="X" horiz-adv-x="675" 
d="M451 335l173 -335h-167l-122 227l-192 -227h-176l285 344l-163 336h176l105 -220l184 220h185z" />
    <glyph glyph-name="Y" unicode="Y" horiz-adv-x="695" 
d="M417 219l-38 -219h-146l38 220l-189 460h159l122 -299l227 299h178z" />
    <glyph glyph-name="Z" unicode="Z" horiz-adv-x="653" 
d="M670 612l-419 -482h340l-23 -130h-574l12 68l436 482h-335l22 130h553z" />
    <glyph glyph-name="bracketleft" unicode="[" horiz-adv-x="393" 
d="M163 -9h147l-23 -133h-286l154 872h285l-23 -132h-146z" />
    <glyph glyph-name="backslash" unicode="\" horiz-adv-x="412" 
d="M148 730l250 -890h-133l-251 890h134z" />
    <glyph glyph-name="bracketright" unicode="]" horiz-adv-x="391" 
d="M248 598h-146l23 132h285l-153 -872h-286l23 133h147z" />
    <glyph glyph-name="asciicircum" unicode="^" horiz-adv-x="424" 
d="M435 439h-126l-42 138l-93 -138h-125l176 241h119z" />
    <glyph glyph-name="underscore" unicode="_" horiz-adv-x="628" 
d="M-29 -90h568l-21 -121h-568z" />
    <glyph glyph-name="grave" unicode="`" 
d="M404 555h-126l-100 154h152z" />
    <glyph glyph-name="a" unicode="a" horiz-adv-x="612" 
d="M595 479l-85 -479h-138l5 28q-65 -38 -143 -38q-89 0 -144 58t-55 153q0 117 87.5 202.5t199.5 85.5q78 0 129 -37l5 27h139zM278 108q71 0 123 55l26 153q-31 56 -103 56q-60 0 -104.5 -46.5t-44.5 -106.5q0 -50 28 -80.5t75 -30.5z" />
    <glyph glyph-name="b" unicode="b" horiz-adv-x="612" 
d="M378 489q86 0 142 -60.5t56 -150.5q0 -117 -87.5 -202.5t-199.5 -85.5q-79 0 -128 37l-5 -27h-139l125 710h139l-46 -259q67 38 143 38zM287 107q61 0 105 46t44 107q0 47 -28 79t-74 32q-72 0 -122 -54l-28 -155q33 -55 103 -55z" />
    <glyph glyph-name="c" unicode="c" horiz-adv-x="571" 
d="M316 366q-54 0 -93.5 -36t-49.5 -91q-10 -57 16.5 -91.5t81.5 -34.5q40 0 70.5 20t44.5 55h139q-26 -88 -103.5 -143.5t-172.5 -55.5q-115 0 -174 68.5t-39 181.5q19 108 105.5 179t195.5 71q95 0 153 -55.5t53 -143.5h-139q-1 35 -24.5 55.5t-63.5 20.5z" />
    <glyph glyph-name="d" unicode="d" horiz-adv-x="613" 
d="M635 710l-125 -710h-139l5 27q-63 -37 -142 -37q-87 0 -143.5 60t-56.5 151q0 117 87.5 202.5t199.5 85.5q78 0 130 -38l46 259h138zM278 107q70 0 122 56l27 152q-32 56 -104 56q-60 0 -104.5 -46t-44.5 -106q0 -47 28.5 -79.5t75.5 -32.5z" />
    <glyph glyph-name="e" unicode="e" horiz-adv-x="566" 
d="M332 489q104 0 159.5 -66t39.5 -174q-5 -34 -14 -60h-346q6 -38 32 -60.5t71 -22.5q58 0 82 34h150q-32 -70 -99 -110.5t-154 -40.5q-114 0 -174 71.5t-42 178.5q19 108 102.5 179t192.5 71zM316 378q-93 0 -130 -92h218q4 46 -20 69t-68 23z" />
    <glyph glyph-name="f" unicode="f" horiz-adv-x="453" 
d="M434 636q-43 0 -73 -24.5t-37 -65.5l-12 -67h182l-21 -117h-181l-64 -362h-139l64 362h-129l21 117h128l12 68q18 97 84.5 156.5t158.5 59.5q55 0 114 -17l-39 -119q-41 9 -69 9z" />
    <glyph glyph-name="g" unicode="g" horiz-adv-x="613" 
d="M595 479l-84 -473q-19 -111 -98.5 -175.5t-190.5 -64.5q-104 0 -164.5 57.5t-52.5 149.5h139q-2 -38 23.5 -60.5t74.5 -22.5q48 0 84.5 30.5t45.5 84.5l9 52q-65 -38 -142 -38q-87 0 -144 59.5t-57 143.5q0 114 86 195t199 81q78 0 130 -38l3 19h139zM282 136
q73 0 123 57l23 130q-30 57 -103 57q-61 0 -104 -41.5t-43 -99.5q0 -40 28.5 -71.5t75.5 -31.5z" />
    <glyph glyph-name="h" unicode="h" 
d="M388 494q95 0 141 -63t27 -168l-46 -263h-138l44 251q10 57 -11.5 87t-70.5 30q-54 0 -116 -59l-54 -309h-139l125 710h139l-47 -265q71 49 146 49z" />
    <glyph glyph-name="i" unicode="i" horiz-adv-x="288" 
d="M214 568q-35 0 -59.5 23t-24.5 57q0 35 24.5 58.5t59.5 23.5t59.5 -23.5t24.5 -58.5q0 -34 -24.5 -57t-59.5 -23zM258 479l-84 -479h-139l84 479h139z" />
    <glyph glyph-name="j" unicode="j" horiz-adv-x="264" 
d="M214 568q-35 0 -59.5 23t-24.5 57q0 35 24.5 58.5t59.5 23.5t59.5 -23.5t24.5 -58.5q0 -34 -24.5 -57t-59.5 -23zM252 479l-78 -444q-21 -115 -78.5 -170.5t-183.5 -57.5l9 119q56 8 79 26t32 65l81 462h139z" />
    <glyph glyph-name="k" unicode="k" horiz-adv-x="584" 
d="M371 281l158 -281h-175l-95 180l-93 -83l-17 -97h-138l126 710h139l-77 -430l221 199h173z" />
    <glyph glyph-name="l" unicode="l" horiz-adv-x="260" 
d="M282 710l-126 -710h-138l126 710h138z" />
    <glyph glyph-name="m" unicode="m" horiz-adv-x="908" 
d="M688 494q89 0 137.5 -64t30.5 -167l-46 -263h-139l44 251q10 57 -11.5 87t-70.5 30q-51 0 -100 -54q0 -21 -5 -51l-45 -263h-139l44 251q10 57 -11.5 87t-70.5 30q-46 0 -95 -53l-55 -315h-139l84 479h139l-5 -28q56 43 126 43q94 0 140 -68q85 68 187 68z" />
    <glyph glyph-name="n" unicode="n" 
d="M380 494q94 0 140.5 -63t27.5 -168l-46 -263h-139l44 251q10 57 -11.5 87t-70.5 30q-54 0 -115 -59l-54 -309h-139l84 479h139l-6 -34q71 49 146 49z" />
    <glyph glyph-name="o" unicode="o" horiz-adv-x="588" 
d="M339 489q97 0 156 -59t59 -152q0 -122 -89.5 -207.5t-214.5 -85.5q-97 0 -156.5 60t-59.5 154q0 123 89.5 206.5t215.5 83.5zM272 109q61 0 102.5 44.5t41.5 106.5q0 45 -27 75t-72 30q-62 0 -103.5 -43.5t-41.5 -105.5q0 -47 26.5 -77t73.5 -30z" />
    <glyph glyph-name="p" unicode="p" horiz-adv-x="612" 
d="M380 489q87 0 143 -60t56 -151q0 -118 -85 -203t-202 -85q-77 0 -129 38l-46 -259h-139l126 710h139l-5 -27q63 37 142 37zM290 108q60 0 104.5 46t44.5 106q0 47 -28 79.5t-75 32.5q-70 0 -122 -55l-27 -154q32 -55 103 -55z" />
    <glyph glyph-name="q" unicode="q" horiz-adv-x="608" 
d="M589 479l-125 -710h-139l46 259q-67 -38 -143 -38q-87 0 -142.5 60.5t-55.5 150.5q0 117 87.5 202.5t199.5 85.5q79 0 128 -37l5 27h139zM272 108q72 0 122 54l28 155q-33 55 -103 55q-61 0 -105 -46.5t-44 -106.5q0 -47 28 -79t74 -32z" />
    <glyph glyph-name="r" unicode="r" horiz-adv-x="396" 
d="M410 487l-23 -132q-110 -4 -181 -68l-50 -287h-139l84 479h139l-10 -55q78 63 180 63z" />
    <glyph glyph-name="s" unicode="s" horiz-adv-x="507" 
d="M18 166l127 -1q-3 -71 88 -71q39 0 64 12.5t25 33.5q0 12 -11 21.5t-32 13.5l-98 17q-119 23 -119 119q0 83 66.5 132t171.5 49q35 0 66.5 -7t62 -23.5t46.5 -50.5t11 -82l-128 -1q4 31 -18 45.5t-59 14.5t-57.5 -13.5t-20.5 -32.5q0 -31 49 -40l85 -14q123 -24 123 -118
q0 -87 -70.5 -136t-177.5 -49q-92 0 -147.5 43t-46.5 138z" />
    <glyph glyph-name="t" unicode="t" horiz-adv-x="455" 
d="M269 362l-30 -170q-13 -79 61 -79q37 0 93 14l-3 -120q-75 -22 -127 -22q-86 0 -132 58.5t-31 147.5l31 171h-100l20 117h100l31 171h138l-30 -171h172l-20 -117h-173z" />
    <glyph glyph-name="u" unicode="u" horiz-adv-x="607" 
d="M583 479l-85 -479h-139l6 34q-71 -49 -145 -49q-95 0 -141 63t-28 167l46 264h139l-44 -251q-10 -57 11.5 -87t70.5 -30q54 0 115 59l55 309h139z" />
    <glyph glyph-name="v" unicode="v" horiz-adv-x="583" 
d="M612 479l-289 -479h-136l-131 479h147l78 -302l181 302h150z" />
    <glyph glyph-name="w" unicode="w" horiz-adv-x="798" 
d="M826 479l-246 -479h-136l-41 264l-134 -264h-122l-91 479h149l41 -267l138 267h114l44 -268l135 268h149z" />
    <glyph glyph-name="x" unicode="x" horiz-adv-x="561" 
d="M372 240l133 -240h-162l-78 147l-128 -147h-166l217 241l-132 239h166l75 -138l122 138h170z" />
    <glyph glyph-name="y" unicode="y" horiz-adv-x="635" 
d="M651 480l-428 -710h-153l136 226l-144 484h148l95 -320l193 320h153z" />
    <glyph glyph-name="z" unicode="z" horiz-adv-x="501" 
d="M499 405l-286 -290h235l-21 -115h-438l12 65l292 299h-234l20 115h433z" />
    <glyph glyph-name="braceleft" unicode="{" horiz-adv-x="357" 
d="M299 553l-24 -141q-9 -50 -28.5 -75t-67.5 -39q43 -14 53.5 -39t1.5 -75l-25 -141q-4 -26 15 -42t55 -16l-24 -133q-98 0 -149 51.5t-36 136.5l26 142q6 38 -8 47t-63 9l21 119q26 0 38 1t24.5 6.5t18 16.5t9.5 32l25 142q15 86 83.5 137.5t167.5 51.5l-23 -134
q-36 0 -60.5 -15.5t-29.5 -41.5z" />
    <glyph glyph-name="bar" unicode="|" horiz-adv-x="263" 
d="M282 730l-157 -890h-127l157 890h127z" />
    <glyph glyph-name="braceright" unicode="}" horiz-adv-x="356" 
d="M78 43l25 141q8 50 27.5 75t67.5 39q-43 14 -53.5 39t-1.5 75l25 141q4 26 -15 41.5t-55 15.5l24 134q99 0 149.5 -51.5t35.5 -137.5l-26 -141q-6 -38 8 -47t63 -9l-20 -119q-26 0 -38 -1t-25 -6.5t-18.5 -16.5t-9.5 -32l-25 -143q-15 -85 -84 -136.5t-167 -51.5l23 133
q36 0 60.5 16t29.5 42z" />
    <glyph glyph-name="asciitilde" unicode="~" horiz-adv-x="448" 
d="M330 410h121q0 -53 -20.5 -90t-50.5 -51.5t-64 -13.5t-63 17l-50 30q-18 12 -28.5 8t-14.5 -13t-4 -22h-120q0 53 20 89.5t50.5 51t64 14t62.5 -16.5l51 -30q18 -12 28 -8t14 13t4 22z" />
    <glyph glyph-name="exclamdown" unicode="&#xa1;" horiz-adv-x="289" 
d="M170 490q33 0 57 -23t24 -56t-24 -55.5t-57 -22.5q-34 0 -58 22.5t-24 55.5t24 56t58 23zM80 262h122l-69 -461h-146z" />
    <glyph glyph-name="cent" unicode="&#xa2;" horiz-adv-x="571" 
d="M315 366q-54 0 -93 -36t-49 -91q-10 -57 16.5 -91.5t81.5 -34.5q39 0 70.5 20.5t44.5 54.5h139q-23 -75 -83.5 -127t-138.5 -67l-18 -100h-121l18 102q-84 19 -123 83.5t-23 159.5q16 89 80 155t152 87l21 120h122l-22 -117q73 -14 115.5 -66.5t38.5 -127.5h-139
q-1 35 -25 55.5t-64 20.5z" />
    <glyph glyph-name="sterling" unicode="&#xa3;" horiz-adv-x="612" 
d="M393 572q-51 0 -87.5 -32.5t-46.5 -87.5l-11 -62h191l-20 -117h-191l-27 -153h348l-22 -120h-545l23 120h57l27 153h-58l21 117h58l11 62q19 109 99.5 175.5t193.5 66.5q104 0 161 -56.5t51 -152.5h-140q-2 41 -26.5 64t-66.5 23z" />
    <glyph glyph-name="yen" unicode="&#xa5;" horiz-adv-x="695" 
d="M483 305h128l-17 -97h-179l-8 -45h179l-17 -97h-179l-11 -66h-146l11 66h-172l17 97h172l8 45h-172l17 97h123l-155 375h159l122 -300l227 300h179z" />
    <glyph glyph-name="brokenbar" unicode="&#xa6;" horiz-adv-x="264" 
d="M213 336h-127l69 394h127zM125 -160h-127l70 394h127z" />
    <glyph glyph-name="section" unicode="&#xa7;" horiz-adv-x="549" 
d="M541 498h-149q5 71 -61 71q-30 0 -51 -17.5t-21 -44.5q0 -32 34 -50l108 -55q116 -59 116 -145q0 -103 -96 -152q14 -29 14 -66q0 -91 -68 -145t-168 -54q-95 0 -145.5 52.5t-45.5 140.5h149q-5 -71 61 -71q31 0 51.5 17t20.5 44q0 34 -33 51l-109 53q-115 57 -115 146
q0 103 95 152q-14 33 -14 67q0 90 68 144t168 54q95 0 145.5 -52.5t45.5 -139.5zM321 293l-109 55q-18 -6 -29 -20.5t-11 -31.5q0 -33 56 -59l109 -55q18 6 29 20t11 31q0 34 -56 60z" />
    <glyph glyph-name="dieresis" unicode="&#xa8;" 
d="M221 706q34 0 57 -22t23 -54q0 -33 -23 -55t-57 -22q-33 0 -56.5 22t-23.5 55q0 32 23.5 54t56.5 22zM431 706q33 0 56 -22t23 -54q0 -33 -23 -55t-56 -22q-34 0 -57 22t-23 55q0 32 23 54t57 22z" />
    <glyph glyph-name="copyright" unicode="&#xa9;" horiz-adv-x="829" 
d="M425 695q150 0 257 -102t107 -253t-107 -253t-257 -102t-257 102t-107 253t107 253t257 102zM424 72q111 0 192 78t81 190t-81 190t-192 78t-191.5 -78t-80.5 -190t80.5 -190t191.5 -78zM426 410q-31 0 -51.5 -21t-20.5 -51t20.5 -50.5t51.5 -20.5q47 0 63 39h102
q-10 -60 -55.5 -96t-108.5 -36q-74 0 -122.5 46.5t-48.5 117.5q0 72 48.5 118.5t122.5 46.5q63 0 108.5 -36t55.5 -96h-102q-17 39 -63 39z" />
    <glyph glyph-name="ordfeminine" unicode="&#xaa;" horiz-adv-x="355" 
d="M255 685q66 0 100.5 -37.5t22.5 -101.5l-34 -191h-93l2 12q-41 -18 -83 -18q-55 0 -86.5 23.5t-31.5 64.5q0 53 38.5 81t103.5 28h90q12 59 -43 59q-51 0 -60 -40h-94q13 60 61.5 90t106.5 30zM190 424q39 0 77 23l6 33h-94q-15 0 -24.5 -7t-9.5 -18q0 -12 11 -21.5
t34 -9.5z" />
    <glyph glyph-name="guillemotleft" unicode="&#xab;" horiz-adv-x="466" 
d="M273 408l-121 -161l65 -151h-130l-66 156l121 156h131zM466 408l-121 -161l66 -151h-131l-65 156l121 156h130z" />
    <glyph glyph-name="registered" unicode="&#xae;" horiz-adv-x="567" 
d="M314 692q105 0 180 -72t75 -177t-75 -176.5t-180 -71.5t-180 71.5t-75 176.5t75 177t180 72zM313 265q74 0 128 52t54 126q0 75 -54 127t-128 52t-127.5 -51.5t-53.5 -127.5q0 -74 53.5 -126t127.5 -52zM410 478q0 -42 -37 -61l45 -69h-66l-36 58h-29v-58h-54v206h91
q38 0 62 -21t24 -55zM287 453h36q31 0 31 26q0 25 -31 25h-36v-51z" />
    <glyph glyph-name="macron" unicode="&#xaf;" 
d="M474 673l-18 -100h-282l19 100h281z" />
    <glyph glyph-name="degree" unicode="&#xb0;" horiz-adv-x="465" 
d="M282 695q76 0 126 -48.5t50 -122.5q0 -75 -50 -123.5t-126 -48.5t-126 48.5t-50 123.5q0 74 50 122.5t126 48.5zM282 451q30 0 52 21.5t22 51.5t-22 51t-52 21q-31 0 -52.5 -21t-21.5 -51t21.5 -51.5t52.5 -21.5z" />
    <glyph glyph-name="plusminus" unicode="&#xb1;" horiz-adv-x="682" 
d="M594 323h-176l-22 -129h-127l22 129h-177l21 122h178l22 130h127l-22 -130h176zM565 155l-22 -122h-480l21 122h481z" />
    <glyph glyph-name="twosuperior" unicode="&#xb2;" horiz-adv-x="369" 
d="M218 367h141l-15 -85h-304l9 53l174 157q39 35 51.5 51t12.5 33q0 33 -37 33q-52 0 -62 -51h-101q12 65 58.5 103.5t117.5 38.5q63 0 97 -30t34 -75q0 -34 -18.5 -65t-75.5 -85z" />
    <glyph glyph-name="threesuperior" unicode="&#xb3;" horiz-adv-x="382" 
d="M335 491q38 -24 38 -70q0 -60 -47 -102.5t-123 -42.5q-69 0 -108 35t-38 95h100q7 -42 54 -42q28 0 46 14t18 34q0 35 -61 35l2 13l-2 -13h-32l14 81h32q27 0 45 14.5t18 35.5q0 35 -40 35q-44 0 -55 -42h-100q15 60 60.5 95t109.5 35q58 0 90.5 -30t32.5 -78
q0 -67 -54 -102z" />
    <glyph glyph-name="acute" unicode="&#xb4;" 
d="M493 709l-126 -154h-126l101 154h151z" />
    <glyph glyph-name="paragraph" unicode="&#xb6;" horiz-adv-x="774" 
d="M713 680v-840h-139v721h-81v-721h-138v365h-77q-110 0 -184 68t-74 177q0 102 74 166t184 64h435zM355 561h-77q-55 0 -89 -31t-34 -81q0 -53 34 -86t89 -33h77v231z" />
    <glyph glyph-name="periodcentered" unicode="&#xb7;" horiz-adv-x="223" 
d="M114 193q-33 0 -57.5 23t-24.5 56t24.5 56t57.5 23q35 0 59 -22.5t24 -56.5t-24 -56.5t-59 -22.5z" />
    <glyph glyph-name="cedilla" unicode="&#xb8;" 
d="M276 -215h-119l75 165h136z" />
    <glyph glyph-name="onesuperior" unicode="&#xb9;" horiz-adv-x="340" 
d="M349 371l-14 -85h-307l15 85h106l38 216l-106 -29l15 89l151 48h56l-57 -324h103z" />
    <glyph glyph-name="ordmasculine" unicode="&#xba;" horiz-adv-x="388" 
d="M273 687q65 0 104.5 -39.5t39.5 -101.5q0 -83 -60 -140t-143 -57q-65 0 -104.5 40t-39.5 104q0 81 60 137.5t143 56.5zM229 435q39 0 65.5 29t26.5 69q0 29 -17 48.5t-46 19.5q-40 0 -66.5 -28t-26.5 -68q0 -31 17.5 -50.5t46.5 -19.5z" />
    <glyph glyph-name="guillemotright" unicode="&#xbb;" horiz-adv-x="466" 
d="M4 96l121 161l-66 151h131l65 -156l-121 -156h-130zM197 96l121 161l-65 151h130l66 -156l-121 -156h-131z" />
    <glyph glyph-name="onequarter" unicode="&#xbc;" horiz-adv-x="934" 
d="M28 271l15 85h106l38 216l-106 -29l15 89l151 48h56l-57 -324h103l-14 -85h-307zM774 680l-462 -680h-96l462 680h96zM880 74h-52l-13 -74h-100l13 74h-213l10 65l164 270h104l-144 -246h94l19 106h101l-19 -106h50z" />
    <glyph glyph-name="onehalf" unicode="&#xbd;" horiz-adv-x="919" 
d="M28 271l15 85h106l38 216l-106 -29l15 89l151 48h56l-57 -324h103l-14 -85h-307zM761 680l-462 -680h-96l463 680h95zM719 85h142l-16 -85h-303l9 53l173 157q40 36 52.5 51.5t12.5 32.5q0 33 -38 33q-51 0 -62 -51h-100q12 65 58.5 103.5t117.5 38.5q62 0 96.5 -30
t34.5 -75q0 -34 -18.5 -65t-75.5 -85z" />
    <glyph glyph-name="threequarters" unicode="&#xbe;" horiz-adv-x="912" 
d="M373 410q0 -60 -47 -102.5t-123 -42.5q-69 0 -108 35t-38 95h100q7 -42 54 -42q28 0 46 14t18 34q0 35 -61 35l2 13l-2 -13h-32l14 81h32q27 0 45 14.5t18 35.5q0 35 -40 35q-44 0 -55 -42h-100q15 60 60.5 95t109.5 35q58 0 90.5 -30t32.5 -78q0 -67 -54 -102
q38 -24 38 -70zM753 680l-463 -680h-95l462 680h96zM858 74h-52l-13 -74h-100l13 74h-213l10 65l164 270h104l-144 -246h94l19 106h101l-19 -106h50z" />
    <glyph glyph-name="questiondown" unicode="&#xbf;" horiz-adv-x="527" 
d="M326 394q-34 0 -58 22.5t-24 55.5t24 56t58 23q33 0 57 -23t24 -56t-24 -55.5t-57 -22.5zM201 -150q-96 0 -152 51.5t-54 138.5q1 91 65 149.5t166 69.5l17 68h108l-19 -160h-74q-52 0 -90 -32t-38 -83q0 -38 22 -59.5t61 -21.5q41 0 72.5 23t42.5 61h138
q-24 -94 -94.5 -149.5t-170.5 -55.5z" />
    <glyph glyph-name="Agrave" unicode="&#xc0;" horiz-adv-x="755" 
d="M403 753l-100 154h152l74 -154h-126zM511 131h-302l-77 -131h-159l414 684h136l172 -684h-154zM481 262l-56 239l-140 -239h196z" />
    <glyph glyph-name="Aacute" unicode="&#xc1;" horiz-adv-x="755" 
d="M531 753h-126l101 154h152zM511 131h-302l-77 -131h-159l414 684h136l172 -684h-154zM481 262l-56 239l-140 -239h196z" />
    <glyph glyph-name="Acircumflex" unicode="&#xc2;" horiz-adv-x="755" 
d="M420 754h-130l145 157h130l90 -157h-120l-46 80zM511 131h-302l-77 -131h-159l414 684h136l172 -684h-154zM481 262l-56 239l-140 -239h196z" />
    <glyph glyph-name="Atilde" unicode="&#xc3;" horiz-adv-x="755" 
d="M396 778h-93q-1 44 16.5 74t44.5 40.5t57 10t57 -12.5l29 -13q30 -11 43.5 -3.5t13.5 28.5h94q1 -44 -16 -73.5t-43.5 -41t-57 -10.5t-58.5 14l-30 13q-28 12 -42.5 3.5t-14.5 -29.5zM511 131h-302l-77 -131h-159l414 684h136l172 -684h-154zM481 262l-56 239l-140 -239
h196z" />
    <glyph glyph-name="Adieresis" unicode="&#xc4;" horiz-adv-x="755" 
d="M374 751q-33 0 -56.5 22t-23.5 55q0 32 23.5 54t56.5 22q34 0 57 -22t23 -54q0 -33 -23 -55t-57 -22zM584 751q-34 0 -57 22t-23 55q0 32 23 54t57 22q33 0 56.5 -22t23.5 -54q0 -33 -23.5 -55t-56.5 -22zM511 131h-302l-77 -131h-159l414 684h136l172 -684h-154z
M481 262l-56 239l-140 -239h196z" />
    <glyph glyph-name="Aring" unicode="&#xc5;" horiz-adv-x="755" 
d="M478 756q-53 0 -85.5 30.5t-32.5 80.5q0 49 32.5 79t85.5 30t85.5 -30t32.5 -79q0 -50 -32.5 -80.5t-85.5 -30.5zM478 909q-19 0 -31 -11.5t-12 -30.5t11.5 -31t31.5 -12t32 12t12 31t-12 30.5t-32 11.5zM511 131h-302l-77 -131h-159l414 684h136l172 -684h-154zM481 262
l-56 239l-140 -239h196z" />
    <glyph glyph-name="AE" unicode="&#xc6;" horiz-adv-x="1135" 
d="M777 549l-26 -148h318l-23 -131h-318l-25 -139h359l-23 -131h-503l23 131h-273l-118 -131h-195l642 680h544l-23 -131h-359zM582 262l43 245l-221 -245h178z" />
    <glyph glyph-name="Ccedilla" unicode="&#xc7;" horiz-adv-x="791" 
d="M460 556q-93 0 -162 -61t-86 -155q-16 -97 32.5 -156.5t139.5 -59.5q63 0 124 41.5t89 109.5h148q-44 -131 -149 -210t-236 -79q-150 0 -235.5 100t-58.5 254q27 153 147.5 253.5t271.5 100.5q132 0 208.5 -79t74.5 -210h-148q-5 73 -46 112t-114 39zM273 -50h136
l-92 -165h-119z" />
    <glyph glyph-name="Egrave" unicode="&#xc8;" horiz-adv-x="613" 
d="M327 753l-100 154h152l74 -154h-126zM255 549l-26 -148h318l-23 -131h-318l-25 -139h360l-23 -131h-504l120 680h504l-23 -131h-360z" />
    <glyph glyph-name="Eacute" unicode="&#xc9;" horiz-adv-x="613" 
d="M455 753h-126l101 154h152zM255 549l-26 -148h318l-23 -131h-318l-25 -139h360l-23 -131h-504l120 680h504l-23 -131h-360z" />
    <glyph glyph-name="Ecircumflex" unicode="&#xca;" horiz-adv-x="613" 
d="M343 754h-130l145 157h130l90 -157h-120l-46 80zM255 549l-26 -148h318l-23 -131h-318l-25 -139h360l-23 -131h-504l120 680h504l-23 -131h-360z" />
    <glyph glyph-name="Edieresis" unicode="&#xcb;" horiz-adv-x="613" 
d="M297 751q-33 0 -56.5 22t-23.5 55q0 32 23.5 54t56.5 22q34 0 57 -22t23 -54q0 -33 -23 -55t-57 -22zM507 751q-34 0 -57 22t-23 55q0 32 23 54t57 22q33 0 56.5 -22t23.5 -54q0 -33 -23.5 -55t-56.5 -22zM255 549l-26 -148h318l-23 -131h-318l-25 -139h360l-23 -131
h-504l120 680h504l-23 -131h-360z" />
    <glyph glyph-name="Igrave" unicode="&#xcc;" horiz-adv-x="280" 
d="M294 753h-126l-100 154h152zM170 0h-144l120 680h144z" />
    <glyph glyph-name="Iacute" unicode="&#xcd;" horiz-adv-x="280" 
d="M422 907l-126 -154h-126l101 154h151zM170 0h-144l120 680h144z" />
    <glyph glyph-name="Icircumflex" unicode="&#xce;" horiz-adv-x="280" 
d="M253 834l-69 -80h-130l145 157h130l90 -157h-120zM170 0h-144l120 680h144z" />
    <glyph glyph-name="Idieresis" unicode="&#xcf;" horiz-adv-x="280" 
d="M138 904q34 0 57 -22t23 -54q0 -33 -23 -55t-57 -22q-33 0 -56.5 22t-23.5 55q0 32 23.5 54t56.5 22zM348 904q33 0 56 -22t23 -54q0 -33 -23 -55t-56 -22q-34 0 -57 22t-23 55q0 32 23 54t57 22zM170 0h-144l120 680h144z" />
    <glyph glyph-name="Eth" unicode="&#xd0;" horiz-adv-x="747" 
d="M146 680h264q139 0 225 -81t86 -206q0 -109 -59 -199.5t-158 -142t-214 -51.5h-264l49 276h-65l23 131h65zM193 133h120q102 0 180.5 71t78.5 167q0 76 -52 126.5t-133 50.5h-120l-25 -141h115l-23 -131h-115z" />
    <glyph glyph-name="Ntilde" unicode="&#xd1;" horiz-adv-x="749" 
d="M366 778h-93q-1 44 16.5 74t44.5 40.5t57 10t57 -12.5l29 -13q30 -11 43.5 -3.5t13.5 28.5h94q1 -44 -16 -73.5t-43.5 -41t-57 -10.5t-58.5 14l-30 13q-28 12 -42.5 3.5t-14.5 -29.5zM759 680l-120 -680h-112l-283 419l-74 -419h-144l120 680h91l300 -438l78 438h144z
" />
    <glyph glyph-name="Ograve" unicode="&#xd2;" horiz-adv-x="812" 
d="M570 753h-126l-100 154h152zM482 694q135 0 219 -86t84 -216q0 -107 -59.5 -201.5t-156.5 -149.5t-204 -55q-134 0 -218.5 86.5t-84.5 215.5q0 107 60 201.5t157 149.5t203 55zM381 123q100 0 178.5 76t77.5 180q0 77 -45 127.5t-127 50.5q-102 0 -178 -75.5t-76 -178.5
q0 -77 45 -128.5t125 -51.5z" />
    <glyph glyph-name="Oacute" unicode="&#xd3;" horiz-adv-x="812" 
d="M700 907l-127 -154h-126l101 154h152zM482 694q135 0 219 -86t84 -216q0 -107 -59.5 -201.5t-156.5 -149.5t-204 -55q-134 0 -218.5 86.5t-84.5 215.5q0 107 60 201.5t157 149.5t203 55zM381 123q100 0 178.5 76t77.5 180q0 77 -45 127.5t-127 50.5q-102 0 -178 -75.5
t-76 -178.5q0 -77 45 -128.5t125 -51.5z" />
    <glyph glyph-name="Ocircumflex" unicode="&#xd4;" horiz-adv-x="812" 
d="M530 834l-69 -80h-130l145 157h130l90 -157h-120zM482 694q135 0 219 -86t84 -216q0 -107 -59.5 -201.5t-156.5 -149.5t-204 -55q-134 0 -218.5 86.5t-84.5 215.5q0 107 60 201.5t157 149.5t203 55zM381 123q100 0 178.5 76t77.5 180q0 77 -45 127.5t-127 50.5
q-102 0 -178 -75.5t-76 -178.5q0 -77 45 -128.5t125 -51.5z" />
    <glyph glyph-name="Otilde" unicode="&#xd5;" horiz-adv-x="812" 
d="M605 902h94q1 -44 -16 -73.5t-43.5 -41t-57 -10.5t-58.5 14l-30 13q-28 12 -42.5 3.5t-14.5 -29.5h-93q-1 44 16.5 74t44.5 40.5t57 10t57 -12.5l29 -13q30 -11 43.5 -3.5t13.5 28.5zM482 694q135 0 219 -86t84 -216q0 -107 -59.5 -201.5t-156.5 -149.5t-204 -55
q-134 0 -218.5 86.5t-84.5 215.5q0 107 60 201.5t157 149.5t203 55zM381 123q100 0 178.5 76t77.5 180q0 77 -45 127.5t-127 50.5q-102 0 -178 -75.5t-76 -178.5q0 -77 45 -128.5t125 -51.5z" />
    <glyph glyph-name="Odieresis" unicode="&#xd6;" horiz-adv-x="812" 
d="M415 904q34 0 57 -22t23 -54q0 -33 -23 -55t-57 -22q-33 0 -56.5 22t-23.5 55q0 32 23.5 54t56.5 22zM625 904q33 0 56.5 -22t23.5 -54q0 -33 -23.5 -55t-56.5 -22q-34 0 -57 22t-23 55q0 32 23 54t57 22zM482 694q135 0 219 -86t84 -216q0 -107 -59.5 -201.5
t-156.5 -149.5t-204 -55q-134 0 -218.5 86.5t-84.5 215.5q0 107 60 201.5t157 149.5t203 55zM381 123q100 0 178.5 76t77.5 180q0 77 -45 127.5t-127 50.5q-102 0 -178 -75.5t-76 -178.5q0 -77 45 -128.5t125 -51.5z" />
    <glyph glyph-name="multiply" unicode="&#xd7;" horiz-adv-x="674" 
d="M546 181l-103 -87l-115 142l-167 -142l-72 87l167 142l-117 140l103 87l116 -140l165 140l72 -87l-165 -140z" />
    <glyph glyph-name="Oslash" unicode="&#xd8;" horiz-adv-x="812" 
d="M788 629l-58 -57q55 -76 55 -180q0 -107 -59.5 -201.5t-156.5 -149.5t-204 -55q-101 0 -177 52l-62 -61l-80 80l63 62q-47 75 -47 169q0 107 60 201.5t157 149.5t203 55q94 0 166 -44l60 59zM211 303q0 -39 12 -72l316 312q-33 14 -74 14q-102 0 -178 -75.5t-76 -178.5z
M637 379q0 45 -17 85l-325 -320q39 -21 86 -21q100 0 178.5 76t77.5 180z" />
    <glyph glyph-name="Ugrave" unicode="&#xd9;" horiz-adv-x="730" 
d="M506 753h-126l-100 154h152zM750 680l-65 -371q-59 -324 -365 -324q-138 0 -207 91t-43 233l65 371h145l-66 -372q-15 -87 17.5 -137.5t111.5 -50.5q74 0 128 51.5t69 136.5l66 372h144z" />
    <glyph glyph-name="Uacute" unicode="&#xda;" horiz-adv-x="730" 
d="M635 907l-127 -154h-126l101 154h152zM750 680l-65 -371q-59 -324 -365 -324q-138 0 -207 91t-43 233l65 371h145l-66 -372q-15 -87 17.5 -137.5t111.5 -50.5q74 0 128 51.5t69 136.5l66 372h144z" />
    <glyph glyph-name="Ucircumflex" unicode="&#xdb;" horiz-adv-x="730" 
d="M466 834l-69 -80h-130l145 157h130l90 -157h-120zM750 680l-65 -371q-59 -324 -365 -324q-138 0 -207 91t-43 233l65 371h145l-66 -372q-15 -87 17.5 -137.5t111.5 -50.5q74 0 128 51.5t69 136.5l66 372h144z" />
    <glyph glyph-name="Udieresis" unicode="&#xdc;" horiz-adv-x="730" 
d="M351 904q34 0 57 -22t23 -54q0 -33 -23 -55t-57 -22q-33 0 -56.5 22t-23.5 55q0 32 23.5 54t56.5 22zM561 904q33 0 56.5 -22t23.5 -54q0 -33 -23.5 -55t-56.5 -22q-34 0 -57 22t-23 55q0 32 23 54t57 22zM750 680l-65 -371q-59 -324 -365 -324q-138 0 -207 91t-43 233
l65 371h145l-66 -372q-15 -87 17.5 -137.5t111.5 -50.5q74 0 128 51.5t69 136.5l66 372h144z" />
    <glyph glyph-name="Yacute" unicode="&#xdd;" horiz-adv-x="695" 
d="M478 753h-126l101 154h152zM417 219l-38 -219h-146l38 220l-189 460h159l122 -300l227 300h179z" />
    <glyph glyph-name="Thorn" unicode="&#xde;" horiz-adv-x="647" 
d="M273 588h121q110 0 173.5 -55t63.5 -149q0 -128 -96.5 -209t-246.5 -81h-102l-17 -94h-144l120 680h144zM209 225h116q70 0 115 39t45 99q0 42 -32 67.5t-88 25.5h-116z" />
    <glyph glyph-name="germandbls" unicode="&#xdf;" horiz-adv-x="668" 
d="M628 395l-164 -166q67 -15 104.5 -59t37.5 -109q0 -112 -85 -187t-214 -75q-87 0 -164 26l22 124q77 -28 154 -28q71 0 109 35.5t38 83.5q0 34 -24 55.5t-65 21.5h-117l11 65l161 170h-213l-62 -352h-139l94 533q17 99 89 159.5t172 60.5l-23 -135q-38 0 -65.5 -24
t-34.5 -63l-9 -52h401z" />
    <glyph glyph-name="agrave" unicode="&#xe0;" horiz-adv-x="612" 
d="M306 537l-100 154h152l74 -154h-126zM595 479l-84 -479h-139l5 29q-64 -39 -143 -39q-89 0 -144 58t-55 153q0 117 87.5 202.5t199.5 85.5q78 0 129 -37l5 27h139zM278 108q71 0 123 56l26 152q-32 56 -103 56q-60 0 -104.5 -46.5t-44.5 -106.5q0 -50 28 -80.5t75 -30.5z
" />
    <glyph glyph-name="aacute" unicode="&#xe1;" horiz-adv-x="612" 
d="M433 537h-126l101 154h152zM595 479l-84 -479h-139l5 29q-64 -39 -143 -39q-89 0 -144 58t-55 153q0 117 87.5 202.5t199.5 85.5q78 0 129 -37l5 27h139zM278 108q71 0 123 56l26 152q-32 56 -103 56q-60 0 -104.5 -46.5t-44.5 -106.5q0 -50 28 -80.5t75 -30.5z" />
    <glyph glyph-name="acircumflex" unicode="&#xe2;" horiz-adv-x="612" 
d="M317 528h-130l145 157h130l90 -157h-120l-46 80zM595 479l-84 -479h-139l5 29q-64 -39 -143 -39q-89 0 -144 58t-55 153q0 117 87.5 202.5t199.5 85.5q78 0 129 -37l5 27h139zM278 108q71 0 123 56l26 152q-32 56 -103 56q-60 0 -104.5 -46.5t-44.5 -106.5
q0 -50 28 -80.5t75 -30.5z" />
    <glyph glyph-name="atilde" unicode="&#xe3;" horiz-adv-x="612" 
d="M283 564h-93q-1 44 16.5 74t44.5 40.5t57 10t57 -12.5l29 -13q30 -11 43.5 -3.5t13.5 28.5h94q1 -44 -16 -73.5t-43.5 -41t-57 -10.5t-58.5 14l-30 13q-28 12 -42.5 3.5t-14.5 -29.5zM595 479l-84 -479h-139l5 29q-64 -39 -143 -39q-89 0 -144 58t-55 153
q0 117 87.5 202.5t199.5 85.5q78 0 129 -37l5 27h139zM278 108q71 0 123 56l26 152q-32 56 -103 56q-60 0 -104.5 -46.5t-44.5 -106.5q0 -50 28 -80.5t75 -30.5z" />
    <glyph glyph-name="adieresis" unicode="&#xe4;" horiz-adv-x="612" 
d="M255 535q-33 0 -56.5 22t-23.5 55q0 32 23.5 54t56.5 22q34 0 57 -22t23 -54q0 -33 -23 -55t-57 -22zM465 535q-34 0 -57 22t-23 55q0 32 23 54t57 22q33 0 56.5 -22t23.5 -54q0 -33 -23.5 -55t-56.5 -22zM595 479l-84 -479h-139l5 29q-64 -39 -143 -39q-89 0 -144 58
t-55 153q0 117 87.5 202.5t199.5 85.5q78 0 129 -37l5 27h139zM278 108q71 0 123 56l26 152q-32 56 -103 56q-60 0 -104.5 -46.5t-44.5 -106.5q0 -50 28 -80.5t75 -30.5z" />
    <glyph glyph-name="aring" unicode="&#xe5;" horiz-adv-x="612" 
d="M360 523q-53 0 -85.5 30.5t-32.5 80.5q0 49 32.5 79t85.5 30t85.5 -30t32.5 -79q0 -50 -32.5 -80.5t-85.5 -30.5zM360 676q-19 0 -31 -11.5t-12 -30.5q0 -20 11.5 -31.5t31.5 -11.5t32 12t12 31t-12 30.5t-32 11.5zM595 479l-84 -479h-139l5 29q-64 -39 -143 -39
q-89 0 -144 58t-55 153q0 117 87.5 202.5t199.5 85.5q78 0 129 -37l5 27h139zM278 108q71 0 123 56l26 152q-32 56 -103 56q-60 0 -104.5 -46.5t-44.5 -106.5q0 -50 28 -80.5t75 -30.5z" />
    <glyph glyph-name="ae" unicode="&#xe6;" horiz-adv-x="894" 
d="M658 489q105 0 160 -66t39 -174q-5 -34 -14 -60h-346q6 -38 32 -60.5t71 -22.5q59 0 82 34h150q-32 -70 -99 -110.5t-154 -40.5q-119 0 -179 78q-32 -23 -56 -36.5t-65.5 -26.5t-84.5 -13q-82 0 -129.5 35.5t-47.5 96.5q0 78 58.5 120.5t155.5 42.5h139q18 92 -69 92
q-35 0 -60.5 -16t-34.5 -45h-137q20 88 92.5 132.5t161.5 44.5q108 0 156 -65q81 60 179 60zM642 378q-93 0 -130 -92h218q4 46 -20 69t-68 23zM223 102q67 0 140 46q-4 26 -4 41h-151q-24 0 -40 -11.5t-16 -29.5q0 -19 17 -32.5t54 -13.5z" />
    <glyph glyph-name="ccedilla" unicode="&#xe7;" horiz-adv-x="571" 
d="M315 366q-54 0 -93 -36t-49 -91q-10 -57 16.5 -91.5t81.5 -34.5q39 0 70.5 20.5t44.5 54.5h139q-27 -88 -104.5 -143.5t-171.5 -55.5q-115 0 -174 68.5t-39 181.5q19 107 105.5 178.5t195.5 71.5q95 0 152.5 -55.5t53.5 -143.5h-139q-1 35 -25 55.5t-64 20.5zM170 -48
h136l-92 -165h-119z" />
    <glyph glyph-name="egrave" unicode="&#xe8;" horiz-adv-x="566" 
d="M282 537l-100 154h152l74 -154h-126zM332 489q104 0 159.5 -66t39.5 -174q-2 -14 -5.5 -27.5t-6 -22t-2.5 -10.5h-346q6 -38 32 -60.5t71 -22.5q59 0 82 34h150q-32 -70 -99 -110.5t-154 -40.5q-114 0 -174 71.5t-42 178.5q18 108 102 179t193 71zM316 378
q-93 0 -130 -92h217q4 46 -19.5 69t-67.5 23z" />
    <glyph glyph-name="eacute" unicode="&#xe9;" horiz-adv-x="566" 
d="M409 537h-126l101 154h152zM332 489q104 0 159.5 -66t39.5 -174q-2 -14 -5.5 -27.5t-6 -22t-2.5 -10.5h-346q6 -38 32 -60.5t71 -22.5q59 0 82 34h150q-32 -70 -99 -110.5t-154 -40.5q-114 0 -174 71.5t-42 178.5q18 108 102 179t193 71zM316 378q-93 0 -130 -92h217
q4 46 -19.5 69t-67.5 23z" />
    <glyph glyph-name="ecircumflex" unicode="&#xea;" horiz-adv-x="566" 
d="M293 528h-130l145 157h130l90 -157h-120l-46 80zM332 489q104 0 159.5 -66t39.5 -174q-2 -14 -5.5 -27.5t-6 -22t-2.5 -10.5h-346q6 -38 32 -60.5t71 -22.5q59 0 82 34h150q-32 -70 -99 -110.5t-154 -40.5q-114 0 -174 71.5t-42 178.5q18 108 102 179t193 71zM316 378
q-93 0 -130 -92h217q4 46 -19.5 69t-67.5 23z" />
    <glyph glyph-name="edieresis" unicode="&#xeb;" horiz-adv-x="566" 
d="M231 535q-33 0 -56.5 22t-23.5 55q0 32 23.5 54t56.5 22q34 0 57 -22t23 -54q0 -33 -23 -55t-57 -22zM441 535q-34 0 -57 22t-23 55q0 32 23 54t57 22q33 0 56.5 -22t23.5 -54q0 -33 -23.5 -55t-56.5 -22zM332 489q104 0 159.5 -66t39.5 -174q-2 -14 -5.5 -27.5t-6 -22
t-2.5 -10.5h-346q6 -38 32 -60.5t71 -22.5q59 0 82 34h150q-32 -70 -99 -110.5t-154 -40.5q-114 0 -174 71.5t-42 178.5q18 108 102 179t193 71zM316 378q-93 0 -130 -92h217q4 46 -19.5 69t-67.5 23z" />
    <glyph glyph-name="igrave" unicode="&#xec;" horiz-adv-x="260" 
d="M246 537h-126l-100 154h152zM241 479l-84 -479h-139l84 479h139z" />
    <glyph glyph-name="iacute" unicode="&#xed;" horiz-adv-x="260" 
d="M373 691l-126 -154h-126l101 154h151zM241 479l-84 -479h-139l84 479h139z" />
    <glyph glyph-name="icircumflex" unicode="&#xee;" horiz-adv-x="260" 
d="M200 608l-69 -80h-130l145 157h130l90 -157h-120zM241 479l-84 -479h-139l84 479h139z" />
    <glyph glyph-name="idieresis" unicode="&#xef;" horiz-adv-x="260" 
d="M69 688q34 0 57 -22t23 -54q0 -33 -23 -55t-57 -22q-33 0 -56.5 22t-23.5 55q0 32 23.5 54t56.5 22zM279 688q33 0 56 -22t23 -54q0 -33 -23 -55t-56 -22q-34 0 -57 22t-23 55q0 32 23 54t57 22zM241 479l-84 -479h-139l84 479h139z" />
    <glyph glyph-name="eth" unicode="&#xf0;" horiz-adv-x="588" 
d="M527 614l-57 -20q88 -111 88 -280q0 -146 -89.5 -237.5t-217.5 -91.5q-98 0 -157.5 60t-59.5 154q0 122 87.5 206t204.5 84q44 0 77 -14q-22 43 -58 77l-163 -55l-18 87l97 30q-17 11 -94 49l144 57q56 -28 89 -56l109 37zM272 109q61 0 102.5 44.5t41.5 106.5
q0 105 -99 105q-61 0 -102.5 -43.5t-41.5 -105.5q0 -47 26 -77t73 -30z" />
    <glyph glyph-name="ntilde" unicode="&#xf1;" 
d="M266 564h-93q-1 44 16.5 74t44.5 40.5t57 10t57 -12.5l29 -13q30 -11 43.5 -3.5t13.5 28.5h94q1 -44 -16 -73.5t-43.5 -41t-57 -10.5t-58.5 14l-30 13q-28 12 -42.5 3.5t-14.5 -29.5zM380 494q95 0 141 -63t27 -168l-45 -263h-139l44 251q10 57 -11.5 87t-70.5 30
q-54 0 -116 -60l-54 -308h-139l84 479h139l-6 -34q71 49 146 49z" />
    <glyph glyph-name="ograve" unicode="&#xf2;" horiz-adv-x="588" 
d="M411 537h-126l-100 154h152zM339 489q96 0 155.5 -59t59.5 -152q0 -122 -90 -207.5t-215 -85.5q-97 0 -156 60t-59 154q0 123 89.5 206.5t215.5 83.5zM272 109q61 0 102.5 44.5t41.5 106.5q0 45 -27 75t-72 30q-62 0 -103.5 -43.5t-41.5 -105.5q0 -46 27 -76.5t73 -30.5z
" />
    <glyph glyph-name="oacute" unicode="&#xf3;" horiz-adv-x="588" 
d="M539 691l-127 -154h-126l101 154h152zM339 489q96 0 155.5 -59t59.5 -152q0 -122 -90 -207.5t-215 -85.5q-97 0 -156 60t-59 154q0 123 89.5 206.5t215.5 83.5zM272 109q61 0 102.5 44.5t41.5 106.5q0 45 -27 75t-72 30q-62 0 -103.5 -43.5t-41.5 -105.5q0 -46 27 -76.5
t73 -30.5z" />
    <glyph glyph-name="ocircumflex" unicode="&#xf4;" horiz-adv-x="588" 
d="M365 608l-69 -80h-130l145 157h130l90 -157h-120zM339 489q96 0 155.5 -59t59.5 -152q0 -122 -90 -207.5t-215 -85.5q-97 0 -156 60t-59 154q0 123 89.5 206.5t215.5 83.5zM272 109q61 0 102.5 44.5t41.5 106.5q0 45 -27 75t-72 30q-62 0 -103.5 -43.5t-41.5 -105.5
q0 -46 27 -76.5t73 -30.5z" />
    <glyph glyph-name="otilde" unicode="&#xf5;" horiz-adv-x="588" 
d="M429 688h94q1 -44 -16 -73.5t-43.5 -41t-57 -10.5t-58.5 14l-30 13q-28 12 -42.5 3.5t-14.5 -29.5h-93q-1 44 16.5 74t44.5 40.5t57 10t57 -12.5l29 -13q30 -11 43.5 -3.5t13.5 28.5zM339 489q96 0 155.5 -59t59.5 -152q0 -122 -90 -207.5t-215 -85.5q-97 0 -156 60
t-59 154q0 123 89.5 206.5t215.5 83.5zM272 109q61 0 102.5 44.5t41.5 106.5q0 45 -27 75t-72 30q-62 0 -103.5 -43.5t-41.5 -105.5q0 -46 27 -76.5t73 -30.5z" />
    <glyph glyph-name="odieresis" unicode="&#xf6;" horiz-adv-x="588" 
d="M253 688q33 0 56.5 -22t23.5 -55q0 -32 -23.5 -54t-56.5 -22q-34 0 -57 22t-23 54q0 33 23 55t57 22zM462 688q34 0 57 -22t23 -55q0 -32 -23 -54t-57 -22q-33 0 -56.5 22t-23.5 54q0 33 23.5 55t56.5 22zM339 489q96 0 155.5 -59t59.5 -152q0 -122 -90 -207.5
t-215 -85.5q-97 0 -156 60t-59 154q0 123 89.5 206.5t215.5 83.5zM272 109q61 0 102.5 44.5t41.5 106.5q0 45 -27 75t-72 30q-62 0 -103.5 -43.5t-41.5 -105.5q0 -46 27 -76.5t73 -30.5z" />
    <glyph glyph-name="divide" unicode="&#xf7;" horiz-adv-x="686" 
d="M395 452q-33 0 -55.5 21.5t-22.5 53.5t22.5 53.5t55.5 21.5t56 -21.5t23 -53.5t-23 -53.5t-56 -21.5zM127 393h484l-23 -123h-483zM325 66q-32 0 -55 22t-23 53q0 32 23 54t55 22q33 0 56 -22t23 -54q0 -31 -23.5 -53t-55.5 -22z" />
    <glyph glyph-name="oslash" unicode="&#xf8;" horiz-adv-x="588" 
d="M569 439l-46 -45q31 -51 31 -116q0 -122 -90 -207.5t-215 -85.5q-64 0 -114 28l-48 -47l-72 69l49 48q-30 52 -30 116q0 123 89.5 206.5t215.5 83.5q64 0 111 -26l47 46zM172 216q0 -10 2 -24l173 169q-12 4 -30 4q-62 0 -103.5 -43.5t-41.5 -105.5zM416 260q0 14 -3 26
l-175 -172q17 -5 34 -5q61 0 102.5 44.5t41.5 106.5z" />
    <glyph glyph-name="ugrave" unicode="&#xf9;" horiz-adv-x="607" 
d="M291 537l-100 154h152l74 -154h-126zM582 479l-84 -479h-139l6 34q-71 -49 -146 -49q-95 0 -141 63t-27 167l46 264h139l-44 -251q-10 -57 11 -87t71 -30q53 0 115 60l54 308h139z" />
    <glyph glyph-name="uacute" unicode="&#xfa;" horiz-adv-x="607" 
d="M418 537h-126l101 154h152zM582 479l-84 -479h-139l6 34q-71 -49 -146 -49q-95 0 -141 63t-27 167l46 264h139l-44 -251q-10 -57 11 -87t71 -30q53 0 115 60l54 308h139z" />
    <glyph glyph-name="ucircumflex" unicode="&#xfb;" horiz-adv-x="607" 
d="M302 528h-130l145 157h130l90 -157h-120l-46 80zM582 479l-84 -479h-139l6 34q-71 -49 -146 -49q-95 0 -141 63t-27 167l46 264h139l-44 -251q-10 -57 11 -87t71 -30q53 0 115 60l54 308h139z" />
    <glyph glyph-name="udieresis" unicode="&#xfc;" horiz-adv-x="607" 
d="M240 535q-33 0 -56.5 22t-23.5 55q0 32 23.5 54t56.5 22q34 0 57 -22t23 -54q0 -33 -23 -55t-57 -22zM450 535q-34 0 -57 22t-23 55q0 32 23 54t57 22q33 0 56.5 -22t23.5 -54q0 -33 -23.5 -55t-56.5 -22zM582 479l-84 -479h-139l6 34q-71 -49 -146 -49q-95 0 -141 63
t-27 167l46 264h139l-44 -251q-10 -57 11 -87t71 -30q53 0 115 60l54 308h139z" />
    <glyph glyph-name="yacute" unicode="&#xfd;" horiz-adv-x="635" 
d="M432 537h-126l101 154h152zM651 480l-429 -710h-153l137 227l-144 483h148l95 -319l192 319h154z" />
    <glyph glyph-name="thorn" unicode="&#xfe;" horiz-adv-x="612" 
d="M380 489q87 0 143 -60t56 -151q0 -117 -87.5 -202.5t-199.5 -85.5q-78 0 -129 38l-46 -259h-139l161 911h139l-40 -228q66 37 142 37zM290 108q60 0 104.5 46t44.5 106q0 47 -28 79.5t-75 32.5q-71 0 -122 -56l-27 -153q32 -55 103 -55z" />
    <glyph glyph-name="ydieresis" unicode="&#xff;" horiz-adv-x="635" 
d="M254 535q-33 0 -56.5 22t-23.5 55q0 32 23.5 54t56.5 22q34 0 57 -22t23 -54q0 -33 -23 -55t-57 -22zM464 535q-34 0 -57 22t-23 55q0 32 23 54t57 22q33 0 56.5 -22t23.5 -54q0 -33 -23.5 -55t-56.5 -22zM651 480l-429 -710h-153l137 227l-144 483h148l95 -319l192 319
h154z" />
    <glyph glyph-name="Amacron" unicode="&#x100;" horiz-adv-x="755" 
d="M609 755h-282l19 100h281zM511 131h-302l-77 -131h-159l414 684h136l172 -684h-154zM481 262l-56 239l-140 -239h196z" />
    <glyph glyph-name="amacron" unicode="&#x101;" horiz-adv-x="612" 
d="M517 555h-282l19 100h281zM595 479l-84 -479h-139l5 29q-64 -39 -143 -39q-89 0 -144 58t-55 153q0 117 87.5 202.5t199.5 85.5q78 0 129 -37l5 27h139zM278 108q71 0 123 56l26 152q-32 56 -103 56q-60 0 -104.5 -46.5t-44.5 -106.5q0 -50 28 -80.5t75 -30.5z" />
    <glyph glyph-name="Abreve" unicode="&#x102;" horiz-adv-x="755" 
d="M465 753q-73 0 -110.5 42t-24.5 120h100q-12 -70 48 -70q26 0 47 17t27 53h104q-13 -78 -65 -120t-126 -42zM511 131h-302l-77 -131h-159l414 684h136l172 -684h-154zM481 262l-56 239l-140 -239h196z" />
    <glyph glyph-name="abreve" unicode="&#x103;" horiz-adv-x="612" 
d="M370 521q-73 0 -110.5 42t-24.5 120h100q-12 -70 48 -70q26 0 47 17t27 53h104q-13 -78 -65 -120t-126 -42zM595 479l-84 -479h-139l5 29q-64 -39 -143 -39q-89 0 -144 58t-55 153q0 117 87.5 202.5t199.5 85.5q78 0 129 -37l5 27h139zM278 108q71 0 123 56l26 152
q-32 56 -103 56q-60 0 -104.5 -46.5t-44.5 -106.5q0 -50 28 -80.5t75 -30.5z" />
    <glyph glyph-name="Aogonek" unicode="&#x104;" horiz-adv-x="755" 
d="M692 -56l13 -102q-28 -13 -75 -13q-67 0 -109 32.5t-42 86.5q0 50 55 84l-23 99h-302l-77 -131h-159l414 684h136l172 -684h-67q-34 -11 -34 -34q0 -28 54 -28q17 0 44 6zM481 262l-56 239l-140 -239h196z" />
    <glyph glyph-name="aogonek" unicode="&#x105;" horiz-adv-x="612" 
d="M498 -67q17 0 44 6l13 -102q-28 -13 -75 -13q-67 0 -109 32.5t-42 86.5q0 47 47 79l1 7q-64 -39 -143 -39q-89 0 -144 58t-55 153q0 117 87.5 202.5t199.5 85.5q78 0 129 -37l5 27h139l-84 -479h-10q-57 -9 -57 -39q0 -28 54 -28zM278 108q71 0 123 56l26 152
q-32 56 -103 56q-60 0 -104.5 -46.5t-44.5 -106.5q0 -50 28 -80.5t75 -30.5z" />
    <glyph glyph-name="Cacute" unicode="&#x106;" horiz-adv-x="791" 
d="M558 753h-126l101 154h152zM460 556q-93 0 -162 -61t-86 -155q-16 -97 32.5 -156.5t139.5 -59.5q63 0 124 41.5t89 109.5h148q-44 -131 -149 -210t-236 -79q-150 0 -235.5 100t-58.5 254q27 153 147.5 253.5t271.5 100.5q132 0 208.5 -79t74.5 -210h-148q-5 73 -46 112
t-114 39z" />
    <glyph glyph-name="cacute" unicode="&#x107;" horiz-adv-x="571" 
d="M408 537h-126l101 154h152zM315 366q-54 0 -93 -36t-49 -91q-10 -57 16.5 -91.5t81.5 -34.5q39 0 70.5 20.5t44.5 54.5h139q-27 -88 -104.5 -143.5t-171.5 -55.5q-115 0 -174 68.5t-39 181.5q19 107 105.5 178.5t195.5 71.5q95 0 152.5 -55.5t53.5 -143.5h-139
q-1 35 -25 55.5t-64 20.5z" />
    <glyph glyph-name="Cdotaccent" unicode="&#x10a;" horiz-adv-x="791" 
d="M522 747q-35 0 -59.5 23.5t-24.5 57.5t24.5 57t59.5 23t59 -23t24 -57t-24 -57.5t-59 -23.5zM460 556q-93 0 -162 -61t-86 -155q-16 -97 32.5 -156.5t139.5 -59.5q63 0 124 41.5t89 109.5h148q-44 -131 -149 -210t-236 -79q-150 0 -235.5 100t-58.5 254
q27 153 147.5 253.5t271.5 100.5q132 0 208.5 -79t74.5 -210h-148q-5 73 -46 112t-114 39z" />
    <glyph glyph-name="cdotaccent" unicode="&#x10b;" horiz-adv-x="571" 
d="M335 531q-35 0 -59.5 23.5t-24.5 57.5t24.5 57t59.5 23t59 -23t24 -57t-24 -57.5t-59 -23.5zM315 366q-54 0 -93 -36t-49 -91q-10 -57 16.5 -91.5t81.5 -34.5q39 0 70.5 20.5t44.5 54.5h139q-27 -88 -104.5 -143.5t-171.5 -55.5q-115 0 -174 68.5t-39 181.5
q19 107 105.5 178.5t195.5 71.5q95 0 152.5 -55.5t53.5 -143.5h-139q-1 35 -25 55.5t-64 20.5z" />
    <glyph glyph-name="Ccaron" unicode="&#x10c;" horiz-adv-x="791" 
d="M437 744l-90 156h120l47 -79l72 79h127l-144 -156h-132zM460 556q-93 0 -162 -61t-86 -155q-16 -97 32.5 -156.5t139.5 -59.5q63 0 124 41.5t89 109.5h148q-44 -131 -149 -210t-236 -79q-150 0 -235.5 100t-58.5 254q27 153 147.5 253.5t271.5 100.5q132 0 208.5 -79
t74.5 -210h-148q-5 73 -46 112t-114 39z" />
    <glyph glyph-name="ccaron" unicode="&#x10d;" horiz-adv-x="571" 
d="M277 528l-90 156h120l47 -79l72 79h127l-144 -156h-132zM337 489q95 0 152.5 -55.5t53.5 -143.5h-139q-1 35 -25 55.5t-64 20.5q-54 0 -93 -36t-49 -91q-10 -57 16.5 -91.5t81.5 -34.5q39 0 70.5 20.5t44.5 54.5h139q-27 -88 -104.5 -143.5t-171.5 -55.5
q-115 0 -174 68.5t-39 181.5q19 107 105.5 178.5t195.5 71.5z" />
    <glyph glyph-name="Dcaron" unicode="&#x10e;" horiz-adv-x="747" 
d="M353 744l-90 156h120l47 -79l72 79h127l-144 -156h-132zM146 680h264q139 0 225 -81t86 -206q0 -109 -59 -199.5t-158 -142t-214 -51.5h-264zM193 133h120q102 0 180.5 71t78.5 167q0 76 -52 126.5t-133 50.5h-120z" />
    <glyph glyph-name="dcaron" unicode="&#x10f;" horiz-adv-x="613" 
d="M497 710h139l-126 -710h-139l5 28q-65 -38 -142 -38q-87 0 -143.5 60t-56.5 151q0 117 87.5 202.5t199.5 85.5q78 0 130 -38zM817 710l-75 -204h-103l41 204h137zM277 107q73 0 123 57l27 151q-32 56 -104 56q-60 0 -104.5 -46t-44.5 -106q0 -47 28 -79.5t75 -32.5z" />
    <glyph glyph-name="Dcroat" unicode="&#x110;" horiz-adv-x="747" 
d="M146 680h264q139 0 225 -81t86 -206q0 -109 -59 -199.5t-158 -142t-214 -51.5h-264l49 276h-65l23 131h65zM193 133h120q102 0 180.5 71t78.5 167q0 76 -52 126.5t-133 50.5h-120l-25 -141h115l-23 -131h-115z" />
    <glyph glyph-name="dcroat" unicode="&#x111;" horiz-adv-x="613" 
d="M651 544h-44l-97 -544h-139l5 28q-65 -38 -142 -38q-87 0 -143.5 60t-56.5 151q0 117 87.5 202.5t199.5 85.5q78 0 130 -38l17 93h-143l19 110h143l10 56h139l-10 -56h44zM277 107q73 0 123 57l27 151q-32 56 -104 56q-60 0 -104.5 -46t-44.5 -106q0 -47 28 -79.5
t75 -32.5z" />
    <glyph glyph-name="Emacron" unicode="&#x112;" horiz-adv-x="613" 
d="M533 755h-282l19 100h281zM255 549l-26 -148h318l-23 -131h-318l-25 -139h360l-23 -131h-504l120 680h504l-23 -131h-360z" />
    <glyph glyph-name="emacron" unicode="&#x113;" horiz-adv-x="566" 
d="M493 555h-282l19 100h281zM332 489q104 0 159.5 -66t39.5 -174q-2 -14 -5.5 -27.5t-6 -22t-2.5 -10.5h-346q6 -38 32 -60.5t71 -22.5q59 0 82 34h150q-32 -70 -99 -110.5t-154 -40.5q-114 0 -174 71.5t-42 178.5q18 108 102 179t193 71zM316 378q-93 0 -130 -92h217
q4 46 -19.5 69t-67.5 23z" />
    <glyph glyph-name="Edotaccent" unicode="&#x116;" horiz-adv-x="613" 
d="M380 747q-35 0 -59.5 23.5t-24.5 57.5t24.5 57t59.5 23t59 -23t24 -57t-24 -57.5t-59 -23.5zM255 549l-26 -148h318l-23 -131h-318l-25 -139h360l-23 -131h-504l120 680h504l-23 -131h-360z" />
    <glyph glyph-name="edotaccent" unicode="&#x117;" horiz-adv-x="566" 
d="M336 531q-35 0 -59.5 23.5t-24.5 57.5t24.5 57t59.5 23t59 -23t24 -57t-24 -57.5t-59 -23.5zM332 489q104 0 159.5 -66t39.5 -174q-2 -14 -5.5 -27.5t-6 -22t-2.5 -10.5h-346q6 -38 32 -60.5t71 -22.5q59 0 82 34h150q-32 -70 -99 -110.5t-154 -40.5q-114 0 -174 71.5
t-42 178.5q18 108 102 179t193 71zM316 378q-93 0 -130 -92h217q4 46 -19.5 69t-67.5 23z" />
    <glyph glyph-name="Eogonek" unicode="&#x118;" horiz-adv-x="613" 
d="M255 549l-26 -148h318l-23 -131h-318l-25 -139h360l-23 -131h-14q-57 -9 -57 -39q0 -28 54 -28q17 0 44 6l13 -102q-28 -13 -75 -13q-67 0 -109 32.5t-42 86.5q0 32 22 57h-340l120 680h504l-23 -131h-360z" />
    <glyph glyph-name="eogonek" unicode="&#x119;" horiz-adv-x="566" 
d="M332 489q104 0 159.5 -66t39.5 -174q-2 -14 -5.5 -27.5t-6 -22t-2.5 -10.5h-346q6 -38 32 -60.5t71 -22.5q59 0 82 34h150q-24 -53 -69 -90q-25 -23 -31.5 -35t-6.5 -28q0 -37 54 -37q19 0 44 6l14 -102q-26 -12 -75 -12q-68 0 -109 32.5t-41 85.5q0 14 5 31
q-26 -2 -38 -2q-114 0 -174 71.5t-42 178.5q18 108 102 179t193 71zM316 378q-93 0 -130 -92h217q4 46 -19.5 69t-67.5 23z" />
    <glyph glyph-name="Ecaron" unicode="&#x11a;" horiz-adv-x="613" 
d="M334 744l-90 156h120l47 -79l72 79h127l-144 -156h-132zM255 549l-26 -148h318l-23 -131h-318l-25 -139h360l-23 -131h-504l120 680h504l-23 -131h-360z" />
    <glyph glyph-name="ecaron" unicode="&#x11b;" horiz-adv-x="566" 
d="M279 528l-90 156h120l47 -79l72 79h127l-144 -156h-132zM332 489q104 0 159.5 -66t39.5 -174q-2 -14 -5.5 -27.5t-6 -22t-2.5 -10.5h-346q6 -38 32 -60.5t71 -22.5q59 0 82 34h150q-32 -70 -99 -110.5t-154 -40.5q-114 0 -174 71.5t-42 178.5q18 108 102 179t193 71z
M316 378q-93 0 -130 -92h217q4 46 -19.5 69t-67.5 23z" />
    <glyph glyph-name="Gbreve" unicode="&#x11e;" horiz-adv-x="813" 
d="M491 753q-73 0 -110.5 42t-24.5 120h100q-12 -70 48 -70q26 0 47 17t27 53h104q-13 -78 -65 -120t-126 -42zM414 379h357l-8 -43l-59 -336h-111l8 94q-95 -108 -245 -108q-153 0 -236.5 101t-58.5 244q29 159 150.5 261t274.5 102q119 0 200 -65.5t88 -186.5h-145
q-20 120 -161 120q-96 0 -168.5 -63.5t-91.5 -167.5q-15 -86 32.5 -146.5t141.5 -60.5q69 0 123.5 34t86.5 93h-200z" />
    <glyph glyph-name="gbreve" unicode="&#x11f;" horiz-adv-x="613" 
d="M369 521q-73 0 -110.5 42t-24.5 120h100q-12 -70 48 -70q26 0 47 17t27 53h104q-13 -78 -65 -120t-126 -42zM595 479l-84 -473q-19 -111 -98.5 -175.5t-190.5 -64.5q-103 0 -163.5 57.5t-53.5 149.5h140q-2 -38 23.5 -60.5t74.5 -22.5q48 0 84 30.5t45 84.5l9 52
q-65 -38 -142 -38q-87 0 -144 59.5t-57 143.5q0 114 86 195t199 81q78 0 130 -38l3 19h139zM282 136q73 0 123 57l23 130q-30 57 -103 57q-61 0 -104 -41.5t-43 -99.5q0 -40 28.5 -71.5t75.5 -31.5z" />
    <glyph glyph-name="Gdotaccent" unicode="&#x120;" horiz-adv-x="813" 
d="M482 747q-35 0 -59.5 23.5t-24.5 57.5t24.5 57t59.5 23t59 -23t24 -57t-24 -57.5t-59 -23.5zM414 379h357l-8 -43l-59 -336h-111l8 94q-95 -108 -245 -108q-153 0 -236.5 101t-58.5 244q29 159 150.5 261t274.5 102q119 0 200 -65.5t88 -186.5h-145q-20 120 -161 120
q-96 0 -168.5 -63.5t-91.5 -167.5q-15 -86 32.5 -146.5t141.5 -60.5q69 0 123.5 34t86.5 93h-200z" />
    <glyph glyph-name="gdotaccent" unicode="&#x121;" horiz-adv-x="613" 
d="M359 531q-35 0 -59.5 23.5t-24.5 57.5t24.5 57t59.5 23t59 -23t24 -57t-24 -57.5t-59 -23.5zM595 479l-84 -473q-19 -111 -98.5 -175.5t-190.5 -64.5q-103 0 -163.5 57.5t-53.5 149.5h140q-2 -38 23.5 -60.5t74.5 -22.5q48 0 84 30.5t45 84.5l9 52q-65 -38 -142 -38
q-87 0 -144 59.5t-57 143.5q0 114 86 195t199 81q78 0 130 -38l3 19h139zM282 136q73 0 123 57l23 130q-30 57 -103 57q-61 0 -104 -41.5t-43 -99.5q0 -40 28.5 -71.5t75.5 -31.5z" />
    <glyph glyph-name="Gcommaaccent" unicode="&#x122;" horiz-adv-x="813" 
d="M414 379h357l-8 -43l-59 -336h-111l8 94q-95 -108 -245 -108q-153 0 -236.5 101t-58.5 244q29 159 150.5 261t274.5 102q119 0 200 -65.5t88 -186.5h-145q-20 120 -161 120q-96 0 -168.5 -63.5t-91.5 -167.5q-15 -86 32.5 -146.5t141.5 -60.5q69 0 123.5 34t86.5 93h-200
zM357 -44q32 0 54.5 -21t22.5 -51q0 -21 -13.5 -41.5t-77.5 -98.5h-75l58 78q-45 18 -45 62q0 30 22.5 51t53.5 21z" />
    <glyph glyph-name="gcommaaccent" unicode="&#x123;" horiz-adv-x="613" 
d="M359 523q-32 0 -54.5 21t-22.5 51q0 21 13.5 41.5t77.5 98.5h75l-58 -78q45 -18 45 -62q0 -30 -22.5 -51t-53.5 -21zM595 479l-84 -473q-19 -111 -98.5 -175.5t-190.5 -64.5q-103 0 -163.5 57.5t-53.5 149.5h140q-2 -38 23.5 -60.5t74.5 -22.5q48 0 84 30.5t45 84.5l9 52
q-65 -38 -142 -38q-87 0 -144 59.5t-57 143.5q0 114 86 195t199 81q78 0 130 -38l3 19h139zM282 136q73 0 123 57l23 130q-30 57 -103 57q-61 0 -104 -41.5t-43 -99.5q0 -40 28.5 -71.5t75.5 -31.5z" />
    <glyph glyph-name="Hbar" unicode="&#x126;" horiz-adv-x="729" 
d="M750 480h-46l-85 -480h-144l47 266h-305l-47 -266h-144l85 480h-47l20 112h46l16 88h144l-16 -88h305l16 88h144l-16 -88h48zM560 480h-305l-15 -82h305z" />
    <glyph glyph-name="hbar" unicode="&#x127;" 
d="M388 494q95 0 141 -63t27 -168l-45 -263h-139l44 251q10 57 -11.5 87t-70.5 30q-54 0 -116 -59l-54 -309h-139l102 577h-56l16 93h56l7 40h139l-7 -40h105l-16 -93h-105l-24 -132q71 49 146 49z" />
    <glyph glyph-name="Imacron" unicode="&#x12a;" horiz-adv-x="280" 
d="M392 855l-18 -100h-282l19 100h281zM170 0h-144l120 680h144z" />
    <glyph glyph-name="imacron" unicode="&#x12b;" horiz-adv-x="260" 
d="M344 655l-19 -100h-282l19 100h282zM241 479l-84 -479h-139l84 479h139z" />
    <glyph glyph-name="Iogonek" unicode="&#x12e;" horiz-adv-x="280" 
d="M157 -67q17 0 44 6l13 -102q-28 -13 -75 -13q-67 0 -109 32.5t-42 86.5q0 43 41 75l117 662h144l-120 -680h-10q-57 -9 -57 -39q0 -28 54 -28z" />
    <glyph glyph-name="iogonek" unicode="&#x12f;" horiz-adv-x="288" 
d="M214 730q35 0 59.5 -23.5t24.5 -58.5q0 -34 -24.5 -57t-59.5 -23t-59.5 23t-24.5 57q0 35 24.5 58.5t59.5 23.5zM174 0h-10q-57 -9 -57 -39q0 -28 54 -28q17 0 44 6l13 -102q-28 -13 -75 -13q-67 0 -109 32.5t-42 86.5q0 47 47 79l80 457h139z" />
    <glyph glyph-name="Idotaccent" unicode="&#x130;" horiz-adv-x="280" 
d="M221 751q-36 0 -61.5 24.5t-25.5 60.5q0 35 25.5 59.5t61.5 24.5q37 0 62.5 -24.5t25.5 -59.5q0 -36 -25.5 -60.5t-62.5 -24.5zM170 0h-144l120 680h144z" />
    <glyph glyph-name="dotlessi" unicode="&#x131;" horiz-adv-x="260" 
d="M242 479l-85 -479h-139l85 479h139z" />
    <glyph glyph-name="IJ" unicode="&#x132;" horiz-adv-x="889" 
d="M170 0h-144l120 680h144zM909 680l-74 -420q-24 -136 -108 -205.5t-205 -69.5q-110 0 -174.5 67.5t-50.5 175.5h146q-7 -51 17 -80t79 -29t97 39.5t54 104.5l73 417h146z" />
    <glyph glyph-name="ij" unicode="&#x133;" horiz-adv-x="551" 
d="M214 568q-35 0 -59.5 23t-24.5 57q0 35 24.5 58.5t59.5 23.5t59.5 -23.5t24.5 -58.5q0 -34 -24.5 -57t-59.5 -23zM502 568q-35 0 -59.5 23t-24.5 57q0 35 24.5 58.5t59.5 23.5t59.5 -23.5t24.5 -58.5q0 -34 -24.5 -57t-59.5 -23zM258 479l-84 -479h-139l84 479h139z
M540 479l-78 -444q-21 -115 -78.5 -170.5t-183.5 -57.5l9 119q56 8 79 26t32 65l81 462h139z" />
    <glyph glyph-name="Kcommaaccent" unicode="&#x136;" horiz-adv-x="721" 
d="M442 381l223 -381h-179l-162 270l-128 -120l-26 -150h-144l120 680h144l-55 -313l333 313h191zM314 -44q32 0 54.5 -21t22.5 -51q0 -21 -13.5 -41.5t-77.5 -98.5h-75l58 78q-45 18 -45 62q0 30 22.5 51t53.5 21z" />
    <glyph glyph-name="kcommaaccent" unicode="&#x137;" horiz-adv-x="584" 
d="M372 281l157 -281h-175l-95 180l-92 -82l-17 -98h-139l126 710h139l-76 -430l220 199h173zM230 -44q32 0 54.5 -21t22.5 -51q0 -21 -13.5 -41.5t-77.5 -98.5h-75l58 78q-45 18 -45 62q0 30 22.5 51t53.5 21z" />
    <glyph glyph-name="Lacute" unicode="&#x139;" horiz-adv-x="598" 
d="M294 753h-126l101 154h151zM541 129l-23 -129h-492l120 680h144l-97 -551h348z" />
    <glyph glyph-name="lacute" unicode="&#x13a;" horiz-adv-x="260" 
d="M415 922l-126 -154h-126l101 154h151zM283 710l-126 -710h-139l126 710h139z" />
    <glyph glyph-name="Lcommaaccent" unicode="&#x13b;" horiz-adv-x="598" 
d="M541 129l-23 -129h-492l120 680h144l-97 -551h348zM264 -44q32 0 54.5 -21t22.5 -51q0 -21 -13.5 -41.5t-77.5 -98.5h-75l58 78q-45 18 -45 62q0 30 22.5 51t53.5 21z" />
    <glyph glyph-name="lcommaaccent" unicode="&#x13c;" horiz-adv-x="260" 
d="M283 710l-126 -710h-139l126 710h139zM-20 -256l58 78q-45 18 -45 62q0 30 22.5 51t53.5 21q32 0 54.5 -21t22.5 -51q0 -21 -13.5 -41.5t-77.5 -98.5h-75z" />
    <glyph glyph-name="Lcaron" unicode="&#x13d;" horiz-adv-x="598" 
d="M541 129l-23 -129h-492l120 680h144l-97 -551h348zM439 476h-103l41 204h137z" />
    <glyph glyph-name="lcaron" unicode="&#x13e;" horiz-adv-x="260" 
d="M283 710l-126 -710h-139l126 710h139zM467 710l-75 -204h-103l41 204h137z" />
    <glyph glyph-name="Ldot" unicode="&#x13f;" horiz-adv-x="598" 
d="M541 129l-23 -129h-492l120 680h144l-97 -551h348zM401 270q-35 0 -59.5 23t-24.5 57t24.5 57.5t59.5 23.5t59 -23.5t24 -57.5t-24 -57t-59 -23z" />
    <glyph glyph-name="ldot" unicode="&#x140;" horiz-adv-x="428" 
d="M283 710l-126 -710h-139l126 710h139zM325 255q-35 0 -59 23.5t-24 57.5t24 57t59 23t59.5 -23t24.5 -57t-24.5 -57.5t-59.5 -23.5z" />
    <glyph glyph-name="Lslash" unicode="&#x141;" horiz-adv-x="598" 
d="M541 129l-23 -129h-492l42 239l-62 -22l21 118l62 22l57 323h144l-47 -268l169 61l-20 -118l-170 -61l-29 -165h348z" />
    <glyph glyph-name="lslash" unicode="&#x142;" horiz-adv-x="260" 
d="M280 354l-64 -24l-59 -330h-139l49 275l-66 -24l25 136l65 24l53 299h139l-43 -243l64 24z" />
    <glyph glyph-name="Nacute" unicode="&#x143;" horiz-adv-x="749" 
d="M502 753h-126l101 154h152zM759 680l-120 -680h-112l-283 419l-74 -419h-144l120 680h91l300 -438l78 438h144z" />
    <glyph glyph-name="nacute" unicode="&#x144;" 
d="M416 537h-126l101 154h152zM380 494q95 0 141 -63t27 -168l-45 -263h-139l44 251q10 57 -11.5 87t-70.5 30q-54 0 -116 -60l-54 -308h-139l84 479h139l-6 -34q71 49 146 49z" />
    <glyph glyph-name="Ncommaaccent" unicode="&#x145;" horiz-adv-x="749" 
d="M759 680l-120 -680h-112l-283 419l-74 -419h-144l120 680h91l300 -438l78 438h144zM331 -44q32 0 54.5 -21t22.5 -51q0 -21 -13.5 -41.5t-77.5 -98.5h-75l58 78q-45 18 -45 62q0 30 22.5 51t53.5 21z" />
    <glyph glyph-name="ncommaaccent" unicode="&#x146;" 
d="M380 494q95 0 141 -63t27 -168l-45 -263h-139l44 251q10 57 -11.5 87t-70.5 30q-54 0 -116 -60l-54 -308h-139l84 479h139l-6 -34q71 49 146 49zM242 -44q32 0 54.5 -21t22.5 -51q0 -21 -13.5 -41.5t-77.5 -98.5h-75l58 78q-45 18 -45 62q0 30 22.5 51t53.5 21z" />
    <glyph glyph-name="Ncaron" unicode="&#x147;" horiz-adv-x="749" 
d="M381 744l-90 156h120l47 -79l72 79h127l-144 -156h-132zM759 680l-120 -680h-112l-283 419l-74 -419h-144l120 680h91l300 -438l78 438h144z" />
    <glyph glyph-name="ncaron" unicode="&#x148;" 
d="M286 528l-90 156h120l47 -79l72 79h127l-144 -156h-132zM380 494q95 0 141 -63t27 -168l-45 -263h-139l44 251q10 57 -11.5 87t-70.5 30q-54 0 -116 -60l-54 -308h-139l84 479h139l-6 -34q71 49 146 49z" />
    <glyph glyph-name="Omacron" unicode="&#x14c;" horiz-adv-x="812" 
d="M669 855l-18 -100h-282l19 100h281zM482 694q135 0 219 -86t84 -216q0 -107 -59.5 -201.5t-156.5 -149.5t-204 -55q-134 0 -218.5 86.5t-84.5 215.5q0 107 60 201.5t157 149.5t203 55zM381 123q100 0 178.5 76t77.5 180q0 77 -45 127.5t-127 50.5q-102 0 -178 -75.5
t-76 -178.5q0 -77 45 -128.5t125 -51.5z" />
    <glyph glyph-name="omacron" unicode="&#x14d;" horiz-adv-x="588" 
d="M514 655l-18 -100h-282l19 100h281zM339 489q96 0 155.5 -59t59.5 -152q0 -122 -90 -207.5t-215 -85.5q-97 0 -156 60t-59 154q0 123 89.5 206.5t215.5 83.5zM272 109q61 0 102.5 44.5t41.5 106.5q0 45 -27 75t-72 30q-62 0 -103.5 -43.5t-41.5 -105.5q0 -46 27 -76.5
t73 -30.5z" />
    <glyph glyph-name="Ohungarumlaut" unicode="&#x150;" horiz-adv-x="812" 
d="M554 907l-81 -153h-113l56 153h138zM709 907l-81 -153h-113l55 153h139zM482 694q135 0 219 -86t84 -216q0 -107 -59.5 -201.5t-156.5 -149.5t-204 -55q-134 0 -218.5 86.5t-84.5 215.5q0 107 60 201.5t157 149.5t203 55zM381 123q100 0 178.5 76t77.5 180
q0 77 -45 127.5t-127 50.5q-102 0 -178 -75.5t-76 -178.5q0 -77 45 -128.5t125 -51.5z" />
    <glyph glyph-name="ohungarumlaut" unicode="&#x151;" horiz-adv-x="588" 
d="M397 691l-81 -153h-113l56 153h138zM552 691l-81 -153h-113l55 153h139zM339 489q96 0 155.5 -59t59.5 -152q0 -122 -90 -207.5t-215 -85.5q-97 0 -156 60t-59 154q0 123 89.5 206.5t215.5 83.5zM272 109q61 0 102.5 44.5t41.5 106.5q0 45 -27 75t-72 30
q-62 0 -103.5 -43.5t-41.5 -105.5q0 -46 27 -76.5t73 -30.5z" />
    <glyph glyph-name="OE" unicode="&#x152;" horiz-adv-x="1016" 
d="M658 549l-26 -148h318l-23 -131h-318l-25 -139h360l-23 -131h-539q-143 0 -231 81t-88 209q0 164 128.5 277t310.5 113h539l-23 -131h-360zM441 135l72 410h-34q-116 0 -192 -68t-76 -169q0 -77 52 -125t142 -48h36z" />
    <glyph glyph-name="oe" unicode="&#x153;" horiz-adv-x="945" 
d="M711 489q105 0 160 -66t39 -174q-5 -34 -14 -60h-346q6 -38 32 -60.5t71 -22.5q59 0 82 34h150q-32 -70 -99 -110.5t-154 -40.5q-115 0 -176 74q-88 -78 -207 -78q-97 0 -156 60t-59 154q0 123 89.5 206.5t215.5 83.5q112 0 172 -78q84 78 200 78zM695 378
q-91 0 -130 -92h218q4 46 -19.5 69t-68.5 23zM272 109q61 0 102.5 44.5t41.5 106.5q0 45 -27 75t-72 30q-62 0 -103.5 -43.5t-41.5 -105.5q0 -46 27 -76.5t73 -30.5z" />
    <glyph glyph-name="Racute" unicode="&#x154;" horiz-adv-x="690" 
d="M443 753h-126l101 154h152zM668 479q0 -83 -50 -148t-133 -96l145 -235h-166l-129 211h-128l-37 -211h-144l120 680h270q114 0 183 -54t69 -147zM231 344h141q61 0 106 32.5t45 81.5q0 42 -32.5 66t-83.5 24h-140z" />
    <glyph glyph-name="racute" unicode="&#x155;" horiz-adv-x="396" 
d="M330 537h-126l101 154h151zM240 479l-9 -54q77 62 179 62l-23 -132q-110 -4 -181 -68l-50 -287h-139l84 479h139z" />
    <glyph glyph-name="Rcommaaccent" unicode="&#x156;" horiz-adv-x="690" 
d="M668 479q0 -83 -50 -148t-133 -96l145 -235h-166l-129 211h-128l-37 -211h-144l120 680h270q114 0 183 -54t69 -147zM231 344h141q61 0 106 32.5t45 81.5q0 42 -32.5 66t-83.5 24h-140zM291 -44q32 0 54.5 -21t22.5 -51q0 -21 -13.5 -41.5t-77.5 -98.5h-75l58 78
q-45 18 -45 62q0 30 22.5 51t53.5 21z" />
    <glyph glyph-name="rcommaaccent" unicode="&#x157;" horiz-adv-x="396" 
d="M410 487l-23 -132q-110 -4 -181 -68l-50 -287h-139l84 479h139l-9 -54q77 62 179 62zM68 -44q32 0 54.5 -21t22.5 -51q0 -21 -13.5 -41.5t-77.5 -98.5h-75l58 78q-45 18 -45 62q0 30 22.5 51t53.5 21z" />
    <glyph glyph-name="Rcaron" unicode="&#x158;" horiz-adv-x="690" 
d="M322 744l-90 156h120l47 -79l72 79h127l-144 -156h-132zM668 479q0 -83 -50 -148t-133 -96l145 -235h-166l-129 211h-128l-37 -211h-144l120 680h270q114 0 183 -54t69 -147zM231 344h141q61 0 106 32.5t45 81.5q0 42 -32.5 66t-83.5 24h-140z" />
    <glyph glyph-name="rcaron" unicode="&#x159;" horiz-adv-x="396" 
d="M199 528l-90 156h120l47 -79l72 79h127l-144 -156h-132zM240 479l-9 -54q77 62 179 62l-23 -132q-110 -4 -181 -68l-50 -287h-139l84 479h139z" />
    <glyph glyph-name="Sacute" unicode="&#x15a;" horiz-adv-x="671" 
d="M600 907l-127 -154h-126l101 154h152zM412 695q47 0 89 -10.5t80.5 -34.5t58.5 -69.5t15 -108.5h-144q2 47 -25 73.5t-86 26.5q-60 0 -96.5 -25t-36.5 -69q0 -50 83 -67l81 -17q88 -20 133 -57.5t45 -103.5q0 -110 -87.5 -178.5t-224.5 -68.5q-125 0 -195.5 63.5
t-60.5 175.5h144q-1 -58 33.5 -85t108.5 -27q59 0 92.5 22t33.5 60q0 47 -74 61l-107 21q-170 35 -163 184q6 113 94.5 173.5t208.5 60.5z" />
    <glyph glyph-name="sacute" unicode="&#x15b;" horiz-adv-x="507" 
d="M498 691l-126 -154h-126l101 154h151zM19 166l126 -1q-1 -37 22.5 -54t65.5 -17q39 0 64 12.5t25 33.5q0 12 -11 21.5t-32 13.5l-97 17q-53 10 -86.5 39t-33.5 80q0 83 66.5 132t171.5 49q35 0 66.5 -7t62 -23.5t46.5 -50.5t11 -82l-127 -1q3 31 -18.5 45.5t-58.5 14.5
t-58 -13.5t-21 -32.5q0 -31 49 -40l85 -14q123 -24 123 -118q0 -87 -70.5 -136t-177.5 -49q-92 0 -147.5 43t-45.5 138z" />
    <glyph glyph-name="Scedilla" unicode="&#x15e;" horiz-adv-x="671" 
d="M412 695q47 0 89 -10.5t80.5 -34.5t58.5 -69.5t15 -108.5h-144q2 47 -25 73.5t-86 26.5q-60 0 -96.5 -25t-36.5 -69q0 -50 83 -67l81 -17q88 -20 133 -57.5t45 -103.5q0 -110 -87.5 -178.5t-224.5 -68.5q-125 0 -195.5 63.5t-60.5 175.5h144q-1 -58 33.5 -85t108.5 -27
q59 0 92.5 22t33.5 60q0 47 -74 61l-107 21q-170 35 -163 184q6 113 94.5 173.5t208.5 60.5zM251 -215h-119l75 165h136z" />
    <glyph glyph-name="scedilla" unicode="&#x15f;" horiz-adv-x="507" 
d="M19 166l126 -1q-1 -37 22.5 -54t65.5 -17q39 0 64 12.5t25 33.5q0 12 -11 21.5t-32 13.5l-97 17q-53 10 -86.5 39t-33.5 80q0 83 66.5 132t171.5 49q35 0 66.5 -7t62 -23.5t46.5 -50.5t11 -82l-127 -1q3 31 -18.5 45.5t-58.5 14.5t-58 -13.5t-21 -32.5q0 -31 49 -40
l85 -14q123 -24 123 -118q0 -87 -70.5 -136t-177.5 -49q-92 0 -147.5 43t-45.5 138zM175 -215h-119l75 165h136z" />
    <glyph glyph-name="Scaron" unicode="&#x160;" horiz-adv-x="671" 
d="M628 900l-144 -156h-132l-90 156h120l47 -79l72 79h127zM412 695q47 0 89 -10.5t80.5 -34.5t58.5 -69.5t15 -108.5h-144q2 47 -25 73.5t-86 26.5q-60 0 -96.5 -25t-36.5 -69q0 -50 83 -67l81 -17q88 -20 133 -57.5t45 -103.5q0 -110 -87.5 -178.5t-224.5 -68.5
q-125 0 -195.5 63.5t-60.5 175.5h144q-1 -58 33.5 -85t108.5 -27q59 0 92.5 22t33.5 60q0 47 -74 61l-107 21q-170 35 -163 184q6 113 94.5 173.5t208.5 60.5z" />
    <glyph glyph-name="scaron" unicode="&#x161;" horiz-adv-x="507" 
d="M518 684l-144 -156h-132l-90 156h120l47 -79l72 79h127zM19 166l126 -1q-1 -37 22.5 -54t65.5 -17q39 0 64 12.5t25 33.5q0 12 -11 21.5t-32 13.5l-97 17q-53 10 -86.5 39t-33.5 80q0 83 66.5 132t171.5 49q35 0 66.5 -7t62 -23.5t46.5 -50.5t11 -82l-127 -1
q3 31 -18.5 45.5t-58.5 14.5t-58 -13.5t-21 -32.5q0 -31 49 -40l85 -14q123 -24 123 -118q0 -87 -70.5 -136t-177.5 -49q-92 0 -147.5 43t-45.5 138z" />
    <glyph glyph-name="Tcedilla" unicode="&#x162;" horiz-adv-x="651" 
d="M679 548h-228l-97 -548h-144l97 548h-227l23 132h599zM200 -50h136l-92 -165h-119z" />
    <glyph glyph-name="tcedilla" unicode="&#x163;" horiz-adv-x="455" 
d="M270 362l-30 -170q-15 -79 60 -79q37 0 93 14l-3 -120q-75 -22 -127 -22q-86 0 -132 58.5t-30 147.5l30 171h-100l20 117h101l30 171h139l-30 -171h172l-20 -117h-173zM150 -50h136l-92 -165h-119z" />
    <glyph glyph-name="Tcaron" unicode="&#x164;" horiz-adv-x="651" 
d="M341 744l-90 156h120l47 -79l72 79h127l-144 -156h-132zM679 548h-228l-97 -548h-144l97 548h-227l23 132h599z" />
    <glyph glyph-name="tcaron" unicode="&#x165;" horiz-adv-x="455" 
d="M443 510h-103l41 204h137zM291 479h172l-20 -117h-173l-30 -170q-15 -79 60 -79q37 0 93 14l-3 -120q-75 -22 -127 -22q-86 0 -132 58.5t-30 147.5l30 171h-100l20 117h101l30 171h139z" />
    <glyph glyph-name="Umacron" unicode="&#x16a;" horiz-adv-x="730" 
d="M604 855l-18 -100h-282l19 100h281zM750 680l-65 -371q-59 -324 -365 -324q-138 0 -207 91t-43 233l65 371h145l-66 -372q-15 -87 17.5 -137.5t111.5 -50.5q74 0 128 51.5t69 136.5l66 372h144z" />
    <glyph glyph-name="umacron" unicode="&#x16b;" horiz-adv-x="607" 
d="M502 555h-282l19 100h281zM582 479l-84 -479h-139l6 34q-71 -49 -146 -49q-95 0 -141 63t-27 167l46 264h139l-44 -251q-10 -57 11 -87t71 -30q53 0 115 60l54 308h139z" />
    <glyph glyph-name="Uring" unicode="&#x16e;" horiz-adv-x="730" 
d="M455 976q53 0 85.5 -30t32.5 -79q0 -50 -32.5 -80.5t-85.5 -30.5t-85.5 30.5t-32.5 80.5q0 49 32.5 79t85.5 30zM455 824q20 0 32 12t12 31t-12 30.5t-32 11.5q-19 0 -31 -11.5t-12 -30.5t12 -31t31 -12zM750 680l-65 -371q-59 -324 -365 -324q-138 0 -207 91t-43 233
l65 371h145l-66 -372q-15 -87 17.5 -137.5t111.5 -50.5q74 0 128 51.5t69 136.5l66 372h144z" />
    <glyph glyph-name="uring" unicode="&#x16f;" horiz-adv-x="607" 
d="M345 523q-53 0 -85.5 30.5t-32.5 80.5q0 49 32.5 79t85.5 30t85.5 -30t32.5 -79q0 -50 -32.5 -80.5t-85.5 -30.5zM345 676q-19 0 -31 -11.5t-12 -30.5q0 -20 12 -31.5t31 -11.5q20 0 32 12t12 31t-12 30.5t-32 11.5zM582 479l-84 -479h-139l6 34q-71 -49 -146 -49
q-95 0 -141 63t-27 167l46 264h139l-44 -251q-10 -57 11 -87t71 -30q53 0 115 60l54 308h139z" />
    <glyph glyph-name="Uhungarumlaut" unicode="&#x170;" horiz-adv-x="730" 
d="M490 907l-81 -153h-113l56 153h138zM645 907l-81 -153h-113l55 153h139zM750 680l-65 -371q-59 -324 -365 -324q-138 0 -207 91t-43 233l65 371h145l-66 -372q-15 -87 17.5 -137.5t111.5 -50.5q74 0 128 51.5t69 136.5l66 372h144z" />
    <glyph glyph-name="uhungarumlaut" unicode="&#x171;" horiz-adv-x="607" 
d="M322 538h-113l56 153h138zM364 538l55 153h139l-81 -153h-113zM582 479l-84 -479h-139l6 34q-71 -49 -146 -49q-95 0 -141 63t-27 167l46 264h139l-44 -251q-10 -57 11 -87t71 -30q53 0 115 60l54 308h139z" />
    <glyph glyph-name="Uogonek" unicode="&#x172;" horiz-adv-x="730" 
d="M750 680l-65 -371q-38 -206 -176 -281q-74 -54 -74 -95q0 -35 49 -35q18 0 45 6l13 -114q-32 -10 -75 -10q-67 0 -106.5 32t-39.5 85q0 44 40 90q-26 -2 -41 -2q-138 0 -207 91t-43 233l65 371h145l-66 -372q-15 -87 17.5 -137.5t111.5 -50.5q74 0 128 51.5t69 136.5
l66 372h144z" />
    <glyph glyph-name="uogonek" unicode="&#x173;" horiz-adv-x="607" 
d="M487 -67q17 0 44 6l13 -102q-28 -13 -75 -13q-67 0 -109 32.5t-42 86.5q0 45 45 78l2 13q-71 -49 -146 -49q-95 0 -141 63t-27 167l46 264h139l-44 -251q-10 -57 11 -87t71 -30q53 0 115 60l54 308h139l-84 -479h-8q-57 -9 -57 -39q0 -28 54 -28z" />
    <glyph glyph-name="Wcircumflex" unicode="&#x174;" horiz-adv-x="1079" 
d="M581 754h-130l145 157h130l90 -157h-120l-46 80zM785 -2v-2h-142l-70 423l-227 -423h-141l-102 684h152l61 -443l239 443h122v-3l74 -448l220 451h157z" />
    <glyph glyph-name="wcircumflex" unicode="&#x175;" horiz-adv-x="798" 
d="M400 528h-130l145 157h130l90 -157h-120l-46 80zM826 479l-245 -479h-136l-42 264l-134 -264h-122l-91 479h149l41 -267l138 267h115l43 -268l135 268h149z" />
    <glyph glyph-name="Ycircumflex" unicode="&#x176;" horiz-adv-x="695" 
d="M366 754h-130l145 157h130l90 -157h-120l-46 80zM417 219l-38 -219h-146l38 220l-189 460h159l122 -300l227 300h179z" />
    <glyph glyph-name="ycircumflex" unicode="&#x177;" horiz-adv-x="635" 
d="M316 528h-130l145 157h130l90 -157h-120l-46 80zM651 480l-429 -710h-153l137 227l-144 483h148l95 -319l192 319h154z" />
    <glyph glyph-name="Ydieresis" unicode="&#x178;" horiz-adv-x="695" 
d="M320 751q-33 0 -56.5 22t-23.5 55q0 32 23.5 54t56.5 22q34 0 57 -22t23 -54q0 -33 -23 -55t-57 -22zM530 751q-34 0 -57 22t-23 55q0 32 23 54t57 22q33 0 56.5 -22t23.5 -54q0 -33 -23.5 -55t-56.5 -22zM417 219l-38 -219h-146l38 220l-189 460h159l122 -300l227 300
h179z" />
    <glyph glyph-name="Zacute" unicode="&#x179;" horiz-adv-x="653" 
d="M478 753h-126l101 154h152zM669 611l-418 -481h340l-22 -130h-574l12 68h-1l435 482h-334l22 130h553l-11 -68z" />
    <glyph glyph-name="zacute" unicode="&#x17a;" horiz-adv-x="501" 
d="M368 537h-126l101 154h151zM498 404l-284 -289h234l-20 -115h-439l12 65l293 299h-235l20 115h433l-12 -74z" />
    <glyph glyph-name="Zdotaccent" unicode="&#x17b;" horiz-adv-x="653" 
d="M403 747q-35 0 -59.5 23.5t-24.5 57.5t24.5 57t59.5 23t59 -23t24 -57t-24 -57.5t-59 -23.5zM669 611l-418 -481h340l-22 -130h-574l12 68h-1l435 482h-334l22 130h553l-11 -68z" />
    <glyph glyph-name="zdotaccent" unicode="&#x17c;" horiz-adv-x="501" 
d="M295 531q-35 0 -59.5 23.5t-24.5 57.5t24.5 57t59.5 23t59 -23t24 -57t-24 -57.5t-59 -23.5zM498 404l-284 -289h234l-20 -115h-439l12 65l293 299h-235l20 115h433l-12 -74z" />
    <glyph glyph-name="Zcaron" unicode="&#x17d;" horiz-adv-x="653" 
d="M357 744l-90 156h120l47 -79l72 79h127l-144 -156h-132zM669 611l-418 -481h340l-22 -130h-574l12 68h-1l435 482h-334l22 130h553l-11 -68z" />
    <glyph glyph-name="zcaron" unicode="&#x17e;" horiz-adv-x="501" 
d="M237 528l-90 156h120l47 -79l72 79h127l-144 -156h-132zM79 479h433l-12 -74l-2 -1l-284 -289h234l-20 -115h-439l12 65l293 299h-235z" />
    <glyph glyph-name="florin" unicode="&#x192;" horiz-adv-x="586" 
d="M536 557q-81 0 -109 -88l-28 -90h164l-20 -115h-180l-51 -164q-31 -101 -94 -158.5t-152 -57.5q-59 0 -116 16l40 121q36 -9 70 -9q81 0 109 88l51 164h-127l20 115h143l28 90q31 101 94 158.5t152 57.5q61 0 116 -17l-40 -120q-43 9 -70 9z" />
    <glyph glyph-name="Acaron" unicode="&#x1cd;" horiz-adv-x="755" 
d="M400 744l-90 156h120l47 -79l72 79h127l-144 -156h-132zM511 131h-302l-77 -131h-159l414 684h136l172 -684h-154zM481 262l-56 239l-140 -239h196z" />
    <glyph glyph-name="acaron" unicode="&#x1ce;" horiz-adv-x="612" 
d="M303 528l-90 156h120l47 -79l72 79h127l-144 -156h-132zM595 479l-84 -479h-139l5 29q-64 -39 -143 -39q-89 0 -144 58t-55 153q0 117 87.5 202.5t199.5 85.5q78 0 129 -37l5 27h139zM278 108q71 0 123 56l26 152q-32 56 -103 56q-60 0 -104.5 -46.5t-44.5 -106.5
q0 -50 28 -80.5t75 -30.5z" />
    <glyph glyph-name="Scommaaccent" unicode="&#x218;" horiz-adv-x="671" 
d="M412 695q47 0 89 -10.5t80.5 -34.5t58.5 -69.5t15 -108.5h-144q2 47 -25 73.5t-86 26.5q-60 0 -96.5 -25t-36.5 -69q0 -50 83 -67l81 -17q88 -20 133 -57.5t45 -103.5q0 -110 -87.5 -178.5t-224.5 -68.5q-125 0 -195.5 63.5t-60.5 175.5h144q-1 -58 33.5 -85t108.5 -27
q59 0 92.5 22t33.5 60q0 47 -74 61l-107 21q-170 35 -163 184q6 113 94.5 173.5t208.5 60.5zM176 -256l58 78q-45 18 -45 62q0 30 22.5 51t53.5 21q32 0 54.5 -21t22.5 -51q0 -21 -13.5 -41.5t-77.5 -98.5h-75z" />
    <glyph glyph-name="scommaaccent" unicode="&#x219;" horiz-adv-x="507" 
d="M19 166l126 -1q-1 -37 22.5 -54t65.5 -17q39 0 64 12.5t25 33.5q0 12 -11 21.5t-32 13.5l-97 17q-53 10 -86.5 39t-33.5 80q0 83 66.5 132t171.5 49q35 0 66.5 -7t62 -23.5t46.5 -50.5t11 -82l-127 -1q3 31 -18.5 45.5t-58.5 14.5t-58 -13.5t-21 -32.5q0 -31 49 -40
l85 -14q123 -24 123 -118q0 -87 -70.5 -136t-177.5 -49q-92 0 -147.5 43t-45.5 138zM100 -256l58 78q-45 18 -45 62q0 30 22.5 51t53.5 21q32 0 54.5 -21t22.5 -51q0 -21 -13.5 -41.5t-77.5 -98.5h-75z" />
    <glyph glyph-name="uni021A" unicode="&#x21a;" horiz-adv-x="651" 
d="M679 548h-228l-97 -548h-144l97 548h-227l23 132h599zM258 -44q32 0 54.5 -21t22.5 -51q0 -21 -13.5 -41.5t-77.5 -98.5h-75l58 78q-45 18 -45 62q0 30 22.5 51t53.5 21z" />
    <glyph glyph-name="uni021B" unicode="&#x21b;" horiz-adv-x="455" 
d="M270 362l-30 -170q-15 -79 60 -79q37 0 93 14l-3 -120q-75 -22 -127 -22q-86 0 -132 58.5t-30 147.5l30 171h-100l20 117h101l30 171h139l-30 -171h172l-20 -117h-173zM208 -44q32 0 54.5 -21t22.5 -51q0 -21 -13.5 -41.5t-77.5 -98.5h-75l58 78q-45 18 -45 62
q0 30 22.5 51t53.5 21z" />
    <glyph glyph-name="circumflex" unicode="&#x2c6;" 
d="M336 627l-69 -80h-130l145 157h130l90 -157h-120z" />
    <glyph glyph-name="caron" unicode="&#x2c7;" 
d="M534 703l-144 -156h-132l-90 156h120l47 -79l72 79h127z" />
    <glyph glyph-name="breve" unicode="&#x2d8;" 
d="M399 698h104q-13 -78 -65 -120t-126 -42q-73 0 -110.5 42t-24.5 120h100q-12 -70 48 -70q26 0 47 17t27 53z" />
    <glyph glyph-name="dotaccent" unicode="&#x2d9;" 
d="M303 549q-35 0 -59.5 23.5t-24.5 57.5t24.5 57t59.5 23t59 -23t24 -57t-24 -57.5t-59 -23.5z" />
    <glyph glyph-name="ring" unicode="&#x2da;" 
d="M322 761q53 0 85.5 -30t32.5 -79q0 -50 -32.5 -80.5t-85.5 -30.5t-85.5 30.5t-32.5 80.5q0 49 32.5 79t85.5 30zM322 609q20 0 32 12t12 31t-12 30.5t-32 11.5q-19 0 -31 -11.5t-12 -30.5q0 -20 11.5 -31.5t31.5 -11.5z" />
    <glyph glyph-name="ogonek" unicode="&#x2db;" 
d="M358 65l13 -59q-63 -9 -63 -40q0 -28 54 -28q17 0 44 6l13 -102q-28 -13 -75 -13q-67 0 -109 32.5t-42 86.5q0 44 43.5 77t121.5 40z" />
    <glyph glyph-name="tilde" unicode="&#x2dc;" 
d="M411 705h94q1 -44 -16 -73.5t-43.5 -41t-57 -10.5t-58.5 14l-30 13q-28 12 -42.5 3.5t-14.5 -29.5h-93q-1 44 16.5 74t44.5 40.5t57 10t57 -12.5l29 -13q30 -11 43.5 -3.5t13.5 28.5z" />
    <glyph glyph-name="hungarumlaut" unicode="&#x2dd;" 
d="M358 709l-81 -153h-113l56 153h138zM513 709l-81 -153h-113l55 153h139z" />
    <glyph glyph-name="uni0326" unicode="&#x326;" horiz-adv-x="0" 
d="M206 -256l58 78q-45 18 -45 62q0 30 22.5 51t53.5 21q32 0 54.5 -21t22.5 -51q0 -21 -13.5 -41.5t-77.5 -98.5h-75z" />
    <glyph glyph-name="Wgrave" unicode="&#x1e80;" horiz-adv-x="1079" 
d="M565 753l-100 154h152l74 -154h-126zM785 -2v-2h-142l-70 423l-227 -423h-141l-102 684h152l61 -443l239 443h122v-3l74 -448l220 451h157z" />
    <glyph glyph-name="wgrave" unicode="&#x1e81;" horiz-adv-x="798" 
d="M389 537l-100 154h152l74 -154h-126zM826 479l-245 -479h-136l-42 264l-134 -264h-122l-91 479h149l41 -267l138 267h115l43 -268l135 268h149z" />
    <glyph glyph-name="Wacute" unicode="&#x1e82;" horiz-adv-x="1079" 
d="M693 753h-126l101 154h152zM785 -2v-2h-142l-70 423l-227 -423h-141l-102 684h152l61 -443l239 443h122v-3l74 -448l220 451h157z" />
    <glyph glyph-name="wacute" unicode="&#x1e83;" horiz-adv-x="798" 
d="M516 537h-126l101 154h152zM826 479l-245 -479h-136l-42 264l-134 -264h-122l-91 479h149l41 -267l138 267h115l43 -268l135 268h149z" />
    <glyph glyph-name="Wdieresis" unicode="&#x1e84;" horiz-adv-x="1079" 
d="M535 751q-33 0 -56.5 22t-23.5 55q0 32 23.5 54t56.5 22q34 0 57 -22t23 -54q0 -33 -23 -55t-57 -22zM745 751q-34 0 -57 22t-23 55q0 32 23 54t57 22q33 0 56.5 -22t23.5 -54q0 -33 -23.5 -55t-56.5 -22zM785 -2v-2h-142l-70 423l-227 -423h-141l-102 684h152l61 -443
l239 443h122v-3l74 -448l220 451h157z" />
    <glyph glyph-name="wdieresis" unicode="&#x1e85;" horiz-adv-x="798" 
d="M338 535q-33 0 -56.5 22t-23.5 55q0 32 23.5 54t56.5 22q34 0 57 -22t23 -54q0 -33 -23 -55t-57 -22zM548 535q-34 0 -57 22t-23 55q0 32 23 54t57 22q33 0 56.5 -22t23.5 -54q0 -33 -23.5 -55t-56.5 -22zM826 479l-245 -479h-136l-42 264l-134 -264h-122l-91 479h149
l41 -267l138 267h115l43 -268l135 268h149z" />
    <glyph glyph-name="Ygrave" unicode="&#x1ef2;" horiz-adv-x="695" 
d="M350 753l-100 154h152l74 -154h-126zM417 219l-38 -219h-146l38 220l-189 460h159l122 -300l227 300h179z" />
    <glyph glyph-name="ygrave" unicode="&#x1ef3;" horiz-adv-x="635" 
d="M305 537l-100 154h152l74 -154h-126zM651 480l-429 -710h-153l137 227l-144 483h148l95 -319l192 319h154z" />
    <glyph glyph-name="endash" unicode="&#x2013;" horiz-adv-x="699" 
d="M612 329l-24 -137h-497l24 137h497z" />
    <glyph glyph-name="emdash" unicode="&#x2014;" horiz-adv-x="1060" 
d="M973 329l-24 -137h-858l24 137h858z" />
    <glyph glyph-name="quoteleft" unicode="&#x2018;" horiz-adv-x="222" 
d="M264 679l-70 -104q48 -21 48 -66q0 -33 -23.5 -55.5t-57.5 -22.5q-35 0 -58.5 22.5t-23.5 55.5q0 41 48 100l56 70h81z" />
    <glyph glyph-name="quoteright" unicode="&#x2019;" horiz-adv-x="222" 
d="M76 441l70 105q-48 19 -48 66q0 32 23.5 54.5t57.5 22.5t57.5 -22.5t23.5 -54.5q0 -42 -47 -101l-56 -70h-81z" />
    <glyph glyph-name="quotesinglbase" unicode="&#x201a;" horiz-adv-x="222" 
d="M-22 -109l70 104q-48 20 -48 66q0 33 23.5 55.5t57.5 22.5t58 -22.5t24 -55.5q0 -41 -48 -100l-56 -70h-81z" />
    <glyph glyph-name="quotedblleft" unicode="&#x201c;" horiz-adv-x="416" 
d="M260 679l-70 -104q48 -20 48 -66q0 -33 -23.5 -55.5t-57.5 -22.5t-58 22.5t-24 55.5q0 41 48 100l56 70h81zM454 679l-70 -104q48 -20 48 -66q0 -33 -23.5 -55.5t-57.5 -22.5t-57.5 22.5t-23.5 55.5q0 42 47 100l56 70h81z" />
    <glyph glyph-name="quotedblright" unicode="&#x201d;" horiz-adv-x="416" 
d="M76 441l69 105q-48 20 -48 66q0 32 24 54.5t57 22.5q34 0 58 -22.5t24 -54.5q0 -41 -48 -101l-55 -70h-81zM270 441l70 105q-48 19 -48 66q0 32 23.5 54.5t56.5 22.5q34 0 58 -22.5t24 -54.5q0 -41 -47 -101l-56 -70h-81z" />
    <glyph glyph-name="quotedblbase" unicode="&#x201e;" horiz-adv-x="419" 
d="M-21 -109l70 104q-48 20 -48 66q0 33 23.5 55.5t57.5 22.5t57.5 -22.5t23.5 -55.5q0 -42 -47 -100l-56 -70h-81zM176 -109l69 104q-48 21 -48 66q0 33 24 55.5t57 22.5q35 0 58.5 -22.5t23.5 -55.5q0 -41 -48 -100l-55 -70h-81z" />
    <glyph glyph-name="dagger" unicode="&#x2020;" horiz-adv-x="406" 
d="M290 515l-38 -215h-89l37 215h-114l16 89h115l20 115h89l-20 -115h115l-16 -89h-115z" />
    <glyph glyph-name="daggerdbl" unicode="&#x2021;" horiz-adv-x="406" 
d="M292 485h115l-15 -90h-115l-17 -95h-89l16 95h-114l15 90h115l10 53h-115l15 89h116l15 92h89l-15 -92h115l-16 -89h-115z" />
    <glyph glyph-name="bullet" unicode="&#x2022;" horiz-adv-x="341" 
d="M180 157q-56 0 -98.5 42t-42.5 98t42.5 98t98.5 42t98.5 -42t42.5 -98t-42.5 -98t-98.5 -42z" />
    <glyph glyph-name="ellipsis" unicode="&#x2026;" horiz-adv-x="699" 
d="M82 -19q-34 0 -58 23t-24 57q0 33 24 56t58 23t58.5 -23t24.5 -56q0 -34 -24.5 -57t-58.5 -23zM322 -19q-34 0 -58 23t-24 57q0 33 24 56t58 23t58 -23t24 -56q0 -34 -24 -57t-58 -23zM557 -19q-34 0 -58 23t-24 57q0 33 24.5 56t57.5 23q35 0 59 -22.5t24 -56.5t-24 -57
t-59 -23z" />
    <glyph glyph-name="perthousand" unicode="&#x2030;" horiz-adv-x="1572" 
d="M330 695q76 0 123 -45.5t47 -119.5q0 -98 -71 -163.5t-169 -65.5q-76 0 -122.5 45.5t-46.5 120.5q0 98 70.5 163t168.5 65zM366 0h-96l463 680h95zM313 599q-48 0 -84 -33.5t-36 -83.5q0 -38 24 -61.5t61 -23.5q47 0 82.5 33.5t35.5 84.5q0 38 -23.5 61t-59.5 23z
M851 379q76 0 123 -45.5t47 -119.5q0 -98 -71 -163.5t-169 -65.5q-75 0 -122 45.5t-47 120.5q0 98 70.5 163t168.5 65zM1332 379q76 0 123 -45.5t47 -119.5q0 -98 -71 -163.5t-169 -65.5q-75 0 -122 45.5t-47 120.5q0 98 71 163t168 65zM834 283q-47 0 -83 -33.5t-36 -83.5
q0 -39 23.5 -62t60.5 -23q47 0 83 33.5t36 84.5q0 38 -23.5 61t-60.5 23zM1315 283q-47 0 -83 -33.5t-36 -83.5q0 -39 23.5 -62t60.5 -23q47 0 83 33.5t36 84.5q0 38 -23.5 61t-60.5 23z" />
    <glyph glyph-name="guilsinglleft" unicode="&#x2039;" horiz-adv-x="272" 
d="M273 408l-121 -161l65 -151h-130l-66 156l121 156h131z" />
    <glyph glyph-name="guilsinglright" unicode="&#x203a;" horiz-adv-x="272" 
d="M4 96l121 161l-66 151h131l65 -156l-121 -156h-130z" />
    <glyph glyph-name="fraction" unicode="&#x2044;" horiz-adv-x="505" 
d="M69 0h-95l462 680h95z" />
    <glyph glyph-name="zerosuperior" unicode="&#x2070;" horiz-adv-x="453" 
d="M309 701q78 0 120.5 -48.5t42.5 -125.5q0 -106 -66.5 -180t-173.5 -74q-77 0 -120 48.5t-43 125.5q0 106 67 180t173 74zM249 367q55 0 86.5 43.5t31.5 103.5q0 41 -18.5 67t-56.5 26q-55 0 -86.5 -43.5t-31.5 -103.5q0 -42 18.5 -67.5t56.5 -25.5z" />
    <glyph glyph-name="foursuperior" unicode="&#x2074;" horiz-adv-x="419" 
d="M412 360h-52l-13 -74h-100l13 74h-213l11 65l163 270h105l-144 -246h93l19 106h101l-19 -106h51z" />
    <glyph glyph-name="fivesuperior" unicode="&#x2075;" horiz-adv-x="396" 
d="M223 603l-9 -49h43q63 0 96 -30t33 -81q0 -71 -53 -118.5t-132 -47.5q-68 0 -104.5 34t-34.5 91h102q7 -37 53 -37q30 0 50.5 17.5t20.5 43.5q0 42 -51 42h-134l41 227h272l-17 -92h-176z" />
    <glyph glyph-name="sixsuperior" unicode="&#x2076;" horiz-adv-x="392" 
d="M370 695l-101 -125q58 -4 92 -38t34 -84q0 -70 -56 -120.5t-139 -50.5q-65 0 -104 37t-39 90q0 32 14 59t48 68l131 164h120zM215 360q32 0 54.5 20.5t22.5 50.5q0 24 -15 38.5t-40 14.5q-30 0 -51 -17q-29 -31 -29 -53q0 -23 16 -38.5t42 -15.5z" />
    <glyph glyph-name="sevensuperior" unicode="&#x2077;" horiz-adv-x="343" 
d="M406 695l-12 -62l-222 -347h-115l202 312h-175l17 97h305z" />
    <glyph glyph-name="eightsuperior" unicode="&#x2078;" horiz-adv-x="413" 
d="M358 497q44 -30 44 -81q0 -62 -53 -102.5t-140 -40.5q-70 0 -109 30t-39 79q0 79 79 117q-31 25 -31 66q0 59 50.5 97t124.5 38q61 0 97 -28.5t36 -75.5q0 -66 -59 -99zM270 621q-25 0 -43 -15.5t-18 -39.5q0 -19 12.5 -30t32.5 -11q25 0 43 16t18 40q0 18 -12.5 29
t-32.5 11zM224 358q28 0 46.5 15.5t18.5 40.5q0 18 -13 29.5t-35 11.5q-28 0 -46.5 -15.5t-18.5 -40.5q0 -19 13 -30t35 -11z" />
    <glyph glyph-name="ninesuperior" unicode="&#x2079;" horiz-adv-x="392" 
d="M279 701q65 0 104 -36.5t39 -90.5q0 -32 -14 -59t-48 -68l-131 -164h-120l101 125q-58 4 -91.5 38t-33.5 85q0 69 56 119.5t138 50.5zM242 494q30 0 51 17q29 31 29 53q0 23 -16 38.5t-42 15.5q-32 0 -54.5 -20.5t-22.5 -50.5q0 -24 15 -38.5t40 -14.5z" />
    <glyph glyph-name="zeroinferior" unicode="&#x2080;" horiz-adv-x="453" 
d="M228 239q78 0 120.5 -48.5t42.5 -125.5q0 -106 -66.5 -180t-173.5 -74q-77 0 -120 48.5t-43 125.5q0 106 67 180t173 74zM168 -96q55 0 86.5 44t31.5 104q0 41 -18.5 67t-56.5 26q-55 0 -86.5 -44t-31.5 -103q0 -42 18.5 -68t56.5 -26z" />
    <glyph glyph-name="oneinferior" unicode="&#x2081;" horiz-adv-x="340" 
d="M269 -95l-14 -85h-307l15 85h106l38 216l-106 -29l15 89l151 48h56l-57 -324h103z" />
    <glyph glyph-name="twoinferior" unicode="&#x2082;" horiz-adv-x="369" 
d="M138 -95h141l-15 -85h-304l9 52l174 158q39 35 51.5 51t12.5 33q0 33 -37 33q-52 0 -62 -51h-101q12 65 58.5 103.5t117.5 38.5q63 0 97 -30t34 -75q0 -34 -18.5 -65t-75.5 -85z" />
    <glyph glyph-name="threeinferior" unicode="&#x2083;" horiz-adv-x="382" 
d="M255 25q38 -24 38 -70q0 -60 -47 -102.5t-123 -42.5q-69 0 -108.5 35t-38.5 95h101q7 -42 54 -42q28 0 46 14t18 34q0 35 -61 35l2 13l-2 -13h-32l14 81h32q27 0 45 14.5t18 35.5q0 35 -40 35q-44 0 -55 -42h-101q16 60 61.5 95t109.5 35q58 0 90.5 -30t32.5 -78
q0 -67 -54 -102z" />
    <glyph glyph-name="fourinferior" unicode="&#x2084;" horiz-adv-x="419" 
d="M332 -106h-52l-13 -74h-100l13 74h-213l11 65l163 270h105l-144 -246h93l19 106h101l-19 -106h51z" />
    <glyph glyph-name="fiveinferior" unicode="&#x2085;" horiz-adv-x="396" 
d="M143 137l-9 -49h43q63 0 96 -30t33 -81q0 -71 -53 -118.5t-132 -47.5q-68 0 -104.5 34t-34.5 91h102q7 -37 53 -37q30 0 50.5 17.5t20.5 43.5q0 42 -51 42h-134l41 227h272l-17 -92h-176z" />
    <glyph glyph-name="sixinferior" unicode="&#x2086;" horiz-adv-x="392" 
d="M290 229l-101 -125q58 -4 92 -38t34 -85q0 -69 -56 -119.5t-139 -50.5q-65 0 -104 36.5t-39 90.5q0 32 14 59t48 68l131 164h120zM135 -106q32 0 54.5 20.5t22.5 50.5q0 24 -15 38.5t-40 14.5q-30 0 -51 -17q-29 -31 -29 -53q0 -23 16 -38.5t42 -15.5z" />
    <glyph glyph-name="seveninferior" unicode="&#x2087;" horiz-adv-x="343" 
d="M326 229l-12 -62l-222 -347h-115l202 312h-175l17 97h305z" />
    <glyph glyph-name="eightinferior" unicode="&#x2088;" horiz-adv-x="413" 
d="M278 35q44 -30 44 -81q0 -62 -53 -102.5t-140 -40.5q-70 0 -109 30t-39 79q0 79 79 117q-31 25 -31 66q0 59 50.5 97t124.5 38q61 0 97 -28.5t36 -75.5q0 -66 -59 -99zM190 158q-25 0 -43 -15t-18 -39q0 -19 12.5 -30t32.5 -11q25 0 43 16t18 40q0 18 -12.5 28.5
t-32.5 10.5zM144 -104q28 0 46.5 15.5t18.5 40.5q0 18 -13 29.5t-35 11.5q-28 0 -47 -16t-19 -41q0 -18 13.5 -29t35.5 -11z" />
    <glyph glyph-name="nineinferior" unicode="&#x2089;" horiz-adv-x="392" 
d="M199 239q65 0 104 -36.5t39 -90.5q0 -32 -14 -59t-48 -68l-131 -164h-120l101 125q-58 4 -91.5 38t-33.5 85q0 69 56 119.5t138 50.5zM162 32q30 0 51 17q29 31 29 53q0 23 -16 38.5t-42 15.5q-32 0 -54.5 -20.5t-22.5 -50.5q0 -24 15 -38.5t40 -14.5z" />
    <glyph glyph-name="Euro" unicode="&#x20ac;" horiz-adv-x="822" 
d="M491 556q-62 0 -115 -28t-87 -78h276l-40 -91h-278l-4 -19q-2 -12 -4 -38h263l-38 -91h-206q43 -87 157 -87q63 0 124 41.5t89 109.5h148q-44 -131 -149 -210t-236 -79q-115 0 -194.5 61t-99.5 164h-73l16 91h52q1 12 5 38l4 19h-51l16 91h66q53 110 158.5 177t226.5 67
q131 0 207.5 -79t74.5 -210h-148q-5 73 -46 112t-114 39z" />
    <glyph glyph-name="uni2116" unicode="&#x2116;" horiz-adv-x="1348" 
d="M1009 181q-97 0 -156 59.5t-59 154.5q0 123 89.5 206.5t215.5 83.5q97 0 156 -59t59 -152q0 -122 -90 -207.5t-215 -85.5zM759 680l-120 -680h-112l-283 419l-74 -419h-144l120 680h91l300 -438l78 438h144zM1077 561q-62 0 -103.5 -43.5t-41.5 -105.5q0 -47 26.5 -77
t73.5 -30q61 0 102.5 44.5t41.5 106.5q0 45 -27 75t-72 30zM763 117h482l-20 -117h-482z" />
    <glyph glyph-name="uni2117" unicode="&#x2117;" horiz-adv-x="829" 
d="M434 695q150 0 257 -102t107 -253t-107 -253t-257 -102t-257 102t-107 253t107 253t257 102zM433 608q-111 0 -191.5 -78t-80.5 -190t80.5 -190t191.5 -78t192 78t81 190t-81 190t-192 78zM321 506h136q58 0 93 -31t35 -82t-35 -80.5t-95 -29.5h-54v-87h-80v310zM401 432
v-78h55q46 0 46 40q0 17 -12.5 27.5t-33.5 10.5h-55z" />
    <glyph glyph-name="trademark" unicode="&#x2122;" horiz-adv-x="699" 
d="M263 606l-39 -219h-76l38 219h-94l13 73h265l-12 -73h-95zM731 679l-51 -292h-77l24 139l-88 -105h-41v1l-53 107l-24 -142h-76l51 292h56l83 -160l139 160h57z" />
    <glyph glyph-name="oneeighth" unicode="&#x215b;" horiz-adv-x="964" 
d="M28 271l15 85h106l38 216l-106 -29l15 89l151 48h56l-57 -324h103l-14 -85h-307zM778 680l-462 -680h-95l462 680h95zM860 214q44 -27 44 -80q0 -62 -53 -102.5t-139 -40.5q-70 0 -109 30t-39 79q0 79 79 117q-31 25 -31 66q0 59 50 97t125 38q60 0 96.5 -28.5
t36.5 -75.5q0 -65 -60 -100zM773 338q-25 0 -43 -15t-18 -39q0 -19 12 -30t32 -11q25 0 43.5 16t18.5 40q0 18 -12.5 28.5t-32.5 10.5zM726 76q29 0 47.5 15.5t18.5 40.5q0 18 -13 29.5t-35 11.5q-29 0 -47.5 -16t-18.5 -41q0 -18 13 -29t35 -11z" />
    <glyph glyph-name="threeeighths" unicode="&#x215c;" horiz-adv-x="939" 
d="M373 410q0 -60 -47 -102.5t-123 -42.5q-69 0 -108 35t-38 95h100q7 -42 54 -42q28 0 46 14t18 34q0 35 -61 35l2 13l-2 -13h-32l14 81h32q27 0 45 14.5t18 35.5q0 35 -40 35q-44 0 -55 -42h-100q15 60 60.5 95t109.5 35q58 0 90.5 -30t32.5 -78q0 -67 -54 -102
q38 -24 38 -70zM763 680l-463 -680h-95l462 680h96zM835 214q44 -27 44 -80q0 -62 -53 -102.5t-139 -40.5q-70 0 -109 30t-39 79q0 79 79 117q-31 25 -31 66q0 59 50 97t125 38q60 0 96.5 -28.5t36.5 -75.5q0 -65 -60 -100zM748 338q-25 0 -43 -15t-18 -39q0 -19 12 -30
t32 -11q25 0 43.5 16t18.5 40q0 18 -12.5 28.5t-32.5 10.5zM701 76q29 0 47.5 15.5t18.5 40.5q0 18 -13 29.5t-35 11.5q-29 0 -47.5 -16t-18.5 -41q0 -18 13 -29t35 -11z" />
    <glyph glyph-name="fiveeighths" unicode="&#x215d;" horiz-adv-x="945" 
d="M386 428q0 -71 -53 -118.5t-132 -47.5q-68 0 -104.5 34t-34.5 91h102q7 -37 53 -37q30 0 50.5 17.5t20.5 43.5q0 42 -51 42h-134l41 227h272l-17 -92h-176l-9 -49h43q63 0 96 -30t33 -81zM760 680l-462 -680h-96l463 680h95zM842 214q44 -27 44 -80q0 -62 -53 -102.5
t-140 -40.5q-70 0 -109 30t-39 79q0 79 80 117q-32 24 -32 66q0 59 50.5 97t125.5 38q60 0 96.5 -28.5t36.5 -75.5q0 -65 -60 -100zM754 338q-25 0 -43 -15t-18 -39q0 -19 12.5 -30t32.5 -11q25 0 43 16t18 40q0 18 -12.5 28.5t-32.5 10.5zM708 76q28 0 46.5 15.5t18.5 40.5
q0 18 -13 29.5t-35 11.5q-28 0 -46.5 -16t-18.5 -41q0 -18 13 -29t35 -11z" />
    <glyph glyph-name="seveneighths" unicode="&#x215e;" horiz-adv-x="842" 
d="M57 271l202 312h-175l17 97h305l-12 -62l-222 -347h-115zM659 680l-462 -680h-96l463 680h95zM739 214q44 -27 44 -80q0 -62 -53 -102.5t-139 -40.5q-70 0 -109.5 30.5t-39.5 78.5q0 77 80 117q-32 24 -32 66q0 59 50.5 97t125.5 38q60 0 96.5 -28.5t36.5 -75.5
q0 -65 -60 -100zM651 338q-25 0 -43 -15t-18 -39q0 -19 12.5 -30t32.5 -11q25 0 43 16t18 40q0 18 -12.5 28.5t-32.5 10.5zM605 76q28 0 47 16t19 40q0 18 -13.5 29.5t-35.5 11.5q-28 0 -46.5 -16t-18.5 -41q0 -18 13 -29t35 -11z" />
    <glyph glyph-name="arrowleft" unicode="&#x2190;" horiz-adv-x="766" 
d="M274 276l195 -189l-91 -91l-344 345l344 345l91 -91l-194 -188h451v-131h-452z" />
    <glyph glyph-name="arrowup" unicode="&#x2191;" horiz-adv-x="779" 
d="M325 452l-190 -195l-90 91l345 344l344 -344l-90 -91l-189 194v-451h-130v452z" />
    <glyph glyph-name="arrowright" unicode="&#x2192;" horiz-adv-x="766" 
d="M40 407h451l-194 188l91 91l344 -345l-344 -345l-91 91l195 189h-452v131z" />
    <glyph glyph-name="arrowdown" unicode="&#x2193;" horiz-adv-x="779" 
d="M455 680v-451l189 194l90 -91l-344 -344l-345 344l90 91l190 -195v452h130z" />
    <glyph glyph-name="arrowupleft" unicode="&#x2196;" horiz-adv-x="795" 
d="M678 -1l-461 461l1 -268h-128v488h488v-128l-269 1l461 -461z" />
    <glyph glyph-name="arrowupright" unicode="&#x2197;" horiz-adv-x="795" 
d="M485 553l-268 -1v128h488v-488h-128v268l-460 -461l-92 93z" />
    <glyph glyph-name="arrowdownright" unicode="&#x2198;" horiz-adv-x="795" 
d="M117 680l460 -460v268h128v-488h-488v128l268 -1l-460 461z" />
    <glyph glyph-name="arrowdownleft" unicode="&#x2199;" horiz-adv-x="795" 
d="M309 127l269 1v-128h-488v488h128l-1 -268l461 460l92 -92z" />
    <glyph glyph-name="minus" unicode="&#x2212;" horiz-adv-x="682" 
d="M127 393h480l-22 -123h-480z" />
    <glyph glyph-name="R.ss02" horiz-adv-x="701" 
d="M668 483q0 -101 -65.5 -172.5t-173.5 -91.5l201 -219h-179l-196 211h-48l-37 -211h-144l119 680h285q111 0 174.5 -53.5t63.5 -143.5zM231 344h136q68 0 112 32.5t44 84.5q0 40 -32 63.5t-88 23.5h-136z" />
    <glyph glyph-name="Racute.ss02" horiz-adv-x="701" 
d="M451 753h-126l101 154h152zM667 483q0 -100 -65.5 -172t-173.5 -93l202 -218h-180l-196 211h-47l-37 -211h-144l119 680h285q111 0 174 -53.5t63 -143.5zM230 344h137q68 0 112 32.5t44 84.5q0 40 -32 63.5t-88 23.5h-137z" />
    <glyph glyph-name="Rcaron.ss02" horiz-adv-x="701" 
d="M330 744l-90 156h120l47 -79l72 79h127l-144 -156h-132zM667 483q0 -100 -65.5 -172t-173.5 -93l202 -218h-180l-196 211h-47l-37 -211h-144l119 680h285q111 0 174 -53.5t63 -143.5zM230 344h137q68 0 112 32.5t44 84.5q0 40 -32 63.5t-88 23.5h-137z" />
    <glyph glyph-name="Rcommaaccent.ss02" horiz-adv-x="701" 
d="M667 483q0 -100 -65.5 -172t-173.5 -93l202 -218h-180l-196 211h-47l-37 -211h-144l119 680h285q111 0 174 -53.5t63 -143.5zM230 344h137q68 0 112 32.5t44 84.5q0 40 -32 63.5t-88 23.5h-137zM293 -44q32 0 54.5 -21t22.5 -51q0 -21 -13.5 -41.5t-77.5 -98.5h-75l58 78
q-45 18 -45 62q0 30 22.5 51t53.5 21z" />
    <glyph glyph-name="Q.ss03" horiz-adv-x="812" 
d="M482 694q135 0 219 -86t84 -216q0 -107 -59.5 -201.5t-156.5 -149.5t-204 -55q-134 0 -218.5 86.5t-84.5 215.5q0 107 60 201.5t157 149.5t203 55zM381 123q100 0 178.5 76t77.5 180q0 77 -45 127.5t-127 50.5q-102 0 -178 -75.5t-76 -178.5q0 -77 45 -128.5t125 -51.5z
M719 -92l-16 -133q-169 21 -330 70l12 103z" />
    <glyph glyph-name="i.loclTRK" horiz-adv-x="288" 
d="M214 568q-35 0 -59.5 23t-24.5 57q0 35 24.5 58.5t59.5 23.5t59.5 -23.5t24.5 -58.5q0 -34 -24.5 -57t-59.5 -23zM258 479l-84 -479h-139l84 479h139z" />
    <glyph glyph-name="germandbls.case" horiz-adv-x="1321" 
d="M412 695q47 0 89 -10.5t80.5 -34.5t58.5 -69.5t15 -108.5h-144q2 47 -25 73.5t-86 26.5q-60 0 -96.5 -25t-36.5 -69q0 -50 83 -67l81 -17q88 -20 133 -57.5t45 -103.5q0 -110 -87.5 -178.5t-224.5 -68.5q-125 0 -195.5 63.5t-60.5 175.5h144q-1 -58 33.5 -85t108.5 -27
q59 0 92.5 22t33.5 60q0 47 -74 61l-107 21q-170 35 -163 184q6 113 94.5 173.5t208.5 60.5zM1062 695q47 0 89 -10.5t80.5 -34.5t58.5 -69.5t15 -108.5h-144q2 47 -25 73.5t-86 26.5q-60 0 -96.5 -25t-36.5 -69q0 -50 83 -67l81 -17q88 -20 133 -57.5t45 -103.5
q0 -110 -87.5 -178.5t-224.5 -68.5q-125 0 -195.5 63.5t-60.5 175.5h144q-1 -58 33.5 -85t108.5 -27q59 0 92.5 22t33.5 60q0 47 -74 61l-107 21q-170 35 -163 184q6 113 94.5 173.5t208.5 60.5z" />
    <glyph glyph-name="l.ss01" horiz-adv-x="379" 
d="M279 710l-95 -538q-11 -60 47 -60q31 0 77 13l-3 -119q-75 -21 -120 -21q-83 0 -120 45.5t-23 129.5l98 550h139z" />
    <glyph glyph-name="lacute.ss01" horiz-adv-x="379" 
d="M410 922l-126 -154h-126l101 154h151zM279 710l-95 -538q-11 -60 47 -60q31 0 77 13l-3 -119q-75 -21 -120 -21q-83 0 -120 45.5t-23 129.5l98 550h139z" />
    <glyph glyph-name="lcaron.ss01" horiz-adv-x="379" 
d="M279 710l-95 -538q-11 -60 47 -60q31 0 77 13l-3 -119q-75 -21 -120 -21q-83 0 -120 45.5t-23 129.5l98 550h139zM483 710l-75 -204h-103l41 204h137z" />
    <glyph glyph-name="lcommaaccent.ss01" horiz-adv-x="379" 
d="M279 710l-95 -538q-11 -60 47 -60q31 0 77 13l-3 -119q-75 -21 -120 -21q-83 0 -120 45.5t-23 129.5l98 550h139zM67 -256l58 78q-45 18 -45 62q0 30 22.5 51t53.5 21q32 0 54.5 -21t22.5 -51q0 -21 -13.5 -41.5t-77.5 -98.5h-75z" />
    <glyph glyph-name="ldot.ss01" horiz-adv-x="429" 
d="M279 710l-95 -538q-11 -60 47 -60q31 0 77 13l-3 -119q-75 -21 -120 -21q-83 0 -120 45.5t-23 129.5l98 550h139zM324 255q-35 0 -59 23.5t-24 57.5t24 57t59 23t59.5 -23t24.5 -57t-24.5 -57.5t-59.5 -23.5z" />
    <glyph glyph-name="lslash.ss01" horiz-adv-x="379" 
d="M211 325l-27 -153q-11 -60 47 -60q31 0 77 13l-3 -119q-75 -21 -120 -21q-83 0 -120 45.5t-23 129.5l20 110l-52 -19l25 136l51 19l54 304h139l-44 -248l79 29l-23 -136z" />
    <glyph glyph-name="y.ss04" horiz-adv-x="607" 
d="M587 479l-83 -473q-19 -111 -99 -175.5t-190 -64.5q-105 0 -165 57.5t-51 149.5h140q-2 -38 23.5 -60.5t73.5 -22.5t83.5 30t45.5 85l11 60q-71 -49 -146 -49q-95 0 -141.5 63t-27.5 167l40 233h139l-39 -220q-10 -57 12 -87t71 -30q56 0 115 59l49 278h139z" />
    <glyph glyph-name="yacute.ss04" horiz-adv-x="607" 
d="M411 537h-126l101 154h152zM587 479l-83 -473q-19 -111 -98.5 -175.5t-190.5 -64.5q-105 0 -164.5 57.5t-50.5 149.5h140q-2 -37 23.5 -60t73.5 -23t83.5 30.5t44.5 84.5l11 60q-71 -49 -146 -49q-95 0 -141.5 63t-27.5 167l41 233h138l-38 -220q-10 -56 12 -86.5
t71 -30.5q55 0 114 59l49 278h139z" />
    <glyph glyph-name="ycircumflex.ss04" horiz-adv-x="607" 
d="M294 528h-130l145 157h130l90 -157h-120l-46 80zM587 479l-83 -473q-19 -111 -98.5 -175.5t-190.5 -64.5q-105 0 -164.5 57.5t-50.5 149.5h140q-2 -37 23.5 -60t73.5 -23t83.5 30.5t44.5 84.5l11 60q-71 -49 -146 -49q-95 0 -141.5 63t-27.5 167l41 233h138l-38 -220
q-10 -56 12 -86.5t71 -30.5q55 0 114 59l49 278h139z" />
    <glyph glyph-name="ydieresis.ss04" horiz-adv-x="607" 
d="M232 535q-33 0 -56.5 22t-23.5 55q0 32 23.5 54t56.5 22q34 0 57 -22t23 -54q0 -33 -23 -55t-57 -22zM442 535q-34 0 -57 22t-23 55q0 32 23 54t57 22q33 0 56.5 -22t23.5 -54q0 -33 -23.5 -55t-56.5 -22zM587 479l-83 -473q-19 -111 -98.5 -175.5t-190.5 -64.5
q-105 0 -164.5 57.5t-50.5 149.5h140q-2 -37 23.5 -60t73.5 -23t83.5 30.5t44.5 84.5l11 60q-71 -49 -146 -49q-95 0 -141.5 63t-27.5 167l41 233h138l-38 -220q-10 -56 12 -86.5t71 -30.5q55 0 114 59l49 278h139z" />
    <glyph glyph-name="ygrave.ss04" horiz-adv-x="607" 
d="M283 537l-100 154h152l74 -154h-126zM587 479l-83 -473q-19 -111 -98.5 -175.5t-190.5 -64.5q-105 0 -164.5 57.5t-50.5 149.5h140q-2 -37 23.5 -60t73.5 -23t83.5 30.5t44.5 84.5l11 60q-71 -49 -146 -49q-95 0 -141.5 63t-27.5 167l41 233h138l-38 -220
q-10 -56 12 -86.5t71 -30.5q55 0 114 59l49 278h139z" />
    <glyph glyph-name="a.ss06" horiz-adv-x="545" 
d="M321 494q100 0 150.5 -56t33.5 -152l-50 -286h-135l4 21q-65 -30 -131 -30q-82 0 -129 35.5t-47 96.5q0 78 58 120.5t155 42.5h140q18 92 -70 92q-34 0 -60 -16t-34 -45h-137q19 87 92 132t160 45zM223 102q60 0 121 35l9 52h-145q-25 0 -40.5 -11t-15.5 -30t17 -32.5
t54 -13.5z" />
    <glyph glyph-name="aacute.ss06" horiz-adv-x="545" 
d="M385 537h-126l101 154h151zM321 494q100 0 151 -56t34 -152l-51 -286h-135l4 21q-64 -30 -131 -30q-81 0 -128.5 35.5t-47.5 96.5q0 78 58.5 120.5t155.5 42.5h139q18 92 -69 92q-35 0 -61 -16t-34 -45h-137q20 87 92.5 132t159.5 45zM223 102q60 0 121 35l9 52h-145
q-24 0 -40 -11.5t-16 -29.5q0 -19 17 -32.5t54 -13.5z" />
    <glyph glyph-name="abreve.ss06" horiz-adv-x="545" 
d="M321 521q-73 0 -110.5 42t-24.5 120h100q-12 -70 48 -70q26 0 47 17t27 53h104q-13 -78 -65 -120t-126 -42zM321 494q100 0 151 -56t34 -152l-51 -286h-135l4 21q-64 -30 -131 -30q-81 0 -128.5 35.5t-47.5 96.5q0 78 58.5 120.5t155.5 42.5h139q18 92 -69 92
q-35 0 -61 -16t-34 -45h-137q20 87 92.5 132t159.5 45zM223 102q60 0 121 35l9 52h-145q-24 0 -40 -11.5t-16 -29.5q0 -19 17 -32.5t54 -13.5z" />
    <glyph glyph-name="acaron.ss06" horiz-adv-x="545" 
d="M255 528l-90 156h120l47 -79l72 79h127l-144 -156h-132zM321 494q100 0 151 -56t34 -152l-51 -286h-135l4 21q-64 -30 -131 -30q-81 0 -128.5 35.5t-47.5 96.5q0 78 58.5 120.5t155.5 42.5h139q18 92 -69 92q-35 0 -61 -16t-34 -45h-137q20 87 92.5 132t159.5 45z
M223 102q60 0 121 35l9 52h-145q-24 0 -40 -11.5t-16 -29.5q0 -19 17 -32.5t54 -13.5z" />
    <glyph glyph-name="acircumflex.ss06" horiz-adv-x="545" 
d="M269 528h-130l145 157h130l90 -157h-120l-46 80zM321 494q100 0 151 -56t34 -152l-51 -286h-135l4 21q-64 -30 -131 -30q-81 0 -128.5 35.5t-47.5 96.5q0 78 58.5 120.5t155.5 42.5h139q18 92 -69 92q-35 0 -61 -16t-34 -45h-137q20 87 92.5 132t159.5 45zM223 102
q60 0 121 35l9 52h-145q-24 0 -40 -11.5t-16 -29.5q0 -19 17 -32.5t54 -13.5z" />
    <glyph glyph-name="adieresis.ss06" horiz-adv-x="545" 
d="M207 535q-33 0 -56.5 22t-23.5 55q0 32 23.5 54t56.5 22q34 0 57 -22t23 -54q0 -33 -23 -55t-57 -22zM417 535q-34 0 -57 22t-23 55q0 32 23 54t57 22q33 0 56 -22t23 -54q0 -33 -23 -55t-56 -22zM321 494q100 0 151 -56t34 -152l-51 -286h-135l4 21q-64 -30 -131 -30
q-81 0 -128.5 35.5t-47.5 96.5q0 78 58.5 120.5t155.5 42.5h139q18 92 -69 92q-35 0 -61 -16t-34 -45h-137q20 87 92.5 132t159.5 45zM223 102q60 0 121 35l9 52h-145q-24 0 -40 -11.5t-16 -29.5q0 -19 17 -32.5t54 -13.5z" />
    <glyph glyph-name="agrave.ss06" horiz-adv-x="545" 
d="M258 537l-100 154h152l74 -154h-126zM321 494q100 0 151 -56t34 -152l-51 -286h-135l4 21q-64 -30 -131 -30q-81 0 -128.5 35.5t-47.5 96.5q0 78 58.5 120.5t155.5 42.5h139q18 92 -69 92q-35 0 -61 -16t-34 -45h-137q20 87 92.5 132t159.5 45zM223 102q60 0 121 35l9 52
h-145q-24 0 -40 -11.5t-16 -29.5q0 -19 17 -32.5t54 -13.5z" />
    <glyph glyph-name="amacron.ss06" horiz-adv-x="545" 
d="M469 555h-282l19 100h281zM321 494q100 0 151 -56t34 -152l-51 -286h-135l4 21q-64 -30 -131 -30q-81 0 -128.5 35.5t-47.5 96.5q0 78 58.5 120.5t155.5 42.5h139q18 92 -69 92q-35 0 -61 -16t-34 -45h-137q20 87 92.5 132t159.5 45zM223 102q60 0 121 35l9 52h-145
q-24 0 -40 -11.5t-16 -29.5q0 -19 17 -32.5t54 -13.5z" />
    <glyph glyph-name="aogonek.ss06" horiz-adv-x="545" 
d="M455 0h-3q-63 -9 -63 -40q0 -28 54 -28q17 0 44 6l13 -102q-28 -13 -75 -13q-67 0 -109 32.5t-42 86.5q0 43 40 74q-57 -25 -121 -25q-81 0 -128.5 35.5t-47.5 96.5q0 78 58.5 120.5t155.5 42.5h139q18 92 -69 92q-35 0 -61 -16t-34 -45h-137q20 87 92.5 132t159.5 45
q100 0 151 -56t34 -152zM152 148q0 -19 17 -32.5t54 -13.5q60 0 121 35l9 52h-145q-24 0 -40 -11.5t-16 -29.5z" />
    <glyph glyph-name="aring.ss06" horiz-adv-x="545" 
d="M312 523q-53 0 -85.5 30.5t-32.5 80.5q0 49 32.5 79t85.5 30t85.5 -30t32.5 -79q0 -50 -32.5 -80.5t-85.5 -30.5zM312 676q-19 0 -31 -11.5t-12 -30.5q0 -20 11.5 -31.5t31.5 -11.5t32 12t12 31t-12 30.5t-32 11.5zM321 494q100 0 151 -56t34 -152l-51 -286h-135l4 21
q-64 -30 -131 -30q-81 0 -128.5 35.5t-47.5 96.5q0 78 58.5 120.5t155.5 42.5h139q18 92 -69 92q-35 0 -61 -16t-34 -45h-137q20 87 92.5 132t159.5 45zM223 102q60 0 121 35l9 52h-145q-24 0 -40 -11.5t-16 -29.5q0 -19 17 -32.5t54 -13.5z" />
    <glyph glyph-name="atilde.ss06" horiz-adv-x="545" 
d="M234 564h-93q-1 44 16.5 74t44.5 40.5t57 10t57 -12.5l29 -13q30 -11 43.5 -3.5t13.5 28.5h94q1 -44 -16 -73.5t-43.5 -41t-57 -10.5t-58.5 14l-30 13q-28 12 -42.5 3.5t-14.5 -29.5zM321 494q100 0 151 -56t34 -152l-51 -286h-135l4 21q-64 -30 -131 -30
q-81 0 -128.5 35.5t-47.5 96.5q0 78 58.5 120.5t155.5 42.5h139q18 92 -69 92q-35 0 -61 -16t-34 -45h-137q20 87 92.5 132t159.5 45zM223 102q60 0 121 35l9 52h-145q-24 0 -40 -11.5t-16 -29.5q0 -19 17 -32.5t54 -13.5z" />
    <glyph glyph-name="zero.osf" horiz-adv-x="646" 
d="M375 555q109 0 176 -65t67 -171q0 -143 -96 -237t-238 -94q-108 0 -176.5 65.5t-68.5 170.5q0 143 97.5 237t238.5 94zM302 113q71 0 125 53.5t54 132.5q0 58 -34.5 94.5t-88.5 36.5q-73 0 -127.5 -53t-54.5 -132q0 -59 35 -95.5t91 -36.5z" />
    <glyph glyph-name="one.osf" horiz-adv-x="522" 
d="M486 118l-21 -118h-478l21 118h173l49 278l-173 -49l21 123l238 79h83l-76 -431h163z" />
    <glyph glyph-name="two.osf" horiz-adv-x="564" 
d="M532 375q0 -30 -7.5 -56t-25.5 -49t-35.5 -41t-49.5 -39t-56 -35t-65 -37h204l-20 -118h-466l13 74l160 102q9 6 40 25t42.5 27t36 25t35 27.5t24.5 25t19.5 28t5.5 26.5q0 28 -19 46.5t-59 18.5q-46 0 -77 -26.5t-42 -73.5h-139q20 102 93.5 163.5t183.5 61.5
q97 0 150.5 -50.5t53.5 -124.5z" />
    <glyph glyph-name="three.osf" horiz-adv-x="565" 
d="M430 201q67 -41 67 -120q0 -107 -73 -171.5t-200 -64.5q-102 0 -164 56t-60 149h139q7 -84 98 -84q53 0 88 28.5t35 70.5q0 35 -28 55.5t-76 20.5l3 18l-3 -18h-54l19 113h54q50 0 83 29.5t33 73.5q0 34 -20.5 53.5t-55.5 19.5q-86 0 -110 -84h-138q23 94 93.5 149.5
t175.5 55.5q87 0 138.5 -48t51.5 -126q0 -117 -96 -176z" />
    <glyph glyph-name="four.osf" horiz-adv-x="642" 
d="M570 1h-89l-23 -131h-138l23 131h-347l16 89l270 460h144l-244 -427h183l34 194h138l-34 -194h88z" />
    <glyph glyph-name="five.osf" horiz-adv-x="597" 
d="M257 416l-20 -114h86q94 0 148.5 -51.5t54.5 -133.5q0 -113 -84.5 -191t-209.5 -78q-109 0 -166.5 55t-54.5 150h139q10 -84 104 -84q57 0 96 36.5t39 88.5q0 39 -28.5 63t-78.5 24h-199l64 362h428l-23 -127h-295z" />
    <glyph glyph-name="six.osf" horiz-adv-x="620" 
d="M530 680l-171 -211q101 -2 161 -59t60 -145q0 -117 -89 -198.5t-225 -81.5q-103 0 -165 59.5t-62 149.5q0 53 22 96.5t74 107.5l228 282h167zM286 100q63 0 108 43t45 98q0 44 -30 74.5t-79 30.5t-91 -26l-1 -1q-37 -41 -48.5 -63t-11.5 -51q0 -43 30 -74t78 -31z" />
    <glyph glyph-name="seven.osf" horiz-adv-x="509" 
d="M550 540l-15 -85l-375 -595h-159l348 547h-303l23 133h481z" />
    <glyph glyph-name="eight.osf" horiz-adv-x="626" 
d="M492 358q81 -46 81 -137q0 -103 -85.5 -169.5t-224.5 -66.5q-111 0 -173.5 49t-62.5 130q0 65 36.5 116t103.5 81q-59 40 -59 114q0 95 80.5 157.5t199.5 62.5q96 0 153.5 -46.5t57.5 -121.5q0 -113 -107 -169zM369 585q-52 0 -87.5 -31t-35.5 -75q0 -35 24.5 -58
t65.5 -23q51 0 86.5 32t35.5 75q0 34 -24 57t-65 23zM283 102q55 0 95 34t40 80q0 36 -27.5 60.5t-72.5 24.5q-55 0 -94 -32.5t-39 -79.5q0 -37 27 -62t71 -25z" />
    <glyph glyph-name="nine.osf" horiz-adv-x="620" 
d="M368 559q103 0 165 -59.5t62 -149.5q0 -52 -22 -95t-74 -109l-228 -282h-166l170 211q-100 1 -161 58.5t-61 145.5q0 117 89.5 198.5t225.5 81.5zM395 224l1 1q37 41 48.5 63.5t11.5 50.5q0 43 -30 74t-79 31q-62 0 -107 -43t-45 -98q0 -44 30 -74t79 -30q50 0 91 25z
" />
    <glyph glyph-name="zero.tf" horiz-adv-x="643" 
d="M397 695q118 0 181 -76.5t63 -202.5q0 -182 -101 -306.5t-269 -124.5q-119 0 -182 77t-63 203q0 117 44 214.5t129.5 156.5t197.5 59zM287 114q51 0 92 25.5t66 67.5t38 91.5t15 103.5q3 74 -25.5 119t-90.5 45q-69 0 -118 -44.5t-70.5 -107t-24.5 -136.5
q-2 -74 26.5 -119t91.5 -45z" />
    <glyph glyph-name="one.tf" horiz-adv-x="643" 
d="M578 118l-21 -118h-529l21 118h193l72 409l-173 -49l22 123l237 79h83l-99 -562h194z" />
    <glyph glyph-name="two.tf" horiz-adv-x="643" 
d="M275 118h259l-21 -118h-465l12 73l252 253q15 15 44 43t40 39.5t26.5 30.5t20.5 33t5 30q0 28 -18.5 48t-57.5 20q-46 0 -77.5 -26.5t-43.5 -72.5h-138q21 102 94 163t183 61q98 0 152 -50.5t54 -125.5q0 -25 -7.5 -48t-16.5 -40.5t-37 -48.5t-46.5 -50t-67.5 -68z" />
    <glyph glyph-name="three.tf" horiz-adv-x="643" 
d="M490 341q67 -41 67 -120q0 -107 -72.5 -171.5t-199.5 -64.5q-103 0 -165 56.5t-59 148.5h138q7 -84 98 -84q53 0 88.5 28.5t35.5 70.5q0 35 -28.5 55.5t-76.5 20.5l3 18l-3 -18h-54l20 113h54q50 0 83 29.5t33 73.5q0 34 -20.5 53.5t-56.5 19.5q-85 0 -109 -84h-139
q23 94 94 149.5t175 55.5q88 0 139.5 -48t51.5 -126q0 -117 -97 -176z" />
    <glyph glyph-name="four.tf" horiz-adv-x="643" 
d="M584 131h-89l-23 -131h-138l23 131h-347l16 89l270 460h144l-244 -427h183l34 194h138l-34 -194h88z" />
    <glyph glyph-name="five.tf" horiz-adv-x="643" 
d="M303 553l-21 -114h86q94 0 149 -51.5t55 -133.5q0 -113 -85 -191t-209 -78q-109 0 -166.5 55t-54.5 150h138q12 -84 104 -84q57 0 96.5 36.5t39.5 88.5q0 39 -28.5 63t-78.5 24h-199l64 362h428l-23 -127h-295z" />
    <glyph glyph-name="six.tf" horiz-adv-x="643" 
d="M537 680l-170 -211q100 -1 161 -58.5t61 -145.5q0 -117 -89.5 -198.5t-225.5 -81.5q-103 0 -165 59.5t-62 149.5q0 52 22 95t74 109l228 282h166zM295 100q62 0 107 43t45 98q0 44 -30 74.5t-79 30.5t-91 -26l-1 -1q-37 -41 -48.5 -63.5t-11.5 -50.5q0 -43 30 -74t79 -31
z" />
    <glyph glyph-name="seven.tf" horiz-adv-x="643" 
d="M645 680l-14 -85l-376 -595h-158l347 547h-302l23 133h480z" />
    <glyph glyph-name="eight.tf" horiz-adv-x="643" 
d="M508 358q81 -46 81 -137q0 -102 -86 -169t-225 -67q-111 0 -173 49t-62 130q0 65 37 116t103 81q-59 40 -59 114q0 95 80.5 157.5t199.5 62.5q96 0 153.5 -46.5t57.5 -121.5q0 -112 -107 -169zM384 585q-51 0 -86.5 -31t-35.5 -75q0 -35 24.5 -58t65.5 -23q51 0 86.5 32
t35.5 75q0 34 -24.5 57t-65.5 23zM299 102q55 0 95 34t40 80q0 36 -27.5 60.5t-72.5 24.5q-55 0 -94 -32.5t-39 -79.5q0 -37 27 -62t71 -25z" />
    <glyph glyph-name="nine.tf" horiz-adv-x="606" 
d="M382 695q103 0 165 -59.5t62 -149.5q0 -52 -22 -95t-74 -109l-228 -282h-166l170 211q-100 1 -161 58.5t-61 145.5q0 117 89.5 198.5t225.5 81.5zM409 360l1 1q37 41 48.5 63.5t11.5 50.5q0 43 -30 74t-79 31q-62 0 -107 -43t-45 -98q0 -44 30 -74t79 -30q50 0 91 25z
" />
    <glyph glyph-name="zero.zero" horiz-adv-x="719" 
d="M438 695q121 0 187 -79.5t66 -211.5q0 -174 -106.5 -296.5t-272.5 -122.5q-122 0 -188 80t-66 212q0 113 47 208t135 152.5t198 57.5zM415 566q-98 0 -155 -84t-57 -203v-11l284 277q-31 21 -72 21zM335 114q97 0 154 84t57 204q0 13 -2 35l-297 -289q34 -34 88 -34z" />
    <glyph glyph-name="zero.osf.zero" horiz-adv-x="646" 
d="M376 555q109 0 176 -65t67 -171q0 -143 -96 -237t-238 -94q-108 0 -176.5 65.5t-68.5 170.5q0 143 97.5 237t238.5 94zM359 430q-73 0 -127.5 -53t-54.5 -132l1 -16l244 185q-29 16 -63 16zM303 113q71 0 125 53.5t54 132.5q0 15 -3 29l-252 -191q30 -24 76 -24z" />
    <glyph glyph-name="zero.dnom" horiz-adv-x="453" 
d="M259 419q78 0 120.5 -48.5t42.5 -125.5q0 -106 -66.5 -180t-173.5 -74q-77 0 -120 48.5t-43 125.5q0 106 67 180t173 74zM199 85q55 0 86.5 43.5t31.5 103.5q0 41 -18.5 67t-56.5 26q-55 0 -86.5 -44t-31.5 -103q0 -42 18.5 -67.5t56.5 -25.5z" />
    <glyph glyph-name="one.dnom" horiz-adv-x="340" 
d="M299 85l-14 -85h-307l15 85h106l38 216l-106 -29l15 89l151 48h56l-57 -324h103z" />
    <glyph glyph-name="two.dnom" horiz-adv-x="369" 
d="M168 85h141l-15 -85h-304l9 53l174 157q39 35 51.5 51t12.5 33q0 33 -37 33q-52 0 -62 -51h-101q12 65 58.5 103.5t117.5 38.5q63 0 97 -30t34 -75q0 -34 -18.5 -65t-75.5 -85z" />
    <glyph glyph-name="three.dnom" horiz-adv-x="382" 
d="M285 205q38 -24 38 -70q0 -60 -47 -102.5t-123 -42.5q-69 0 -108.5 35t-38.5 95h101q7 -42 54 -42q28 0 46 14t18 34q0 35 -61 35l2 13l-2 -13h-32l14 81h32q27 0 45 14.5t18 35.5q0 35 -40 35q-44 0 -55 -42h-101q16 60 61.5 95t109.5 35q58 0 90.5 -30t32.5 -78
q0 -67 -54 -102z" />
    <glyph glyph-name="four.dnom" horiz-adv-x="419" 
d="M362 74h-52l-13 -74h-100l13 74h-213l11 65l163 270h105l-144 -246h93l19 106h101l-19 -106h51z" />
    <glyph glyph-name="five.dnom" horiz-adv-x="396" 
d="M173 317l-9 -49h43q63 0 96 -30t33 -81q0 -71 -53 -118.5t-132 -47.5q-68 0 -104.5 34t-34.5 91h102q7 -37 53 -37q30 0 50.5 17.5t20.5 43.5q0 42 -51 42h-134l41 227h272l-17 -92h-176z" />
    <glyph glyph-name="six.dnom" horiz-adv-x="392" 
d="M320 409l-101 -125q58 -4 92 -38t34 -84q0 -70 -56 -120.5t-139 -50.5q-65 0 -104 37t-39 90q0 32 14 59t48 68l131 164h120zM165 74q32 0 54.5 20.5t22.5 50.5q0 24 -15 38.5t-40 14.5q-30 0 -51 -17q-29 -31 -29 -53q0 -23 16 -38.5t42 -15.5z" />
    <glyph glyph-name="seven.dnom" horiz-adv-x="343" 
d="M356 409l-12 -62l-222 -347h-115l202 312h-175l17 97h305z" />
    <glyph glyph-name="eight.dnom" horiz-adv-x="413" 
d="M308 215q44 -30 44 -81q0 -62 -53 -102.5t-140 -40.5q-70 0 -109 30t-39 79q0 79 79 117q-31 25 -31 66q0 59 50.5 97t124.5 38q61 0 97 -28.5t36 -75.5q0 -66 -59 -99zM220 338q-25 0 -43 -15t-18 -39q0 -19 12.5 -30t32.5 -11q25 0 43 16t18 40q0 18 -12.5 28.5
t-32.5 10.5zM174 76q28 0 46.5 15.5t18.5 40.5q0 18 -13 29.5t-35 11.5q-28 0 -47 -16t-19 -41q0 -18 13.5 -29t35.5 -11z" />
    <glyph glyph-name="nine.dnom" horiz-adv-x="392" 
d="M229 419q65 0 104 -36.5t39 -90.5q0 -32 -14 -59t-48 -68l-131 -164h-120l101 125q-58 4 -91.5 38t-33.5 85q0 69 56 119.5t138 50.5zM192 212q30 0 51 17q29 31 29 53q0 23 -16 38.5t-42 15.5q-32 0 -54.5 -20.5t-22.5 -50.5q0 -24 15 -38.5t40 -14.5z" />
    <glyph glyph-name="zero.numr" horiz-adv-x="453" 
d="M308 690q78 0 120.5 -48.5t42.5 -125.5q0 -106 -66.5 -180t-173.5 -74q-77 0 -120 48.5t-43 125.5q0 106 67 180t173 74zM248 356q55 0 86.5 43.5t31.5 103.5q0 41 -18.5 67t-56.5 26q-55 0 -86.5 -43.5t-31.5 -103.5q0 -42 18.5 -67.5t56.5 -25.5z" />
    <glyph glyph-name="one.numr" horiz-adv-x="340" 
d="M349 356l-14 -85h-307l15 85h106l38 216l-106 -29l15 89l151 48h56l-57 -324h103z" />
    <glyph glyph-name="two.numr" horiz-adv-x="369" 
d="M218 356h141l-15 -85h-304l9 53l174 157q39 35 51.5 51t12.5 33q0 33 -37 33q-52 0 -62 -51h-101q12 65 58.5 103.5t117.5 38.5q63 0 97 -30t34 -75q0 -34 -18.5 -65t-75.5 -85z" />
    <glyph glyph-name="three.numr" horiz-adv-x="382" 
d="M335 480q38 -24 38 -70q0 -60 -47 -102.5t-123 -42.5q-69 0 -108 35t-38 95h100q7 -42 54 -42q28 0 46 14t18 34q0 35 -61 35l2 13l-2 -13h-32l14 81h32q27 0 45 14.5t18 35.5q0 35 -40 35q-44 0 -55 -42h-100q15 60 60.5 95t109.5 35q58 0 90.5 -30t32.5 -78
q0 -67 -54 -102z" />
    <glyph glyph-name="four.numr" horiz-adv-x="419" 
d="M412 345h-52l-13 -74h-100l13 74h-213l11 65l163 270h105l-144 -246h93l19 106h101l-19 -106h51z" />
    <glyph glyph-name="five.numr" horiz-adv-x="396" 
d="M223 588l-9 -49h43q63 0 96 -30t33 -81q0 -71 -53 -118.5t-132 -47.5q-68 0 -104.5 34t-34.5 91h102q7 -37 53 -37q30 0 50.5 17.5t20.5 43.5q0 42 -51 42h-134l41 227h272l-17 -92h-176z" />
    <glyph glyph-name="six.numr" horiz-adv-x="392" 
d="M370 680l-101 -125q58 -4 92 -38t34 -84q0 -70 -56 -120.5t-139 -50.5q-65 0 -104 37t-39 90q0 32 14 59t48 68l131 164h120zM215 345q32 0 54.5 20.5t22.5 50.5q0 24 -15 38.5t-40 14.5q-30 0 -51 -17q-29 -31 -29 -53q0 -23 16 -38.5t42 -15.5z" />
    <glyph glyph-name="seven.numr" horiz-adv-x="343" 
d="M406 680l-12 -62l-222 -347h-115l202 312h-175l17 97h305z" />
    <glyph glyph-name="eight.numr" horiz-adv-x="413" 
d="M358 490q44 -30 44 -81q0 -62 -53 -102.5t-140 -40.5q-70 0 -109 30t-39 79q0 79 79 117q-31 25 -31 66q0 59 50.5 97t124.5 38q61 0 97 -28.5t36 -75.5q0 -66 -59 -99zM270 614q-25 0 -43 -15.5t-18 -39.5q0 -19 12.5 -30t32.5 -11q25 0 43 16t18 40q0 18 -12.5 29
t-32.5 11zM224 351q28 0 46.5 15.5t18.5 40.5q0 18 -13 29.5t-35 11.5q-28 0 -46.5 -15.5t-18.5 -40.5q0 -19 13 -30t35 -11z" />
    <glyph glyph-name="nine.numr" horiz-adv-x="392" 
d="M279 694q65 0 104 -36.5t39 -90.5q0 -32 -14 -59t-48 -68l-131 -164h-120l101 125q-58 4 -91.5 38t-33.5 85q0 69 56 119.5t138 50.5zM242 487q30 0 51 17q29 31 29 53q0 23 -16 38.5t-42 15.5q-32 0 -54.5 -20.5t-22.5 -50.5q0 -24 15 -38.5t40 -14.5z" />
    <glyph glyph-name="backslash.case" horiz-adv-x="380" 
d="M10 730h142l219 -777h-143z" />
    <glyph glyph-name="bullet.case" horiz-adv-x="341" 
d="M185 192q-56 0 -98.5 42t-42.5 98t42.5 98t98.5 42q57 0 99 -42t42 -98t-42 -98t-99 -42z" />
    <glyph glyph-name="exclamdown.case" horiz-adv-x="289" 
d="M204 689q33 0 57 -22.5t24 -55.5t-24 -55.5t-57 -22.5q-34 0 -58 22.5t-24 55.5t24 55.5t58 22.5zM114 461h123l-70 -461h-145z" />
    <glyph glyph-name="periodcentered.case" horiz-adv-x="223" 
d="M128 252q-34 0 -58 23t-24 57q0 33 24 55.5t58 22.5q35 0 59 -22.5t24 -55.5q0 -34 -24 -57t-59 -23z" />
    <glyph glyph-name="questiondown.case" horiz-adv-x="527" 
d="M359 533q-34 0 -58 22.5t-24 55.5t24 55.5t58 22.5q33 0 57 -22.5t24 -55.5t-24 -55.5t-57 -22.5zM233 -11q-96 0 -151.5 51.5t-53.5 138.5q1 91 65 149.5t166 69.5l17 68h107l-18 -161h-75q-52 0 -90 -31.5t-38 -82.5q0 -38 22 -59.5t62 -21.5t71.5 23t43.5 61h138
q-23 -94 -94.5 -149.5t-171.5 -55.5z" />
    <glyph glyph-name="slash.case" horiz-adv-x="380" 
d="M-39 -47l355 777h143l-356 -777h-142z" />
    <glyph glyph-name="braceleft.case" horiz-adv-x="357" 
d="M299 553l-17 -101q-8 -46 -28 -70t-67 -38q42 -14 53.5 -38t2.5 -71l-17 -101q-5 -26 14 -41.5t55 -15.5l-24 -134q-98 0 -149 52t-35 137l17 97q2 12 1.5 20.5t-1.5 14.5t-6.5 10t-9.5 6t-14.5 3t-17.5 1h-23l21 119q48 0 65.5 8.5t24.5 46.5l17 97q15 86 83.5 137.5
t167.5 51.5l-23 -134q-36 0 -60.5 -15.5t-29.5 -41.5z" />
    <glyph glyph-name="braceright.case" horiz-adv-x="356" 
d="M94 134l18 101q7 47 26.5 71t67.5 38q-42 14 -53.5 38t-2.5 70l18 101q4 26 -15 41.5t-55 15.5l24 134q99 0 149.5 -51.5t35.5 -137.5l-18 -97q-6 -38 8 -46.5t63 -8.5l-20 -119q-35 0 -49 -2t-25.5 -14t-16.5 -39l-17 -97q-15 -85 -84 -137t-167 -52l24 134
q35 0 59.5 15.5t29.5 41.5z" />
    <glyph glyph-name="bracketleft.case" horiz-adv-x="392" 
d="M181 87h146l-24 -132h-285l137 775h285l-23 -132h-147z" />
    <glyph glyph-name="bracketright.case" horiz-adv-x="392" 
d="M248 598h-147l25 132h285l-137 -775h-286l24 132h146z" />
    <glyph glyph-name="parenleft.case" horiz-adv-x="374" 
d="M334 736l75 -100q-94 -84 -135 -142t-58 -144q-16 -87 4.5 -150.5t83.5 -146.5l-107 -90q-86 92 -117 187t-11 211q20 113 81.5 197t183.5 178z" />
    <glyph glyph-name="parenright.case" horiz-adv-x="374" 
d="M108 647l108 89q85 -91 116.5 -186.5t10.5 -210.5q-20 -113 -81 -197t-183 -179l-76 101q94 83 135.5 141.5t57.5 144.5t-4.5 149.5t-83.5 147.5z" />
    <glyph glyph-name="emdash.case" horiz-adv-x="1060" 
d="M985 399l-24 -137h-858l24 137h858z" />
    <glyph glyph-name="endash.case" horiz-adv-x="699" 
d="M624 399l-24 -137h-497l24 137h497z" />
    <glyph glyph-name="hyphen.case" horiz-adv-x="553" 
d="M479 398l-25 -137h-352l24 137h353z" />
    <glyph glyph-name="guillemotleft.case" horiz-adv-x="466" 
d="M287 487l-121 -161l65 -150h-130l-66 155l121 156h131zM480 487l-121 -161l65 -150h-130l-66 155l121 156h131z" />
    <glyph glyph-name="guillemotright.case" horiz-adv-x="466" 
d="M18 176l121 160l-66 151h131l65 -156l-121 -155h-130zM211 176l121 160l-66 151h131l65 -156l-121 -155h-130z" />
    <glyph glyph-name="guilsinglleft.case" horiz-adv-x="272" 
d="M287 487l-121 -161l65 -150h-130l-66 155l121 156h131z" />
    <glyph glyph-name="guilsinglright.case" horiz-adv-x="272" 
d="M8 176l121 160l-66 151h131l65 -156l-121 -155h-130z" />
    <glyph glyph-name="florin.tf" horiz-adv-x="643" 
d="M584 557q-81 0 -109 -88l-28 -90h164l-20 -115h-180l-51 -164q-31 -101 -94 -158.5t-152 -57.5q-59 0 -116 16l40 121q36 -9 71 -9q80 0 108 88l51 164h-127l20 115h143l28 90q31 101 94 158.5t152 57.5q61 0 116 -17l-40 -120q-43 9 -70 9z" />
    <glyph glyph-name="cent.tf" horiz-adv-x="643" 
d="M339 366q-54 0 -93 -36t-49 -91q-10 -57 16.5 -91.5t81.5 -34.5q39 0 70.5 20.5t44.5 54.5h139q-23 -75 -83.5 -127t-138.5 -67l-18 -100h-121l18 102q-84 19 -123 83.5t-23 159.5q16 89 80 155t152 87l21 120h122l-22 -117q73 -14 115.5 -66.5t38.5 -127.5h-139
q-1 35 -25 55.5t-64 20.5z" />
    <glyph glyph-name="dollar.tf" horiz-adv-x="643" 
d="M645 472h-144q2 47 -25 73.5t-86 26.5q-60 0 -96.5 -25t-36.5 -69q0 -50 83 -67l81 -17q88 -20 133 -57.5t45 -103.5q0 -102 -76 -169t-199 -77l-18 -102h-121l19 109q-88 20 -134.5 80t-38.5 151h144q-1 -58 33.5 -85t108.5 -27q59 0 92.5 22t33.5 60q0 47 -74 61
l-107 21q-170 35 -163 184q5 94 68.5 152t159.5 75l19 111h121l-19 -107q42 -5 76.5 -18.5t65 -38t45.5 -66.5t10 -97z" />
    <glyph glyph-name="Euro.tf" horiz-adv-x="643" 
d="M336 114q69 0 102 41h166q-43 -79 -119 -124.5t-171 -45.5q-107 0 -171 61t-79 165h-61l17 91h41q1 19 7 57h-39l16 91h48q44 111 135 178t211 67q100 0 161.5 -50.5t72.5 -137.5h-157q-19 59 -100 59q-114 0 -174 -116h254l-40 -91h-244q-5 -25 -7 -57h229l-40 -91h-179
q27 -97 121 -97z" />
    <glyph glyph-name="sterling.tf" horiz-adv-x="643" 
d="M412 572q-50 0 -87 -32.5t-47 -87.5l-11 -62h192l-21 -117h-191l-27 -153h348l-22 -120h-544l22 120h58l27 153h-58l20 117h58l11 62q19 109 100 175.5t194 66.5q103 0 160.5 -57t51.5 -152h-140q-2 41 -27 64t-67 23z" />
    <glyph glyph-name="yen.tf" horiz-adv-x="643" 
d="M447 305h132l-16 -97h-176l-8 -45h176l-18 -97h-175l-12 -66h-146l12 66h-176l18 97h175l8 45h-175l16 97h133l-120 375h160l88 -304l195 304h160z" />
    <glyph glyph-name="arrowdown.ss05" horiz-adv-x="705" 
d="M437 215l-84 -84l-84 84l-182 184l83 84l183 -184l181 182l84 -83z" />
    <glyph glyph-name="arrowleft.ss05" horiz-adv-x="705" 
d="M534 132l-181 182l-183 -184l-83 84l182 184l84 84l84 -84l181 -183z" />
    <glyph glyph-name="arrowright.ss05" horiz-adv-x="569" 
d="M264 334l183 -181l-84 -84l-183 181l-83 84l83 84l1 -1l184 183l83 -83z" />
    <glyph glyph-name="arrowup.ss05" horiz-adv-x="569" 
d="M388 250l-182 -181l-84 84l182 181l-184 183l84 83l184 -182l84 -84z" />
    <glyph glyph-name="at.case" horiz-adv-x="983" 
d="M583 741q164 0 265 -98.5t101 -254.5q0 -79 -21 -142t-72.5 -106t-128.5 -43q-104 0 -134 66q-69 -64 -159 -64q-76 0 -123.5 50.5t-47.5 126.5q0 100 73.5 172t171.5 72q66 0 111 -37l5 28h122l-42 -234q-13 -82 42 -82q54 0 79 50t25 128q0 122 -78 198t-205 76
q-107 0 -202.5 -51.5t-153.5 -141t-58 -192.5q0 -123 82 -204.5t206 -81.5q122 0 228 72l39 -81q-130 -85 -281 -85q-163 0 -269 103.5t-106 262.5q0 134 74.5 248.5t196.5 179.5t260 65zM473 205q62 0 109 56q1 23 6 47l9 53q-28 54 -87 54q-46 0 -84 -34t-38 -88
q0 -40 25 -64t60 -24z" />
    <glyph glyph-name="bar.case" horiz-adv-x="263" 
d="M282 730l-137 -777h-127l137 777h127z" />
    <glyph glyph-name="brokenbar.case" horiz-adv-x="264" 
d="M223 392h-127l59 338h127zM145 -47h-127l60 337h127z" />
    <glyph glyph-name="registered.ss07" horiz-adv-x="829" 
d="M425 695q150 0 257 -102t107 -253t-107 -253t-257 -102t-257 102t-107 253t107 253t257 102zM424 72q111 0 192 78t81 190t-81 190t-192 78t-191.5 -78t-80.5 -190t80.5 -190t191.5 -78zM569 393q0 -65 -56 -94l68 -103h-100l-53 87h-44v-87h-80v310h136q58 0 93.5 -31
t35.5 -82zM384 354h55q46 0 46 40q0 17 -12 27.5t-34 10.5h-55v-78z" />
    <glyph glyph-name="caron.alt" 
d="M395 680l-75 -204h-103l41 204h137z" />
    <glyph glyph-name="acute.case" 
d="M493 869l-126 -154h-126l101 154h151z" />
    <glyph glyph-name="breve.case" 
d="M399 878h104q-13 -78 -65 -120t-126 -42q-73 0 -110.5 42t-24.5 120h100q-12 -70 48 -70q26 0 47 17t27 53z" />
    <glyph glyph-name="caron.case" 
d="M534 863l-144 -156h-132l-90 156h120l47 -79l72 79h127z" />
    <glyph glyph-name="circumflex.case" 
d="M336 787l-69 -80h-130l145 157h130l90 -157h-120z" />
    <glyph glyph-name="dieresis.case" 
d="M221 886q34 0 57 -22t23 -54q0 -33 -23 -55t-57 -22q-33 0 -56.5 22t-23.5 55q0 32 23.5 54t56.5 22zM431 886q33 0 56 -22t23 -54q0 -33 -23 -55t-56 -22q-34 0 -57 22t-23 55q0 32 23 54t57 22z" />
    <glyph glyph-name="dotaccent.case" 
d="M303 728q-35 0 -59.5 23t-24.5 57t24.5 57.5t59.5 23.5t59 -23.5t24 -57.5t-24 -57t-59 -23z" />
    <glyph glyph-name="grave.case" 
d="M406 715h-126l-100 154h151z" />
    <glyph glyph-name="hungarumlaut.case" 
d="M358 869l-81 -153h-113l56 153h138zM513 869l-81 -153h-113l55 153h139z" />
    <glyph glyph-name="macron.case" 
d="M474 833l-18 -100h-282l19 100h281z" />
    <glyph glyph-name="ring.case" 
d="M322 940q53 0 85.5 -30t32.5 -80t-32.5 -80.5t-85.5 -30.5t-85.5 30.5t-32.5 80.5t32.5 80t85.5 30zM322 787q20 0 32 12t12 31t-12 30.5t-32 11.5q-19 0 -31 -11.5t-12 -30.5q0 -20 11.5 -31.5t31.5 -11.5z" />
    <glyph glyph-name="tilde.case" 
d="M411 865h94q1 -44 -16 -73.5t-43.5 -41t-57 -10.5t-58.5 14l-30 13q-28 12 -42.5 3.5t-14.5 -29.5h-93q-1 44 16.5 74t44.5 40.5t57 10t57 -12.5l29 -13q30 -11 43.5 -3.5t13.5 28.5z" />
    </font>
</defs>
</svg>
