<?xml version="1.0" standalone="no"?>
<!DOCTYPE svg PUBLIC "-//W3C//DTD SVG 1.1//EN" "http://www.w3.org/Graphics/SVG/1.1/DTD/svg11.dtd" >
<svg xmlns="http://www.w3.org/2000/svg" xmlns:xlink="http://www.w3.org/1999/xlink" version="1.1">
<metadata>
Created by FontForge 20170731 at Fri Nov  3 13:25:34 2017
 By Aleksey,,,
Copyright 2017 The Playfair Display Project Authors (https://github.com/clauseggers/Playfair-Display), with Reserved Font Name "Playfair Display".
</metadata>
<defs>
<font id="PlayfairDisplay-BoldItalic" horiz-adv-x="0" >
  <font-face 
    font-family="Playfair Display"
    font-weight="700"
    font-style="italic"
    font-stretch="normal"
    units-per-em="1000"
    panose-1="0 0 8 0 0 0 0 0 0 0"
    ascent="800"
    descent="-200"
    x-height="525"
    cap-height="708"
    bbox="-780 -243 1196 1181"
    underline-thickness="20"
    underline-position="-120"
    slope="-14"
    unicode-range="U+000D-FB02"
  />
<missing-glyph horiz-adv-x="562" 
d="M502 772v-772h-442v772h442zM466 30v712h-370v-712h370z" />
    <glyph glyph-name="IJ" unicode="IJ" horiz-adv-x="846" 
d="M950 718q0 -24 -73 -52q-54 -48 -89 -120t-64 -180h104l-4 -20h-105q-4 -11 -7 -26l-61 -255q-28 -113 -99 -183t-194 -70q-64 0 -102.5 18.5t-38.5 58.5q0 32 22.5 53t61.5 21q34 0 56 -16.5t22 -45.5q0 -44 -54 -69q9 -3 28 -3q38 0 61.5 28.5t37.5 72t39 140.5l54 205
q11 40 22 71h-130l4 20h134q27 65 66.5 114t85.5 86.5t121 88.5q-41 -13 -108 -42q-56 -24 -92 -35t-83 -11q-39 0 -71.5 6t-87.5 19q-45 12 -80 18.5t-74 6.5q-80 0 -80 -56q0 -37 39.5 -57t103.5 -20q48 0 82.5 9t68.5 28l8 -17q-45 -23 -83 -32l-110 -366
q-10 -30 -10 -49q0 -20 15.5 -28t53.5 -9l-4 -20q-58 3 -163 3q-104 0 -157 -3l5 20q34 2 51 8t27.5 23t22.5 55l110 364q-60 13 -96 46t-36 88q0 61 45.5 98t127.5 37q58 0 102 -13t102 -39q60 -25 100 -37t93 -12q102 0 198 39q38 58 63 58q8 0 13 -5q6 -6 6 -12z" />
    <glyph glyph-name="ij" unicode="ij" horiz-adv-x="637" 
d="M211 747q29 26 74 26q35 0 54.5 -16t19.5 -45q0 -39 -30 -66t-74 -27q-35 0 -54 15.5t-19 44.5q0 42 29 68zM538 747q29 26 74 26q35 0 54.5 -16t19.5 -45q0 -39 -30 -66t-74 -27q-35 0 -54 15.5t-19 44.5q0 42 29 68zM295.5 161q7.5 36 18.5 101q9 59 17 97t22 71
q22 54 63.5 77.5t92.5 23.5q49 0 70.5 -23t21.5 -61q0 -22 -9 -56l-76 -276q-30 -107 -65 -168t-86 -91q-59 -44 -142 -44q-48 0 -71.5 15.5t-23.5 43.5q0 29 22.5 51t53.5 22q27 0 43 -15.5t16 -37.5q0 -17 -10 -34.5t-28 -29.5q38 5 61 29t38 79l140 497q3 12 3 22
q0 28 -25 28q-24 0 -43 -18.5t-35 -59.5q-16 -45 -29 -137q-10 -65 -20 -109.5t-28 -83.5q-23 -50 -60.5 -69t-85.5 -19q-55 0 -84 24t-29 68q0 26 13 67l98 287q7 18 7 31q0 19 -18 19t-33 -18.5t-31 -60.5l-20 -51h-19l28 76q37 103 139 103q46 0 67 -22t21 -59
q0 -28 -11 -59l-105 -306q-4 -12 -4 -24q0 -15 8.5 -23.5t25.5 -8.5q23 0 44 15.5t35 47.5q15 33 22.5 69z" />
    <glyph glyph-name="fi" unicode="fi" horiz-adv-x="603" 
d="M636 707q-2 -39 -31.5 -63.5t-71.5 -24.5q-35 0 -54 16t-19 43q0 35 18.5 57.5t49.5 30.5h-13q-73 0 -120 -31q-34 -22 -55.5 -62.5t-40.5 -111.5l-12 -45h145q84 2 145 15l-131 -446q-6 -18 -6 -29q0 -21 19 -21q16 0 31 17t32 62l19 48h19l-26 -73q-19 -55 -57.5 -79
t-80.5 -24q-44 0 -65 22t-21 62q0 35 13 75l103 351h-145l-183 -670q-84 -1 -145 -14l188 684h-86l6 20h86q21 76 53 126.5t78 79.5q49 32 107 46t130 14q69 0 101 -28q23 -17 20 -47z" />
    <glyph glyph-name="fl" unicode="fl" horiz-adv-x="612" 
d="M549 162h19l-25 -73q-20 -56 -55.5 -79.5t-78.5 -23.5q-45 0 -67.5 23.5t-22.5 65.5q0 31 12 70l157 522q5 18 5 29q0 20 -15.5 29.5t-50.5 9.5q-34 0 -61 -18q-20 -13 -33 -41t-26 -78l-22 -82h95l-6 -20h-95l-181 -670q-83 -1 -144 -14l185 684h-84l6 20h84
q18 66 43 110.5t61 72.5q72 55 181 55h2q69 1 124 11t108 30l-210 -710q-4 -13 -4 -25q0 -25 20 -25q32 0 61 79z" />
    <glyph glyph-name="f_f" unicode="ff" horiz-adv-x="661" 
d="M818 756q35 -26 35 -70q0 -33 -26.5 -60t-65.5 -27q-30 0 -47 14t-17 40q0 33 21 59t56 39q-5 6 -14 9.5t-20 3.5q-30 0 -53 -20q-18 -16 -31 -51t-30 -99l-21 -77h107l-6 -20h-106l-180 -671q-84 -1 -145 -14l184 685h-168l-182 -671q-83 -1 -144 -14l180 670l4 15h-97
l6 20h97q20 59 47.5 102t58.5 68q72 55 176 55q35 0 64 -10t49 -26q15 16 30 30q56 46 141 46q62 0 97 -26zM539 692q-27 24 -74 24q-61 0 -99.5 -43.5t-64.5 -137.5l-5 -18h168q32 116 75 175z" />
    <glyph glyph-name="f_f_i" unicode="ffi" horiz-adv-x="914" 
d="M947 707q-2 -39 -31.5 -63.5t-71.5 -24.5q-35 0 -54 16t-19 43q0 35 18.5 57.5t49.5 30.5h-13q-73 0 -120 -31q-34 -22 -55.5 -62.5t-40.5 -111.5l-12 -45h145q84 2 145 15l-131 -446q-6 -18 -6 -29q0 -21 19 -21q16 0 31 17t32 62l19 48h19l-26 -73q-19 -55 -57.5 -79
t-80.5 -24q-44 0 -65 22t-21 62q0 35 13 75l103 351h-145l-183 -670q-84 -1 -145 -14l188 684h-162l-182 -670q-84 -1 -145 -14l182 670l4 14h-97l6 20h97q20 59 47.5 102.5t59.5 68.5q71 55 169 55q81 0 129 -41q20 16 29 21q49 32 107 46t130 14q69 0 101 -28
q23 -17 20 -47zM548 689q-35 27 -84 27q-46 0 -78 -23q-28 -19 -48 -56.5t-37 -101.5l-5 -19h162q31 113 90 173z" />
    <glyph glyph-name="f_f_l" unicode="ffl" horiz-adv-x="925" 
d="M862 162h19l-25 -73q-20 -56 -55.5 -79.5t-78.5 -23.5q-45 0 -67.5 23.5t-22.5 65.5q0 31 12 70l157 522q5 18 5 29q0 20 -15.5 29.5t-50.5 9.5q-34 0 -61 -18q-20 -13 -33 -41t-26 -78l-22 -82h95l-6 -20h-95l-181 -670q-83 -1 -144 -14l185 684h-162l-182 -670
q-84 -1 -145 -14l182 670l4 14h-97l6 20h97q20 59 47.5 102.5t59.5 68.5q71 55 169 55q81 0 131 -43q72 55 181 55h2q69 1 124 11t108 30l-210 -710q-4 -13 -4 -25q0 -25 20 -25q32 0 61 79zM496.5 618.5q21.5 41.5 52.5 69.5q-35 28 -85 28t-82 -26q-27 -20 -45.5 -56.5
t-35.5 -98.5l-5 -19h162q17 61 38.5 102.5z" />
    <glyph glyph-name="T_h.liga" unicode="Th" horiz-adv-x="1178" 
d="M1133 162l-25 -73q-36 -103 -134 -103q-45 0 -68 21t-23 61q0 34 15 77l89 270q10 28 10 44q0 22 -21 22q-32 0 -74 -56.5t-86 -163t-82 -251.5v2l-3 -12h-141l182 669q-49 -15 -124 -15q-37 0 -98 7l-144 -545q-8 -30 -8 -46q0 -26 18.5 -37t64.5 -13l-4 -20
q-63 3 -185 3q-119 0 -176 -3l4 20q43 2 66.5 10.5t37 28t23.5 57.5l150 564q-61 8 -108 8q-82 0 -113 -17q27 -8 44 -29.5t17 -51.5q0 -35 -22 -59.5t-56 -24.5t-53 22.5t-19 56.5q0 28 15 54.5t50 42.5q48 24 134 24q45 0 86.5 -4t112.5 -13q111 -15 172 -15q40 0 68 4
t53 13l21 76q83 6 149 28l-133 -488q36 85 71 134t73.5 69.5t86.5 20.5q43 0 64 -21.5t21 -60.5q0 -28 -13 -69l-98 -295q-6 -16 -6 -28q0 -22 20 -22q34 0 62 79l18 48h19z" />
    <glyph glyph-name="f_b.liga" unicode="fb" horiz-adv-x="866" 
d="M806 491.5q31 -39.5 31 -114.5q0 -82 -38 -173.5t-109 -154.5t-164 -63q-28 0 -51 11.5t-33 30.5q-28 -2 -59.5 -13.5t-71.5 -30.5l-15 7q13 27 21 59l170 617q4 20 4 28q0 20 -13 30t-42 10q-45 0 -74 -24.5t-48 -86.5l-29 -108h95l-6 -20h-95l-181 -670
q-83 -1 -144 -14l186 684h-85l6 20h84q35 121 104 179.5t192 58.5q66 1 119 11t102 30l-118 -431q39 87 80 127t90 40q61 0 92 -39.5zM590.5 79q44.5 64 72.5 157.5t28 172.5q0 37 -8.5 53t-24.5 16q-31 0 -71 -61.5t-71 -154.5l-62 -225q19 -22 45 -22q47 0 91.5 64z" />
    <glyph glyph-name="f_f_b.liga" unicode="ffb" horiz-adv-x="1180" 
d="M1120 491.5q31 -39.5 31 -114.5q0 -82 -38 -173.5t-109 -154.5t-164 -63q-28 0 -51 11.5t-33 30.5q-28 -2 -59.5 -13.5t-71.5 -30.5l-15 7q13 27 21 59l170 617q4 20 4 28q0 20 -13 30t-42 10q-45 0 -74 -24.5t-48 -86.5l-29 -108h95l-6 -20h-95l-181 -670
q-83 -1 -144 -14l186 684h-164l-182 -670q-84 -1 -145 -14l182 670l4 14h-97l6 20h97q20 59 47.5 102.5t59.5 68.5q70 55 169 55q43 0 78 -12.5t58 -31.5q70 56 188 56q66 1 119 11t102 30l-118 -431q39 87 80 127t90 40q61 0 92 -39.5zM553 687q-36 29 -89 29
q-63 0 -100 -42.5t-63 -138.5l-5 -19h163q32 114 94 171zM904.5 79q44.5 64 72.5 157.5t28 172.5q0 37 -8.5 53t-24.5 16q-31 0 -71 -61.5t-71 -154.5l-62 -225q19 -22 45 -22q47 0 91.5 64z" />
    <glyph glyph-name="f_f_h.liga" unicode="ffh" horiz-adv-x="1198" 
d="M1153 162l-25 -73q-36 -103 -134 -103q-45 0 -68 21t-23 61q0 32 15 77l89 270q10 27 10 43q0 23 -21 23q-31 0 -75.5 -66.5t-89.5 -175.5t-77 -229v2l-3 -12h-141l188 667q4 15 4 29q0 20 -12.5 29.5t-41.5 9.5q-46 0 -75.5 -24.5t-47.5 -86.5l-29 -108h95l-6 -20h-95
l-181 -670q-83 -1 -144 -14l186 684h-161l-182 -670q-84 -1 -145 -14l182 670l4 14h-97l6 20h97q39 116 107 171t169 55q82 0 132 -44q71 56 190 56q66 1 119 11t102 30l-132 -470q51 115 103 160.5t121 45.5q43 0 63.5 -22t20.5 -60q0 -31 -12 -69l-98 -295q-5 -14 -5 -28
q0 -22 19 -22q34 0 62 79l18 48h19zM550 687q-34 29 -86 29q-63 0 -100 -42.5t-63 -138.5l-5 -19h160q32 115 94 171z" />
    <glyph glyph-name="f_f_j.liga" unicode="ffj" horiz-adv-x="905" 
d="M945 741q8 -13 8 -29q0 -41 -30 -67t-73 -26q-35 0 -54 16t-19 43q0 33 17 55.5t47 31.5h-9q-94 0 -143.5 -50t-78.5 -154l-12 -45h161q84 2 145 15l-116 -416q-30 -108 -64.5 -169t-85.5 -90q-59 -44 -143 -44q-48 0 -71.5 15.5t-23.5 43.5q0 30 22.5 51.5t54.5 21.5
q26 0 42 -15.5t16 -37.5q0 -17 -10 -34.5t-28 -29.5q38 5 61 29t38 79l157 561h-161l-135 -496h-140l135 496h-162l-182 -670q-84 -1 -145 -14l182 670l4 14h-97l6 20h97q39 116 107 171t169 55q81 0 131 -43q9 9 29 23q49 32 108 46t133 14q28 0 52 -5.5t39 -15.5
q14 -7 22 -20zM549 688q-33 28 -85 28q-63 0 -100 -42.5t-63 -138.5l-5 -19h162q31 110 91 172z" />
    <glyph glyph-name="f_f_k.liga" unicode="ffk" horiz-adv-x="1181" 
d="M1142.5 505.5q23.5 -25.5 23.5 -64.5q0 -38 -23 -63t-61 -25q-31 0 -47.5 16.5t-16.5 41.5q0 29 19 53t47 39q-5 8 -16 8q-24 0 -42 -15q-13 -11 -22 -28.5t-21 -48.5q-22 -54 -44 -85t-66 -42q75 -2 121.5 -27t46.5 -81q0 -17 -4 -33l-15 -74q-3 -13 -3 -22
q0 -11 4.5 -15.5t13.5 -4.5q15 0 30 17.5t31 61.5l18 48h19l-25 -73q-36 -103 -143 -103q-41 0 -62.5 20t-21.5 58q0 20 4 37l17 77q6 24 6 41q0 29 -18.5 44t-60.5 21l-80 -284h-141l188 667q5 20 5 31q0 19 -12.5 28t-41.5 9q-47 0 -76.5 -24t-47.5 -87l-29 -108h95
l-6 -20h-95l-181 -670q-83 -1 -144 -14l186 684h-161l-182 -670q-84 -1 -145 -14l182 670l4 14h-97l6 20h97q39 116 107 171t169 55q82 0 132 -44q71 56 190 56q68 1 118 10.5t103 30.5l-139 -497q39 5 63 23.5t37 42t27 60.5q13 34 23 52.5t26 31.5q30 23 62 23
q46 0 69.5 -25.5zM550 687q-34 29 -86 29q-63 0 -100 -42.5t-63 -138.5l-5 -19h160q32 115 94 171z" />
    <glyph glyph-name="f_h.liga" unicode="fh" horiz-adv-x="887" 
d="M842 162l-25 -73q-36 -103 -134 -103q-45 0 -68 21t-23 61q0 32 15 77l89 270q10 27 10 43q0 23 -21 23q-31 0 -75.5 -66.5t-89.5 -175.5t-77 -229v2l-3 -12h-141l188 667q4 15 4 29q0 20 -12.5 29.5t-41.5 9.5q-46 0 -75.5 -24.5t-47.5 -86.5l-29 -108h95l-6 -20h-95
l-181 -670q-83 -1 -144 -14l186 684h-85l6 20h84q34 122 103.5 180t193.5 58q66 1 119 11t102 30l-132 -470q51 115 103 160.5t121 45.5q43 0 63.5 -22t20.5 -60q0 -31 -12 -69l-98 -295q-5 -14 -5 -28q0 -22 19 -22q34 0 62 79l18 48h19z" />
    <glyph glyph-name="f_idieresis.liga" unicode="f&#xef;" horiz-adv-x="599" 
d="M443 85q-6 -18 -6 -29q0 -21 18 -21q16 0 31.5 17.5t31.5 61.5l18 48h19l-25 -73q-20 -56 -58 -79.5t-79 -23.5t-61.5 22t-20.5 62q0 30 13 75l103 351h-148l-181 -670q-83 -1 -144 -14l185 684h-84l6 20h84q21 75 47.5 127t65.5 83q60 48 147 48q50 0 78 -26
q24 -18 24 -54q0 -39 -26 -61.5t-61 -22.5q-32 0 -48 18t-16 48q0 34 20 56t51 27q-10 2 -17 2q-49 0 -80 -31q-23 -23 -30 -58t-9 -91q-2 -47 -6 -65h148q82 2 145 15zM717 742q17 -18 17 -48q0 -39 -25.5 -61.5t-60.5 -22.5q-32 0 -48.5 18t-16.5 48q0 38 25.5 61t60.5 23
q31 0 48 -18z" />
    <glyph glyph-name="f_igrave.liga" unicode="f&#xec;" horiz-adv-x="599" 
d="M536 162h19l-25 -73q-20 -56 -58 -79.5t-79 -23.5t-61.5 22t-20.5 63q0 29 13 74l103 351h-147l-182 -670q-83 -1 -144 -14l185 684h-84l6 20h84q65 223 218 223q24 0 44 -7q-17 17 -27 34q-11 19 -11 36q0 13 6.5 24t17.5 18t26 7q17 0 31.5 -8.5t23.5 -23.5t14.5 -32
t13.5 -48q15 -69 40 -133l-12 -7q-34 42 -56 64v-1q-28 31 -46 43.5t-40 12.5q-31 0 -48 -32.5t-39 -111.5l-16 -58h148q82 2 145 15l-135 -446q-6 -18 -6 -30q0 -20 18 -20q16 0 31.5 17.5t31.5 61.5z" />
    <glyph glyph-name="f_j.liga" unicode="fj" horiz-adv-x="594" 
d="M634 741q8 -13 8 -29q0 -41 -30 -67t-73 -26q-35 0 -54 16t-19 43q0 33 17 55.5t47 31.5h-9q-94 0 -143.5 -50t-78.5 -154l-12 -45h161q84 2 145 15l-116 -416q-30 -108 -64.5 -169t-85.5 -90q-59 -44 -143 -44q-48 0 -71.5 15.5t-23.5 43.5q0 30 22.5 51.5t54.5 21.5
q26 0 42 -15.5t16 -37.5q0 -17 -10 -34.5t-28 -29.5q38 5 61 29t38 79l157 561h-161l-135 -496h-140l135 496h-86l6 20h86q21 74 53.5 124.5t79.5 81.5q49 32 108 46t133 14q28 0 52 -5.5t39 -15.5q14 -7 22 -20z" />
    <glyph glyph-name="f_k.liga" unicode="fk" horiz-adv-x="869" 
d="M831.5 505.5q23.5 -25.5 23.5 -64.5q0 -38 -23 -63t-61 -25q-31 0 -47.5 16.5t-16.5 41.5q0 29 19 53t47 39q-5 8 -16 8q-24 0 -42 -15q-13 -11 -22 -28.5t-21 -48.5q-22 -54 -44 -85t-66 -42q75 -2 121.5 -27t46.5 -81q0 -17 -4 -33l-15 -74q-3 -13 -3 -22
q0 -11 4.5 -15.5t13.5 -4.5q15 0 30 17.5t31 61.5l18 48h19l-25 -73q-36 -103 -143 -103q-41 0 -62.5 20t-21.5 58q0 20 4 37l17 77q6 24 6 41q0 29 -18.5 44t-60.5 21l-80 -284h-141l188 667q5 20 5 31q0 19 -12.5 28t-41.5 9q-47 0 -76.5 -24t-47.5 -87l-29 -108h95
l-6 -20h-95l-181 -670q-83 -1 -144 -14l186 684h-85l6 20h84q34 122 103.5 180t193.5 58q68 1 118 10.5t103 30.5l-139 -497q39 5 63 23.5t37 42t27 60.5q13 34 23 52.5t26 31.5q30 23 62 23q46 0 69.5 -25.5z" />
    <glyph glyph-name=".notdef" horiz-adv-x="562" 
d="M502 772v-772h-442v772h442zM466 30v712h-370v-712h370z" />
    <glyph glyph-name=".null" 
 />
    <glyph glyph-name="nonmarkingreturn" unicode="&#xd;" horiz-adv-x="255" 
 />
    <glyph glyph-name="NULL" 
 />
    <glyph glyph-name="NULL" 
 />
    <glyph glyph-name="space" unicode=" " horiz-adv-x="255" 
 />
    <glyph glyph-name="exclam" unicode="!" horiz-adv-x="314" 
d="M144.5 339q7.5 68 13.5 169q7 102 9 118q3 63 28 109.5t76 46.5q35 0 52.5 -21t14.5 -59q-4 -43 -24.5 -93.5t-62.5 -136.5q-44 -91 -70 -150.5t-44 -125.5l-18 3q18 72 25.5 140zM52 113q28 27 69 27q32 0 50 -16t18 -45q0 -36 -29.5 -64.5t-68.5 -28.5q-32 0 -49.5 16
t-17.5 44q0 40 28 67z" />
    <glyph glyph-name="quotedbl" unicode="&#x22;" horiz-adv-x="391" 
d="M262.5 634.5q-12.5 -23.5 -40.5 -64.5q-34 -50 -50 -82h-14q-1 46 -9 95q-5 32 -5 52l1 15q2 34 24 57t55 23q23 0 36.5 -12.5t14.5 -34.5q0 -25 -12.5 -48.5zM424.5 634.5q-12.5 -23.5 -40.5 -64.5q-34 -50 -50 -82h-14q-1 46 -9 95q-5 32 -5 52l1 15q2 34 24 57t55 23
q23 0 36.5 -12.5t14.5 -34.5q0 -25 -12.5 -48.5z" />
    <glyph glyph-name="numbersign" unicode="#" horiz-adv-x="625" 
d="M474 434l-77 -167h143l-10 -20h-142l-68 -146h-24l68 146h-163l-68 -146h-24l68 146h-147l9 20h147l77 167h-146l8 20h147l69 148h24l-69 -148h163l69 148h24l-69 -148h143l-8 -20h-144zM450 434h-163l-77 -167h163z" />
    <glyph glyph-name="dollar" unicode="$" horiz-adv-x="610" 
d="M602 621.5q18 -30.5 18 -67.5q0 -43 -21 -73t-56 -30q-33 0 -52 23.5t-19 61.5q0 35 13 65.5t33 61.5q-21 17 -54 27l-75 -272q49 -43 79 -73.5t50.5 -68t20.5 -78.5q0 -73 -41 -119.5t-102 -68t-127 -24.5l-33 -118h-22l33 118q-39 0 -69 6l-34 -124h-22l36 128
q-46 13 -89 41q-31 20 -48.5 50t-17.5 67q0 43 21.5 73t55.5 30q33 0 52.5 -23.5t19.5 -61.5q0 -35 -13.5 -65t-33.5 -62q23 -17 58 -28l82 292q-56 52 -87 98.5t-31 102.5q0 71 34 118t86.5 69.5t111.5 24.5l33 118h22l-33 -118q41 -2 68 -7l35 125h22l-36 -130
q42 -11 84 -39q30 -19 48 -49.5zM444 695q-28 6 -62 6h-7l-59 -214q16 -17 55 -53zM299 507l54 192q-41 -7 -66 -33.5t-25 -70.5q0 -41 37 -88zM253 8l64 232l-55 53l-78 -280q30 -5 57 -5h12zM369.5 169q-12.5 25 -35.5 52l-59 -211q56 6 81.5 33t25.5 74q0 27 -12.5 52z
" />
    <glyph glyph-name="percent" unicode="%" horiz-adv-x="796" 
d="M853 811l-833 -866l-15 13l833 866zM141.5 650q29.5 49 81.5 80t114 31q61 0 95 -30.5t34 -85.5q0 -50 -29.5 -99t-81 -80t-113.5 -31q-61 0 -95.5 30.5t-34.5 85.5q0 50 29.5 99zM269 706.5q-26 -39.5 -40 -94.5t-14 -98q0 -31 9 -47.5t25 -16.5q34 0 60 39.5t40 94.5
t14 99q0 30 -9 46.5t-25 16.5q-34 0 -60 -39.5zM402 201q30 49 81.5 80t113.5 31q61 0 95 -30.5t34 -85.5q0 -50 -29.5 -99t-81 -80t-113.5 -31q-61 0 -95.5 30.5t-34.5 85.5q0 50 30 99zM529 257.5q-26 -39.5 -40 -94.5t-14 -98q0 -31 9 -47.5t25 -16.5q34 0 60 39.5
t40 94.5t14 99q0 31 -8.5 47t-25.5 16q-34 0 -60 -39.5z" />
    <glyph glyph-name="ampersand" unicode="&#x26;" horiz-adv-x="863" 
d="M875 690.5q37 -31.5 37 -101.5q0 -76 -46.5 -122.5t-143.5 -81.5q-45 -17 -62 -22q43 -46 43 -114q0 -66 -41.5 -126.5t-123 -98.5t-197.5 -38q-140 0 -226 57t-86 162q0 97 73 169t196 98q-44 15 -66 42.5t-22 61.5q0 40 28 68.5t73 43t94 14.5q61 0 93.5 -22t32.5 -58
q0 -33 -24 -51.5t-53 -18.5v18q24 0 39.5 13.5t15.5 35.5q0 24 -20 38.5t-52 14.5q-36 0 -67 -18t-50 -51t-19 -74q0 -28 11 -51q36 6 63 6q36 0 36 -21q0 -10 -9 -15.5t-22 -5.5q-25 0 -69 22q-53 -20 -88 -78t-35 -129q0 -90 60 -137.5t166 -47.5q71 0 132 21t98.5 63
t37.5 102t-37 100l-114 -39q-31 -9 -64 -21q-44 -15 -69 -35.5t-25 -50.5q0 -28 20.5 -41.5t50.5 -13.5q39 0 66.5 20t38.5 42l15 -8q-15 -29 -46 -51t-78 -22q-50 0 -85 27.5t-35 85.5q0 120 175 177l73 24q142 46 190 64q58 21 89.5 43.5t31.5 63.5q0 37 -28.5 60
t-70.5 23q-18 0 -29 -6q44 -18 44 -59q0 -32 -27.5 -52t-62.5 -20q-32 0 -52 17.5t-20 45.5q0 27 16.5 46t45.5 30q33 14 81 14q62 0 99 -31.5z" />
    <glyph glyph-name="quotesingle" unicode="'" horiz-adv-x="228" 
d="M262.5 634.5q-12.5 -23.5 -40.5 -64.5q-34 -50 -50 -82h-14q-1 46 -9 95q-5 32 -5 52l1 15q2 34 24 57t55 23q23 0 36.5 -12.5t14.5 -34.5q0 -25 -12.5 -48.5z" />
    <glyph glyph-name="parenleft" unicode="(" horiz-adv-x="396" 
d="M87.5 6q-51.5 93 -51.5 217q0 109 60.5 217t166.5 202t242 164l10 -13q-166 -119 -254 -263.5t-88 -338.5q0 -102 21 -188.5t65 -171.5l-18 -13q-102 95 -153.5 188z" />
    <glyph glyph-name="parenright" unicode=")" horiz-adv-x="397" 
d="M318.5 618q51.5 -93 51.5 -217q0 -109 -60.5 -217t-166.5 -202t-242 -164l-10 13q166 119 254 263.5t88 338.5q0 102 -21 188.5t-65 171.5l18 13q102 -95 153.5 -188z" />
    <glyph glyph-name="asterisk" unicode="*" horiz-adv-x="484" 
d="M468 555q-18 -9 -39 -13.5t-61 -11.5l-61 -11q15 -4 56 -11q38 -8 57 -13t31 -13q21 -14 21 -34q0 -18 -15 -35q-20 -25 -44 -25q-15 0 -29 10q-13 8 -24 22.5t-27 41.5q-6 10 -29 46l6 -48q6 -54 6 -70q0 -42 -19.5 -62.5t-45.5 -20.5q-17 0 -27.5 9t-10.5 28
q0 22 11.5 46t41.5 73q16 23 31 50q-36 -32 -49 -45q-9 -8 -28.5 -26t-33.5 -28.5t-25 -16.5q-18 -9 -35 -9q-25 0 -34 24q-2 5 -2 15q0 32 41 54q18 9 38.5 13.5t60.5 11.5q46 7 64 11q-19 4 -58 11q-35 6 -55 11.5t-33 14.5q-21 14 -21 34q0 18 15 35q20 25 44 25
q16 0 30 -10q12 -9 23 -23.5t27 -41.5q12 -20 32 -50l-6 48q-8 46 -8 75q0 42 19.5 62.5t45.5 20.5q16 0 27 -8.5t11 -26.5q0 -20 -10.5 -43t-34.5 -63q-29 -50 -36 -63q51 48 47 44q5 5 25 23.5t34.5 29.5t26.5 17q17 9 34 9q18 0 27.5 -12t9.5 -28q0 -33 -42 -53z" />
    <glyph glyph-name="plus" unicode="+" horiz-adv-x="575" 
d="M291 370l67 236h36l-67 -236h232l-9 -30h-232l-67 -235h-36l67 235h-233l9 30h233z" />
    <glyph glyph-name="comma" unicode="," horiz-adv-x="287" 
d="M127 -50q-40 -55 -109 -86l-5 16q46 23 75.5 58.5t32.5 76.5q-27 -29 -62 -29q-30 0 -46 14t-16 40q0 41 30.5 70.5t73.5 29.5q32 0 49 -18.5t17 -53.5q0 -63 -40 -118z" />
    <glyph glyph-name="hyphen" unicode="-" horiz-adv-x="506" 
d="M436 306l-22 -83h-361l22 83h361z" />
    <glyph glyph-name="period" unicode="." horiz-adv-x="279" 
d="M27 113q28 27 69 27q32 0 50 -16t18 -45q0 -36 -29.5 -64.5t-68.5 -28.5q-32 0 -49.5 16t-17.5 44q0 40 28 67z" />
    <glyph glyph-name="slash" unicode="/" horiz-adv-x="461" 
d="M504 722h33l-548 -736h-33z" />
    <glyph glyph-name="zero" unicode="0" horiz-adv-x="621" 
d="M526 482.5q52 -48.5 52 -133.5q0 -89 -49 -173.5t-130.5 -137t-175.5 -52.5q-92 0 -145.5 48.5t-53.5 134.5q0 89 49.5 173t131.5 136.5t176 52.5q93 0 145 -48.5zM266 459.5q-45 -53.5 -70.5 -138t-25.5 -172.5q0 -75 19 -110t50 -35q55 0 99.5 55t69 140t24.5 172
q0 73 -18 107.5t-49 34.5q-54 0 -99 -53.5z" />
    <glyph glyph-name="one" unicode="1" horiz-adv-x="371" 
d="M194 0h-141l125 422q-48 -20 -133 -42l3 21q97 25 159 55t124 72h20z" />
    <glyph glyph-name="two" unicode="2" horiz-adv-x="535" 
d="M435.5 503q43.5 -28 43.5 -77q0 -44 -36 -86.5t-84 -76t-124 -78.5q-12 -7 -41 -25t-47 -31q25 0 81 -13q26 -6 53.5 -10.5t49.5 -4.5q39 0 62 12.5t23 35.5q0 30 -36 49l11 13q29 -15 42 -35.5t13 -49.5q0 -54 -39 -93t-116 -39q-22 0 -47 4.5t-49 9.5q-34 8 -59.5 12
t-54.5 4t-52 -5.5t-54 -18.5l5 21q34 27 56 42q84 62 145 113.5t109 117t48 128.5q0 39 -20 60t-56 21q-39 0 -79 -23t-66.5 -59t-26.5 -73q0 -25 13.5 -36.5t44.5 -11.5q26 0 46.5 9.5t45.5 31.5l12 -14q-26 -25 -55 -36.5t-56 -11.5q-31 0 -53 15t-22 53q0 44 33 87
t90.5 70t128.5 27q74 0 117.5 -28z" />
    <glyph glyph-name="three" unicode="3" horiz-adv-x="517" 
d="M429 505q44 -27 44 -73q0 -64 -70.5 -112.5t-160.5 -69.5q86 -2 138 -32t52 -91q0 -81 -83.5 -143.5t-205 -97.5t-230.5 -37l5 18q84 5 169 38.5t141.5 94.5t56.5 143q0 40 -16 64.5t-45 26.5q-16 -7 -31.5 -12t-26.5 -5q-22 0 -17 15q4 19 48 19l19 -1q55 23 89.5 64
t34.5 94q0 42 -24.5 66t-68.5 24q-35 0 -70 -17.5t-57.5 -45t-22.5 -56.5q0 -25 13.5 -36.5t44.5 -11.5q34 0 62 15l11 -15q-39 -21 -80 -21q-31 0 -53 15t-22 53q0 37 32 72.5t86.5 58.5t118.5 23q75 0 119 -27z" />
    <glyph glyph-name="four" unicode="4" horiz-adv-x="535" 
d="M453 46h-130l-50 -187h-141l50 187h-240l6 21l480 464h26l-121 -450h130zM192 81l71 264l-272 -264h201z" />
    <glyph glyph-name="five" unicode="5" horiz-adv-x="472" 
d="M444 531q-26 -66 -63.5 -103t-85.5 -37q-21 0 -65 18q-24 10 -39.5 14.5t-28.5 2.5l-93 -200q64 35 155 35q86 0 128.5 -31.5t42.5 -87.5q0 -87 -78 -152t-191 -100t-214 -38l5 18q74 0 151 33t127.5 94.5t50.5 142.5q0 91 -94 91q-46 0 -98 -27l-10 5l138 309
q19 1 35.5 -2t40.5 -10q18 -5 39 -9t43 -4q31 0 53.5 10t38.5 35z" />
    <glyph glyph-name="six" unicode="6" horiz-adv-x="567" 
d="M552 702q-92 -25 -179.5 -105t-143.5 -203.5t-56 -270.5q0 -66 13 -91.5t39 -25.5q42 0 77 49t55 119t20 129q0 46 -13.5 67t-36.5 21q-25 0 -49.5 -25t-41.5 -78l-16 5q41 145 163 145q64 0 103 -39.5t39 -111.5q0 -77 -44.5 -147t-119.5 -112t-161 -42q-172 0 -172 184
q0 137 85 257.5t207 198.5t226 96z" />
    <glyph glyph-name="seven" unicode="7" horiz-adv-x="503" 
d="M564 516l-55 -64q-81 -92 -126.5 -151.5t-83.5 -133t-62 -167.5q-8 -34 -11.5 -51.5l-5.5 -27.5q-6 -30 -29 -49.5t-60 -19.5q-60 0 -60 56q0 16 5 36q15 63 65 135t110 135.5t153 154.5q65 63 103 104q-76 -50 -116 -69.5t-84 -19.5q-24 0 -43 4.5t-44 12.5
q-23 7 -37.5 10.5t-31.5 3.5q-33 0 -53 -14.5t-20 -44.5q0 -73 121 -101l-5 -16q-152 30 -152 144q0 56 39.5 97.5t117.5 41.5q29 0 55 -5.5t63 -16.5q38 -12 67 -18t62 -6q29 0 51.5 8.5t39.5 31.5h27z" />
    <glyph glyph-name="eight" unicode="8" horiz-adv-x="575" 
d="M372 406l15 -14q36 -32 58.5 -56.5t37.5 -56t15 -70.5q0 -64 -42 -115t-112 -79.5t-150 -28.5q-87 0 -142 32.5t-55 98.5q0 76 73 138t180 105q-48 46 -72 82t-24 86q0 57 37 101t97.5 68.5t129.5 24.5q74 0 120 -27.5t46 -79.5q0 -109 -212 -209zM424 508q25 55 25 114
q0 82 -56 82q-29 0 -54.5 -19.5t-41.5 -52.5t-16 -70q0 -42 21 -75.5t59 -69.5q38 36 63 91zM285.5 26.5q34.5 22.5 55.5 61t21 84.5q0 54 -25.5 92.5t-75.5 86.5q-54 -41 -88 -107.5t-34 -140.5q0 -48 17 -73.5t58 -25.5q37 0 71.5 22.5z" />
    <glyph glyph-name="nine" unicode="9" horiz-adv-x="554" 
d="M516 347q0 -133 -83.5 -249.5t-203.5 -192.5t-221 -93l-6 20q89 24 174.5 102t140 198t54.5 262q0 66 -13 91.5t-39 25.5q-43 0 -77.5 -49t-54.5 -119t-20 -129q0 -88 49 -88q26 0 50 25t41 78l17 -5q-41 -145 -164 -145q-63 0 -102 39.5t-39 111.5q0 77 44.5 147
t119.5 112t161 42q172 0 172 -184z" />
    <glyph glyph-name="colon" unicode=":" horiz-adv-x="311" 
d="M142 504q28 27 69 27q32 0 50 -16t18 -45q0 -36 -29.5 -64.5t-68.5 -28.5q-32 0 -49.5 16t-17.5 44q0 40 28 67zM42 113q28 27 69 27q32 0 50 -16t18 -45q0 -36 -29.5 -64.5t-68.5 -28.5q-32 0 -49.5 16t-17.5 44q0 40 28 67z" />
    <glyph glyph-name="semicolon" unicode=";" horiz-adv-x="318" 
d="M147 504q28 27 69 27q32 0 50 -16t18 -45q0 -36 -29.5 -64.5t-68.5 -28.5q-32 0 -49.5 16t-17.5 44q0 40 28 67zM139 -50q-40 -55 -109 -86l-5 16q46 23 75.5 58.5t32.5 76.5q-27 -29 -62 -29q-30 0 -46 14t-16 40q0 41 30.5 70.5t73.5 29.5q32 0 49 -18.5t17 -53.5
q0 -63 -40 -118z" />
    <glyph glyph-name="less" unicode="&#x3c;" horiz-adv-x="594" 
d="M610 553l-487 -202l331 -174l-16 -32l-390 210l552 227z" />
    <glyph glyph-name="equal" unicode="=" horiz-adv-x="650" 
d="M112 440h501l-9 -30h-501zM72 300h501l-9 -30h-501z" />
    <glyph glyph-name="greater" unicode="&#x3e;" horiz-adv-x="595" 
d="M48 184l460 192l-370 198l16 29l429 -231l-525 -217z" />
    <glyph glyph-name="question" unicode="?" horiz-adv-x="486" 
d="M252 752.5q-25 -7.5 -38 -22.5q27 0 48.5 -19t21.5 -46q-1 -30 -23 -50.5t-54 -20.5q-30 0 -50.5 18.5t-20.5 49.5q0 41 31.5 68t79 39.5t96.5 12.5q81 0 136 -32.5t55 -91.5q0 -44 -40 -90.5t-138 -119.5q-70 -51 -101 -77t-45.5 -48.5t-14.5 -50.5q0 -29 17 -47t51 -18
q22 0 43 7t34 19q-19 6 -33.5 22.5t-14.5 40.5q0 27 19.5 46t49.5 19q24 0 41 -16t17 -41q0 -39 -29.5 -65.5t-72.5 -39t-85 -12.5q-68 0 -110.5 28.5t-42.5 83.5q0 35 18 65t46.5 55.5t79.5 65.5l19 15q57 46 84 70t42 49.5t15 55.5q0 39 -21 62t-62 23q-23 0 -48 -7.5z
M139 113q28 27 69 27q32 0 50 -16t18 -45q0 -36 -29.5 -64.5t-68.5 -28.5q-32 0 -49.5 16t-17.5 44q0 40 28 67z" />
    <glyph glyph-name="at" unicode="@" horiz-adv-x="863" 
d="M451 96q0 16 3 31q-28 -53 -62.5 -77t-78.5 -24q-53 0 -83.5 31t-30.5 91q0 70 38 148t99.5 130t128.5 52q36 0 52.5 -17t18.5 -52l16 55q79 0 126 14l-106 -361q-6 -22 -6 -35t5.5 -18.5t17.5 -5.5q33 0 87 37.5t96 108.5t42 167q0 128 -81.5 191.5t-216.5 63.5
t-242 -67t-166.5 -175t-59.5 -226q0 -100 44 -165t118 -95t165 -30q136 0 240 61l6 -13q-45 -30 -108 -47.5t-137 -17.5q-97 0 -175.5 31t-125.5 99.5t-47 174.5q0 122 60.5 234.5t172 183t255.5 70.5q146 0 232 -69t86 -204q0 -104 -49 -183t-120.5 -120.5t-134.5 -41.5
q-79 0 -79 70zM427.5 113.5q27.5 39.5 56.5 120.5l40 136l1 15q0 25 -9 41.5t-30 16.5q-34 0 -71.5 -44.5t-62.5 -113t-25 -136.5q0 -39 9.5 -57t31.5 -18q32 0 59.5 39.5z" />
    <glyph glyph-name="A" unicode="A" horiz-adv-x="653" 
d="M550 36q14 -15 32 -16l-4 -20q-51 3 -145 3q-102 0 -150 -3l4 20q34 2 53 8.5t27 24t6 51.5l-9 164h-216l-88 -125q-32 -45 -32 -74q0 -24 21.5 -35.5t62.5 -13.5l-5 -20q-84 3 -130 3q-37 0 -69 -3l4 20q26 7 50.5 30t62.5 76l417 587q9 -1 26 -1q18 0 25 1l40 -629
q3 -33 17 -48zM363 288l-13 265l-188 -265h201z" />
    <glyph glyph-name="B" unicode="B" horiz-adv-x="679" 
d="M559 324q58 -43 58 -108q0 -69 -42 -117.5t-116.5 -73.5t-170.5 -25l-58 1q-62 2 -117 2q-101 0 -155 -3l4 20q36 2 54 8t28.5 23t20.5 55l132 496q8 32 8 48q0 19 -14.5 28t-52.5 10l5 20q53 -3 152 -3l85 1q21 1 61 1q112 0 166 -34.5t54 -97.5q0 -52 -33.5 -95.5
t-94.5 -71.5t-141 -36q109 -5 167 -48zM383.5 674q-13.5 -14 -24.5 -57l-64 -241h35q54 0 93.5 30t60 79.5t20.5 105.5q0 47 -17.5 72t-59.5 25q-30 0 -43.5 -14zM365 51q42 28 63.5 76t21.5 107q0 57 -27.5 91t-87.5 34h-44l-67 -253q-8 -34 -8 -45q0 -19 11 -28.5t37 -9.5
q59 0 101 28z" />
    <glyph glyph-name="C" unicode="C" horiz-adv-x="693" 
d="M682 478h-22q8 46 8 79q0 46 -17 76q-35 65 -118 65q-80 0 -152.5 -70.5t-116 -183t-43.5 -230.5q0 -99 35.5 -148.5t99.5 -49.5q38 0 79 17.5t71 48.5q26 28 45.5 62.5t44.5 95.5h22q-47 -173 -59 -240h-22q3 21 3 34q0 26 -13 26q-8 0 -20 -9q-46 -31 -92 -48t-104 -17
q-134 0 -201 64t-67 184q0 118 62.5 231.5t172.5 185t243 71.5q56 0 88.5 -17t60.5 -48q8 -9 15 -9q18 0 40 60h21q-33 -86 -64 -230z" />
    <glyph glyph-name="D" unicode="D" horiz-adv-x="771" 
d="M700 246q-56 -108 -167.5 -177t-269.5 -69l-49 1q-58 2 -102 2q-97 0 -150 -3l3 20q34 2 51.5 8t28 23.5t20.5 54.5l131 496q8 27 8 43q0 22 -14.5 32t-51.5 11l3 20q45 -3 132 -3h32q105 3 149 3q147 0 224.5 -60.5t77.5 -178.5q0 -115 -56 -223zM440 89
q75 71 114.5 182.5t39.5 229.5q0 94 -39 141.5t-123 47.5q-26 0 -38.5 -6.5t-20.5 -23.5t-18 -56l-131 -500q-11 -44 -11 -55q0 -17 11.5 -24t38.5 -7q102 0 177 71z" />
    <glyph glyph-name="E" unicode="E" horiz-adv-x="626" 
d="M671 708q-28 -76 -38 -118q-5 -22 -13 -62h-22q1 13 1 36q0 67 -25 94t-86 27h-31q-35 0 -52.5 -5.5t-28 -22.5t-20.5 -55l-63 -236h37q50 0 84 35t53 85h23q-19 -57 -31 -105l-6 -25q-12 -47 -29 -130h-22q1 7 1 22q0 98 -84 98h-31l-64 -240q-9 -31 -9 -49
q0 -21 14.5 -27.5t51.5 -6.5h37q54 0 91 16.5t66 54.5t59 106h23q-11 -29 -22 -72q-17 -59 -26 -128q-68 3 -227 3q-216 0 -325 -3l5 20q36 2 53.5 8t28.5 23t21 55l132 496q8 34 8 48q0 22 -14.5 29t-52.5 9l5 20q109 -3 325 -3q142 0 203 3z" />
    <glyph glyph-name="F" unicode="F" horiz-adv-x="588" 
d="M671 708q-23 -62 -39 -122q-17 -63 -21 -88h-23q4 31 4 61q0 69 -27.5 97.5t-90.5 28.5h-23q-33 0 -49.5 -5.5t-26.5 -22.5t-19 -55l-64 -240h46q48 0 81 33t56 87h22q-15 -47 -37 -130q-9 -38 -31 -148h-22q3 68 -13.5 103t-66.5 35h-40l-63 -236q-8 -30 -8 -44
q0 -24 18.5 -32t67.5 -10l-4 -20q-61 3 -178 3q-110 0 -163 -3l5 20q36 2 53.5 8t28.5 23t21 55l132 496q8 34 8 48q0 22 -14.5 29t-52.5 9l5 20q109 -3 325 -3q142 0 203 3z" />
    <glyph glyph-name="G" unicode="G" horiz-adv-x="739" 
d="M381.5 12q20.5 6 35.5 15q16 11 24.5 26.5t16.5 46.5l23 88q9 33 9 52q0 25 -18 33.5t-66 10.5l5 20q62 -3 170 -3q94 0 141 3l-5 -20q-24 -2 -35.5 -8t-20 -22.5t-18.5 -55.5l-53 -198h-20q2 26 -5 41.5t-23 15.5q-15 0 -30 -6t-31 -14t-23 -12q-38 -20 -73 -29.5
t-72 -9.5q-131 0 -203 60t-72 169q0 116 62 234t172 195.5t246 77.5q60 0 95.5 -16.5t68.5 -48.5q9 -9 17 -9q10 0 19.5 14t20.5 46h22q-33 -86 -64 -230h-22q5 43 5 75q0 24 -3 40.5t-11 32.5q-20 38 -59.5 58t-94.5 20q-96 0 -167.5 -87t-109.5 -210t-38 -225
q0 -90 35.5 -133t107.5 -43q21 0 41.5 6z" />
    <glyph glyph-name="H" unicode="H" horiz-adv-x="810" 
d="M884 708l-5 -20q-37 -2 -54.5 -8t-28 -23t-20.5 -55l-132 -496q-9 -38 -9 -49q0 -21 14.5 -28t53.5 -9l-4 -20q-54 3 -164 3q-101 0 -157 -3l4 20q36 2 54 8t28.5 23t20.5 55l64 240h-261l-64 -240q-9 -38 -9 -49q0 -21 14.5 -28t53.5 -9l-4 -20q-55 3 -157 3
q-109 0 -163 -3l5 20q35 2 52.5 8t28 23.5t20.5 54.5l132 496q8 34 8 48q0 22 -14.5 29t-52.5 9l5 20q51 -3 163 -3q96 0 158 3l-5 -20q-37 -2 -54.5 -8t-28 -23t-20.5 -55l-63 -236h261l63 236q9 32 9 48q0 22 -15 29t-53 9l5 20q54 -3 156 -3q109 0 165 3z" />
    <glyph glyph-name="I" unicode="I" horiz-adv-x="390" 
d="M215 57q0 -21 14.5 -28t53.5 -9l-4 -20q-58 3 -163 3t-157 -3l5 20q35 2 52.5 8t28 23.5t20.5 54.5l132 496q8 34 8 48q0 22 -14.5 29t-52.5 9l5 20q49 -3 157 -3q99 0 164 3l-5 -20q-37 -2 -54.5 -8t-28 -23t-20.5 -55l-132 -496q-9 -38 -9 -49z" />
    <glyph glyph-name="J" unicode="J" horiz-adv-x="683" 
d="M787 718q0 -24 -73 -52q-59 -47 -100 -121.5t-73 -178.5h100l-3 -20h-102q-8 -26 -11 -39l-62 -242q-29 -114 -101 -183.5t-195 -69.5q-63 0 -101.5 18t-38.5 57q0 33 22.5 54.5t61.5 21.5q34 0 55.5 -16t22.5 -44q0 -47 -55 -71q9 -3 28 -3q38 0 62 28.5t39 72.5t41 140
l54 192q11 42 29 84h-136l3 20h142q43 90 110.5 153.5t177.5 135.5q-40 -14 -96 -42q-52 -24 -84 -35t-74 -11q-29 0 -54 6.5t-63 20.5q-30 11 -52 17t-45 6q-28 0 -44.5 -14.5t-16.5 -42.5q2 -67 113 -77l-3 -19q-79 6 -126.5 42.5t-47.5 101.5q0 60 36.5 95.5t105.5 35.5
q43 0 75.5 -12.5t75.5 -37.5q41 -25 74.5 -38t77.5 -13q85 0 169 39q38 58 63 58q8 0 13 -5q6 -6 6 -12z" />
    <glyph glyph-name="K" unicode="K" horiz-adv-x="740" 
d="M749.5 697.5q25.5 -24.5 25.5 -64.5q0 -37 -24.5 -68t-66.5 -31q-28 0 -47 17.5t-19 47.5t20 58t54 43q-6 3 -16 3q-18 0 -29 -5.5t-22 -16.5q-16 -18 -28 -46t-26 -73q-17 -54 -31.5 -89.5t-40.5 -63.5t-66 -37q77 -8 109.5 -38t32.5 -94q0 -11 -2 -39l-11 -105
q-3 -37 25 -37q19 0 32 14.5t24 45.5l17 51h20l-26 -77q-18 -54 -53 -80.5t-81 -26.5q-57 0 -86.5 27t-29.5 75q0 8 2 24l19 140q3 24 3 42q0 25 -6 40t-20 25q-44 -11 -61 -11q-25 0 -25 17q0 24 29 24q22 0 59 -10q45 6 72.5 33t42.5 61t33 92q15 51 27 80t31 48
q29 29 71 29q43 0 68.5 -24.5zM215 57q0 -21 14.5 -28t53.5 -9l-4 -20q-55 3 -157 3q-109 0 -163 -3l5 20q35 2 52.5 8t28 23.5t20.5 54.5l132 496q8 34 8 48q0 22 -14.5 29t-52.5 9l5 20q51 -3 163 -3q96 0 158 3l-5 -20q-37 -2 -54.5 -8t-28 -23t-20.5 -55l-132 -496
q-9 -38 -9 -49z" />
    <glyph glyph-name="L" unicode="L" horiz-adv-x="605" 
d="M538 128q-16 -56 -27 -128q-68 3 -227 3q-218 0 -327 -3l5 20q36 2 53.5 8t28.5 23t21 55l132 496q8 34 8 48q0 22 -14.5 29t-52.5 9l5 20q53 -3 165 -3q94 0 156 3l-5 -20q-37 -2 -54.5 -8t-28.5 -23t-21 -55l-132 -496q-9 -38 -9 -49q0 -21 14.5 -27.5t52.5 -6.5h40
q71 0 125 43.5t94 143.5h22q-10 -27 -24 -82z" />
    <glyph glyph-name="M" unicode="M" horiz-adv-x="917" 
d="M830 705q96 0 161 3l-5 -20q-37 -2 -54.5 -8t-28 -23t-20.5 -55l-132 -496q-8 -34 -8 -48q0 -22 14.5 -29t52.5 -9l-4 -20q-63 3 -160 3q-109 0 -160 -3l4 20q37 2 54.5 8t28 23t20.5 55l145 539l-415 -650h-22l-81 614l-126 -480q-8 -29 -8 -49q0 -29 19 -44t64 -16
l-4 -20q-36 3 -112 3q-60 0 -95 -3l5 20q48 2 71.5 29t36.5 80l127 473q8 34 8 48q0 22 -14.5 29t-52.5 9l5 20q45 -3 137 -3q52 0 90 3l57 -511l324 508h78z" />
    <glyph glyph-name="N" unicode="N" horiz-adv-x="825" 
d="M907.5 730q25.5 -24 25.5 -61q0 -39 -26 -65t-65 -26q-33 0 -51 16.5t-18 43.5q0 33 21 58t54 35q-4 4 -16 4q-48 0 -84 -53q-44 -66 -92 -232.5t-109 -454.5h-22l-248 543q-43 -212 -81.5 -357t-74.5 -192q-22 -29 -46.5 -46t-60.5 -17q-44 0 -69 24t-25 61
q0 39 25.5 65t65.5 26q32 0 50.5 -16.5t18.5 -43.5q0 -33 -21.5 -58t-54.5 -35q5 -4 17 -4q51 0 84 54q37 59 77 211t87 392q6 29 6 45q0 24 -16 31.5t-61 9.5l5 20q32 -3 89 -3q46 0 81 3l207 -474q84 359 150 456q44 64 108 64q44 0 69.5 -24z" />
    <glyph glyph-name="O" unicode="O" horiz-adv-x="777" 
d="M99.5 455q57.5 116 161.5 191.5t234 75.5q128 0 200 -63t72 -178q0 -113 -58 -228.5t-162 -191t-234 -75.5q-128 0 -199.5 63t-71.5 177q0 113 57.5 229zM355 632q-63 -72 -102 -186t-39 -233q0 -97 30 -153t78 -56q68 0 131 72t102 186t39 233q0 97 -30 153t-78 56
q-68 0 -131 -72z" />
    <glyph glyph-name="P" unicode="P" horiz-adv-x="643" 
d="M223 106q-7 -24 -7 -44q0 -21 14.5 -31t51.5 -11l-4 -20q-60 3 -154 3q-113 0 -166 -3l4 20q36 2 54 8t28.5 23t20.5 55l132 496q7 33 7 47q0 20 -14.5 29t-51.5 10l5 20q51 -3 159 -3q48 0 72 1l74 1q235 0 235 -151q0 -78 -52 -140t-146 -97t-215 -35zM276 304h4
q83 0 136 40t76.5 102.5t23.5 132.5q0 55 -23 82t-74 27q-21 0 -31 -7t-16.5 -23t-16.5 -56z" />
    <glyph glyph-name="Q" unicode="Q" horiz-adv-x="831" 
d="M728.5 81.5q22.5 -21.5 22.5 -62.5q0 -50 -37.5 -98t-101.5 -78.5t-140 -30.5q-58 0 -106.5 18.5t-85 45.5t-81.5 68q-76 -26 -133 -26q-49 0 -76.5 20.5t-27.5 60.5q0 49 39.5 80.5t100.5 31.5q53 0 102 -24t117 -71q91 47 165 122t117 168.5t43 194.5q0 96 -39 149.5
t-112 53.5q-68 0 -121 -45.5t-82 -116.5t-29 -146q0 -61 24.5 -92.5t77.5 -31.5q60 0 105.5 38t57.5 89q6 22 4 48q-10 -30 -35.5 -45t-52.5 -15q-33 0 -52.5 21t-19.5 53q0 39 27.5 65.5t67.5 26.5q42 0 66 -29.5t24 -80.5q0 -57 -31.5 -103t-88 -71.5t-127.5 -25.5
q-97 0 -156 47.5t-59 130.5q0 84 59 153t156.5 108.5t205.5 39.5q88 0 156 -25t106 -71t38 -107q0 -86 -69.5 -182.5t-179 -183.5t-229.5 -149q74 -52 131.5 -79.5t121.5 -27.5q92 0 129 71q-28 -22 -64 -22q-34 0 -56 19.5t-22 53.5q0 36 25.5 60t65.5 24q37 0 59.5 -21.5z
M185 -42q-46 42 -77.5 62.5t-65.5 20.5q-26 0 -42.5 -13t-16.5 -36q0 -27 24 -42t67 -15q44 0 111 23z" />
    <glyph glyph-name="R" unicode="R" horiz-adv-x="711" 
d="M655 121h23l-4 -13q-19 -63 -55 -92.5t-98 -29.5q-61 0 -91.5 26t-30.5 71q0 13 1 19l15 114q2 24 2 33q0 46 -28.5 67.5t-102.5 23.5l-62 -234q-10 -35 -10 -49q0 -19 15 -27.5t53 -9.5l-4 -20q-60 3 -156 3q-111 0 -164 -3l4 20q36 2 54 8t28.5 23t20.5 55l131 496
q9 36 9 47q0 20 -14.5 29t-52.5 10l5 20q51 -3 151 -3l86 1q23 1 64 1q122 0 180.5 -34t58.5 -105q0 -88 -79.5 -147.5t-214.5 -74.5q91 -9 138 -33t47 -83q0 -6 -2 -22l-14 -103q-1 -8 -1 -22q0 -48 32 -48q19 0 33 17.5t28 54.5zM290 358h8q101 0 162.5 59.5t61.5 165.5
q0 54 -23 79.5t-70 25.5q-30 0 -44.5 -13.5t-24.5 -52.5z" />
    <glyph glyph-name="S" unicode="S" horiz-adv-x="587" 
d="M561 511h-20q6 29 6 56q0 60 -37 95.5t-106 35.5q-54 0 -87.5 -27t-33.5 -82q0 -46 27.5 -86.5t83.5 -100.5q42 -44 66 -74t41 -66t17 -76q0 -67 -43 -112t-106.5 -66.5t-126.5 -21.5q-64 0 -99 11t-74 35q-22 15 -35 15t-20.5 -10.5t-21.5 -43.5h-20q16 38 31.5 91.5
t36.5 148.5h20q-9 -38 -9 -71q0 -75 41.5 -114.5t121.5 -39.5q129 0 129 105q0 56 -26.5 100.5t-79.5 102.5q-36 41 -57 68.5t-35.5 62.5t-14.5 75q0 64 36.5 109.5t93.5 68t116 22.5q52 0 89 -12t69 -32q26 -16 33 -16q8 0 15.5 12.5t17.5 40.5h20q-38 -96 -59 -204z" />
    <glyph glyph-name="T" unicode="T" horiz-adv-x="681" 
d="M837 837.5q21 -20.5 21 -49.5q0 -61 -69 -95q-61 -29 -167 -29q-18 0 -58 2l-147 -550q-8 -30 -8 -46q0 -26 18.5 -37t64.5 -13l-4 -20q-63 3 -185 3q-119 0 -176 -3l4 20q43 2 66.5 10.5t37 28t23.5 57.5l151 565q-75 7 -120 7q-83 0 -113 -17q26 -8 43 -29.5t17 -51.5
q0 -35 -22 -59.5t-56 -24.5q-33 0 -52.5 22.5t-19.5 56.5q0 28 15.5 54t49.5 43q49 24 134 24q66 0 186 -12q110 -10 160 -10q67 0 106 13q-15 14 -25 34.5t-10 44.5q0 36 21.5 59t57.5 23q35 0 56 -20.5z" />
    <glyph glyph-name="U" unicode="U" horiz-adv-x="694" 
d="M659 629q0 29 -17 41.5t-59 17.5l5 20q37 -3 107 -3q55 0 88 3l-5 -20q-34 -5 -53 -17t-31.5 -38t-25.5 -77l-68 -265q-36 -138 -98 -212q-37 -43 -90.5 -68t-114.5 -25q-73 0 -122 20.5t-73 58.5q-27 39 -27 93q0 48 22 130l83 314q8 34 8 48q0 22 -14.5 29t-52.5 9
l6 20q51 -3 165 -3q93 0 155 3l-6 -20q-37 -2 -54.5 -8t-28 -23t-20.5 -55l-88 -331q-24 -88 -24 -146q0 -52 22 -78t68 -26q105 0 165.5 68t92.5 191l69 264q16 59 16 85z" />
    <glyph glyph-name="V" unicode="V" horiz-adv-x="661" 
d="M780 708l-5 -20q-33 -9 -59.5 -31.5t-59.5 -74.5l-382 -587l-25 1l-26 -1l-79 629q-4 33 -19.5 48t-32.5 16l5 20q51 -3 144 -3q101 0 153 3l-5 -20q-45 -2 -63 -13.5t-18 -46.5q0 -15 1 -24l50 -443l263 404q30 46 30 74q0 24 -21 35.5t-62 13.5l5 20q39 -3 131 -3
q43 0 75 3z" />
    <glyph glyph-name="W" unicode="W" horiz-adv-x="982" 
d="M1091 708l-5 -20q-35 -10 -62 -31.5t-56 -74.5l-315 -587h-52l-62 446l-269 -446h-52l-79 629q-4 34 -19 48.5t-34 15.5l5 20q49 -3 140 -3q85 0 130 3l-5 -20q-29 -2 -41 -14t-12 -45q0 -16 1 -25l48 -434l183 301l-21 153q-4 33 -16 48t-27 16l5 20q47 -3 130 -3
q104 0 156 3l-5 -20q-45 -2 -62.5 -13.5t-17.5 -43.5q0 -7 2 -27l53 -418l206 379q25 47 25 74q0 25 -20.5 36t-63.5 13l5 20q41 -3 131 -3q45 0 76 3z" />
    <glyph glyph-name="X" unicode="X" horiz-adv-x="741" 
d="M781.5 696q23.5 -26 23.5 -65q0 -42 -25 -69.5t-64 -27.5q-31 0 -48 18t-17 49q1 33 22 60t54 38q-5 4 -17 4q-34 0 -65 -23q-38 -30 -86 -100t-94 -171l33 -284q5 -32 18.5 -50t38.5 -18q24 0 40 14.5t28 47.5l17 51h20l-26 -77q-20 -56 -54.5 -81.5t-84.5 -25.5
q-77 0 -111.5 40.5t-43.5 115.5l-14 116q-39 -74 -89 -138.5t-96 -99.5q-44 -34 -93 -34q-42 0 -65 26t-23 65q0 42 25 69.5t64 27.5q30 0 47 -17.5t17 -47.5q0 -34 -20.5 -61.5t-54.5 -38.5q4 -4 17 -4q31 0 66 23q43 30 97.5 98t103.5 164l-36 296q-8 70 -56 70
q-23 0 -39.5 -16t-28.5 -51l-17 -51h-20l26 77q20 56 56 81.5t90 25.5q72 0 105.5 -40t43.5 -116l15 -125q35 77 79.5 143.5t84.5 101.5q45 36 91 36q42 0 65.5 -26z" />
    <glyph glyph-name="Y" unicode="Y" horiz-adv-x="734" 
d="M790 697.5q25 -24.5 25 -61.5q0 -38 -25.5 -64t-65.5 -26q-33 0 -51 16.5t-18 44.5q1 33 22 57.5t54 34.5q-5 4 -17 4q-30 0 -60 -23q-45 -32 -102 -123.5t-103 -225.5l-57 -225q-6 -24 -6 -40q0 -26 17 -35t60 -11l-5 -20q-57 3 -172 3q-108 0 -161 -3l5 20q36 2 54 8
t29 23.5t20 54.5l54 215q-16 137 -44 232t-71 95q-17 0 -27.5 -12t-18.5 -35l-21 -63h-22l25 77q19 57 54.5 82t86.5 25q65 0 102.5 -40.5t56 -115t32.5 -201.5q33 94 75 169t89 126q57 62 118 62q43 0 68 -24.5z" />
    <glyph glyph-name="Z" unicode="Z" horiz-adv-x="658" 
d="M722 700q0 -14 -18.5 -30.5t-56.5 -31.5l-277 -272h152l-8 -20h-164l-283 -278q49 43 101 66.5t103 23.5q35 0 62.5 -6.5t61.5 -18.5q29 -10 46.5 -14.5t36.5 -4.5q21 0 33 10.5t12 29.5q0 42 -73 58l4 19q55 -9 92.5 -36.5t37.5 -79.5q0 -57 -39.5 -93t-105.5 -36
q-39 0 -68 11.5t-69 33.5q-41 23 -69 33.5t-65 10.5q-27 0 -49.5 -6.5t-56.5 -20.5q-18 -26 -38.5 -42t-35.5 -16q-9 0 -14 5q-6 4 -6 13q0 14 18.5 30.5t56.5 31.5l281 276h-162l7 20h175l279 274q-49 -43 -101 -66.5t-102 -23.5q-35 0 -63 6.5t-62 18.5q-27 10 -45 14.5
t-37 4.5q-22 0 -33.5 -10.5t-11.5 -29.5q0 -21 17.5 -35.5t55.5 -22.5l-5 -19q-55 9 -92.5 36.5t-37.5 79.5q0 57 39.5 93t105.5 36q39 0 68 -11.5t69 -33.5q41 -23 69 -33.5t65 -10.5q27 0 49.5 6.5t56.5 20.5q18 26 38.5 42t35.5 16q9 0 14 -5q6 -4 6 -13z" />
    <glyph glyph-name="bracketleft" unicode="[" horiz-adv-x="362" 
d="M215 772h230l-4 -19h-81l-229 -915h81l-4 -19h-230z" />
    <glyph glyph-name="backslash" unicode="\" horiz-adv-x="491" 
d="M390 -14h-33l-226 736h31z" />
    <glyph glyph-name="bracketright" unicode="]" horiz-adv-x="363" 
d="M148 -181h-230l4 19h81l229 915h-81l4 19h230z" />
    <glyph glyph-name="asciicircum" unicode="^" horiz-adv-x="528" 
d="M176.5 347.5q-52.5 -22.5 -104.5 -37.5l-4 14q75 32 142 87.5t108 116.5h18q9 -62 46.5 -116.5t97.5 -86.5l-8 -15q-56 12 -110 34.5t-96 49.5q-37 -24 -89.5 -46.5z" />
    <glyph glyph-name="underscore" unicode="_" horiz-adv-x="698" 
d="M524 -87.1582l-30 -87.1211h-549l29 87.1211h550z" />
    <glyph glyph-name="grave" unicode="`" horiz-adv-x="324" 
d="M253 703q-17 17 -31.5 32.5t-23.5 30.5q-11 19 -11 36q0 13 6.5 24t17.5 18t26 7q17 0 31.5 -8.5t23.5 -23.5t14.5 -32t13.5 -48q15 -69 40 -133l-12 -7q-39 48 -95 104z" />
    <glyph glyph-name="a" unicode="a" horiz-adv-x="558" 
d="M495 162h19l-25 -73q-20 -56 -55.5 -79.5t-76.5 -23.5q-52 0 -74 31q-14 18 -14 50q0 26 9 59q-34 -74 -75.5 -107t-91.5 -33q-55 0 -83.5 32.5t-28.5 90.5q0 89 47.5 188.5t120.5 166.5t143 67q27 0 43.5 -16t19.5 -48l14 49q80 1 145 15l-131 -446q-5 -17 -5 -28
q0 -22 19 -22q35 0 62 79zM362 428q1 5 1 15q0 25 -8.5 38t-25.5 13q-34 0 -77.5 -61t-74 -153t-30.5 -178q0 -33 6.5 -47.5t21.5 -14.5q22 0 48.5 30.5t53 88t46.5 136.5l-5 -24z" />
    <glyph glyph-name="b" unicode="b" horiz-adv-x="547" 
d="M486.5 491.5q31.5 -39.5 31.5 -114.5q0 -82 -38.5 -173.5t-109.5 -154.5t-163 -63q-28 0 -51 11t-34 31q-28 -2 -59.5 -13.5t-71.5 -30.5l-15 7q13 27 21 59l181 617q4 13 4 28q0 20 -15 29t-52 9l6 21q69 1 124 11t107 30l-117 -406q37 74 75 108t84 34q61 0 92.5 -39.5
zM271 79q45 64 73 157.5t28 172.5q0 37 -8.5 53t-25.5 16q-28 0 -62.5 -49.5t-65.5 -128.5l-76 -263q19 -22 45 -22q47 0 92 64z" />
    <glyph glyph-name="c" unicode="c" horiz-adv-x="463" 
d="M262.5 457.5q-46.5 -53.5 -75.5 -140t-29 -177.5q0 -100 76 -100q72 0 132 88l20 -8q-36 -58 -91.5 -96t-126.5 -38q-73 0 -116.5 39t-43.5 115q0 86 43 177.5t121 152.5t177 61q55 0 88.5 -27.5t33.5 -68.5q0 -27 -13 -53t-36 -42t-50 -16q-25 0 -41 16t-16 42
q0 39 27 69.5t64 39.5q-17 20 -48 20q-49 0 -95.5 -53.5z" />
    <glyph glyph-name="d" unicode="d" horiz-adv-x="579" 
d="M516 162h19l-24 -73q-18 -57 -53.5 -80t-78.5 -23q-62 0 -79 46q-8 18 -8 42q0 29 12 71l1 4q-38 -85 -80.5 -124t-101.5 -39q-53 0 -86 35t-33 105q0 81 42 176.5t118 162t173 66.5q47 0 61 -34l45 170q5 18 5 28q0 20 -15.5 29t-52.5 9l6 21q69 1 125.5 11t108.5 30
l-196 -710q-5 -14 -5 -27q0 -23 19 -23q15 0 30 17.5t31 61.5zM391 473q-11 35 -40 35q-43 0 -89.5 -61.5t-78 -155.5t-31.5 -186q0 -35 7.5 -52t24.5 -17q20 0 47 29.5t56.5 85.5t53.5 133z" />
    <glyph glyph-name="e" unicode="e" horiz-adv-x="469" 
d="M375 307q-93 -62 -216 -96q-6 -34 -6 -68q0 -53 19.5 -75t57.5 -22q31 0 70 19.5t76 62.5l16 -8q-36 -56 -96.5 -95t-135.5 -39q-69 0 -113 37t-44 104q0 89 48 184t131 157.5t182 62.5q46 0 75 -20.5t29 -58.5q0 -83 -93 -145zM276 471q-37 -41 -68 -106.5t-46 -134.5
q71 31 110 67q40 36 63 82.5t23 99.5q0 19 -4 26t-12 7q-29 0 -66 -41z" />
    <glyph glyph-name="f" unicode="f" horiz-adv-x="341" 
d="M498 756q35 -26 35 -70q0 -33 -26.5 -60t-65.5 -27q-30 0 -47 14t-17 40q0 33 21 59t56 39q-5 6 -14 9.5t-20 3.5q-30 0 -53 -20q-18 -16 -31 -51t-30 -99l-21 -77h107l-6 -20h-106l-180 -671q-84 -1 -145 -14l184 685h-84l6 20h83q22 81 50 134.5t66 84.5q56 46 141 46
q62 0 97 -26z" />
    <glyph glyph-name="g" unicode="g" horiz-adv-x="472" 
d="M512 558q17 -17 17 -47q0 -27 -14 -42.5t-33 -15.5q-20 0 -35 15.5t-15 42.5q0 19 9 44q-39 -17 -60 -45q26 -13 40 -36.5t14 -56.5q0 -42 -23.5 -83.5t-66.5 -72t-100 -41.5q-56 -25 -80.5 -40t-24.5 -29q0 -9 11 -15.5t34 -13.5l84 -28q53 -18 83.5 -41.5t30.5 -66.5
q0 -48 -41.5 -88.5t-111.5 -64.5t-151 -24q-78 0 -130 21t-52 55q0 35 56 59.5t127 32.5l4 -15q-62 -34 -62 -79q0 -28 21 -42.5t58 -14.5t77.5 14.5t67.5 39t27 52.5q0 16 -11.5 23.5t-40.5 15.5l-142 41q-27 8 -43.5 24.5t-16.5 40.5q0 36 42.5 67t136.5 71h-10
q-67 0 -108.5 28t-41.5 84q0 46 28.5 93t84.5 78.5t133 31.5q42 0 78 -11q18 25 45.5 40.5t56.5 15.5q31 0 48 -17zM274 300.5q24 67.5 24 148.5q0 30 -6.5 46.5t-25.5 16.5q-29 0 -50.5 -35t-32 -86.5t-10.5 -98.5q0 -32 8 -45.5t24 -13.5q45 0 69 67.5z" />
    <glyph glyph-name="h" unicode="h" horiz-adv-x="570" 
d="M525 162l-25 -73q-36 -103 -134 -103q-91 0 -91 81q0 36 15 78l89 270q9 29 9 44q0 22 -19 22q-28 0 -66.5 -52t-78.5 -140t-73 -192l-24 -84q-1 -1 -1 -3v1l-3 -11h-141l198 667q5 18 5 28q0 20 -15.5 29t-52.5 9l6 21q70 1 125.5 11t107.5 30l-136 -465
q51 113 100.5 157t112.5 44q47 0 69 -21.5t22 -58.5q0 -32 -14 -71l-98 -295q-6 -18 -6 -29q0 -21 20 -21q33 0 62 79l18 48h19z" />
    <glyph glyph-name="i" unicode="i" horiz-adv-x="322" 
d="M207 749q29 24 72 24q35 0 54.5 -16.5t19.5 -45.5q0 -40 -30 -66t-74 -26q-36 0 -55 17.5t-17 47.5q1 41 30 65zM146 462q0 20 -18 20t-33 -18.5t-31 -60.5l-20 -51h-19l28 76q37 103 139 103q46 0 67 -22.5t21 -58.5q0 -29 -11 -59l-105 -306q-6 -18 -6 -29
q0 -21 20 -21q15 0 30.5 17t32.5 62l18 48h19l-26 -73q-35 -103 -135 -103q-91 0 -91 83q0 33 15 76l98 287q7 23 7 30z" />
    <glyph glyph-name="j" unicode="j" horiz-adv-x="301" 
d="M-134 -170q51 2 88.5 39.5t55.5 112.5l126 450q6 20 6 31q0 19 -18 19q-17 0 -32.5 -18.5t-30.5 -60.5l-19 -51h-19l27 76q19 55 56 79t83 24q86 0 86 -79q0 -28 -10 -61l-83 -297q-20 -84 -50 -138t-78 -90q-73 -54 -192 -54zM201 749q29 26 74 26q35 0 54.5 -16
t19.5 -45q0 -39 -30 -66t-74 -27q-35 0 -54 15.5t-19 44.5q0 42 29 68z" />
    <glyph glyph-name="k" unicode="k" horiz-adv-x="552" 
d="M514.5 505.5q23.5 -25.5 23.5 -64.5q0 -38 -23 -63t-61 -25q-30 0 -47 16t-17 40q0 30 19 54.5t47 39.5q-5 8 -16 8q-24 0 -42 -15q-13 -11 -21.5 -27.5t-22.5 -49.5q-20 -52 -43 -84t-66 -43q167 -4 167 -109q0 -15 -3 -32l-15 -74q-3 -13 -3 -22q0 -11 4.5 -15.5
t13.5 -4.5q33 0 61 79l18 48h19l-25 -73q-36 -103 -144 -103q-40 0 -61.5 20t-21.5 58q0 20 4 37l17 77q6 24 6 41q0 29 -17.5 44t-58.5 21l-83 -284h-141l198 667q5 18 5 28q0 20 -15.5 29t-52.5 9l6 21q70 1 125.5 11t107.5 30l-145 -496q37 6 60.5 24.5t36.5 41.5t27 60
q11 31 21.5 50.5t26.5 32.5q28 23 62 23q46 0 69.5 -25.5z" />
    <glyph glyph-name="l" unicode="l" horiz-adv-x="300" 
d="M138 60q0 -25 21 -25q31 0 60 79l18 48h19l-25 -73q-19 -56 -55 -79.5t-78 -23.5q-45 0 -68 23.5t-23 65.5q0 31 12 70l157 522q5 18 5 28q0 20 -15.5 29t-52.5 9l7 21q69 1 124 11t108 30l-210 -710q-4 -13 -4 -25z" />
    <glyph glyph-name="m" unicode="m" horiz-adv-x="856" 
d="M811 162l-25 -73q-36 -103 -135 -103q-58 0 -80 36q-11 17 -11 45q0 33 15 78l90 270q8 26 8 40q0 20 -14 20q-41 0 -98.5 -98.5t-115.5 -286.5v3l-26 -93h-143l122 415q8 26 8 41q0 19 -16 19q-45 0 -101.5 -104t-106.5 -271v1l-26 -101h-141l122 432q5 17 5 29
q0 21 -18 21t-32.5 -18.5t-30.5 -60.5l-19 -51h-19l27 76q20 55 55.5 79t79.5 24q43 0 62 -22t19 -58q0 -26 -9 -60l-22 -86q49 122 100.5 174t123.5 52q79 0 79 -78q0 -28 -12 -73l-18 -64q50 119 101.5 167t118.5 48q42 0 62 -21t20 -57q0 -33 -14 -73l-98 -295
q-6 -19 -6 -29q0 -21 19 -21q34 0 63 79l18 48h19z" />
    <glyph glyph-name="n" unicode="n" horiz-adv-x="603" 
d="M559 162l-25 -73q-36 -103 -134 -103q-56 0 -80 33q-13 19 -13 47q0 32 16 79l90 270q9 27 9 43q0 23 -19 23q-30 0 -72.5 -61t-85.5 -160.5t-75 -209.5l-13 -50h-141l121 432q6 18 6 32q0 18 -17 18q-19 0 -33.5 -17.5t-30.5 -61.5l-19 -51h-19l27 76q19 55 51 79t78 24
q86 0 86 -82q0 -28 -8 -58l-31 -121q41 102 78.5 158.5t76 79.5t85.5 23q90 0 90 -80q0 -30 -13 -71l-98 -295q-6 -18 -6 -29q0 -21 19 -21q16 0 31.5 17t31.5 62l18 48h19z" />
    <glyph glyph-name="o" unicode="o" horiz-adv-x="529" 
d="M49.5 322q37.5 89 111 149t175.5 60q78 0 120 -42.5t42 -122.5q0 -82 -37.5 -171t-111 -149t-175.5 -60q-78 0 -120 42.5t-42 122.5q0 82 37.5 171zM250 440q-44 -71 -74 -174t-30 -192q0 -36 8 -52t26 -16q37 0 80.5 69t73.5 171.5t30 194.5q0 39 -8 54.5t-25 15.5
q-37 0 -81 -71z" />
    <glyph glyph-name="p" unicode="p" horiz-adv-x="583" 
d="M521.5 491.5q31.5 -39.5 31.5 -114.5q0 -82 -36.5 -173.5t-104.5 -154.5t-158 -63q-28 0 -52 9t-38 26l-27 -96q-6 -21 -6 -36q0 -28 20 -38t63 -11l-6 -21l-23 1q-102 3 -135 3t-141 -4l6 21q36 0 52 13t26 49l181 649q-28 -62 -64 -111.5t-88 -102.5l-11 13
q44 48 73 83.5t58.5 87t58.5 125.5l3 12q81 6 149 28l-86 -305q36 78 76 114t86 36q61 0 92.5 -39.5zM306.5 75.5q44.5 60.5 72.5 150t28 169.5q0 47 -8.5 65t-24.5 18q-30 0 -68 -58t-70 -147l-67 -235q19 -23 46 -23q47 0 91.5 60.5z" />
    <glyph glyph-name="q" unicode="q" horiz-adv-x="551" 
d="M381 -87q-5 -17 -5 -28q0 -22 16.5 -32.5t49.5 -12.5l-6 -21l-24 1q-102 3 -131 3q-35 0 -147 -4l6 21q46 1 68 17t32 53l64 240q-39 -87 -80 -125.5t-92 -38.5q-61 0 -92.5 39.5t-31.5 114.5q0 80 40.5 172.5t112 155.5t158.5 63q29 0 52 -11.5t34 -31.5q51 4 130 44
l16 -7q-12 -24 -22 -59zM393 479q-19 23 -46 23q-47 0 -91.5 -66t-73 -160t-28.5 -168q0 -34 8.5 -48.5t25.5 -14.5q24 0 54 35t57.5 93.5t43.5 124.5l-3 -15z" />
    <glyph glyph-name="r" unicode="r" horiz-adv-x="470" 
d="M476.5 508.5q21.5 -22.5 21.5 -58.5q0 -43 -27.5 -73.5t-67.5 -30.5q-29 0 -45 15.5t-16 44.5q0 35 24 63.5t59 36.5q-2 0 -6 1.5t-7 1.5q-51 0 -104 -74t-108 -264l-44 -171h-141l122 432q5 16 5 31q0 19 -16 19q-19 0 -34 -18t-31 -61l-19 -51h-19l27 76
q37 103 138 103q77 0 77 -81q0 -29 -8 -59l-8 -32q37 95 75.5 133.5t92.5 38.5q38 0 59.5 -22.5z" />
    <glyph glyph-name="s" unicode="s" horiz-adv-x="420" 
d="M113 7q38 0 61 23t23 63q0 32 -14 66t-42 77q-4 6 -23.5 36t-29 57.5t-9.5 54.5q0 65 48.5 106t133.5 41q65 0 108.5 -23.5t43.5 -80.5q0 -28 -16 -51t-45 -23q-25 0 -40 19t-15 48q0 25 9 46.5t22 36.5q-13 8 -35 8q-36 0 -56.5 -22.5t-21.5 -62.5q0 -27 10.5 -49
t35.5 -62l14 -21q32 -53 45.5 -87t13.5 -68q0 -44 -23 -78.5t-65.5 -54.5t-99.5 -20q-71 0 -118 27.5t-47 88.5q0 30 15 51t41 21t41.5 -22t15.5 -56q0 -22 -5 -39.5t-15 -42.5q15 -7 39 -7z" />
    <glyph glyph-name="t" unicode="t" horiz-adv-x="353" 
d="M164 85q-3 -10 -3 -20q0 -15 8 -22.5t22 -7.5q22 0 42.5 21.5t36.5 64.5l15 41h19l-20 -58q-39 -118 -150 -118q-51 0 -76.5 26.5t-25.5 72.5q0 29 9 60l101 352h-90l5 20h91l43 149q85 1 145 14l-47 -163h113l-3 -20h-116z" />
    <glyph glyph-name="u" unicode="u" horiz-adv-x="597" 
d="M536 165h19l-27 -76q-19 -55 -54.5 -79t-79.5 -24q-27 0 -46 9t-28 25q-9 18 -9 41t10 65l27 103q-39 -94 -75 -147t-73 -74.5t-83 -21.5q-45 0 -67.5 21t-22.5 61q0 31 13 69l97 295q6 18 6 29q0 21 -19 21q-16 0 -31.5 -17t-31.5 -62l-18 -48h-19l25 73q36 103 134 103
q91 0 91 -83q0 -31 -14 -76l-90 -270q-9 -27 -9 -43q0 -23 19 -23q30 0 71 59t82.5 156.5t73.5 209.5l15 56q89 2 145 14l-125 -446q-6 -21 -6 -33q0 -17 17 -17q19 0 34 18t30 61z" />
    <glyph glyph-name="v" unicode="v" horiz-adv-x="525" 
d="M396.5 385q-27.5 35 -27.5 78q0 32 17.5 50t47.5 18q36 0 52.5 -30.5t14.5 -84.5q-5 -101 -43 -200.5t-110 -164.5t-172 -65q-75 0 -108 34t-33 85q0 165 268 385q-24 -3 -42.5 -14t-43.5 -32q-21 -18 -35 -26.5t-29 -8.5q-13 0 -31 10q-16 9 -26 9q-14 0 -22.5 -10.5
t-17.5 -37.5l-8 -27h-19l22 73q29 106 94 106q12 0 21 -3.5t23 -11.5q15 -9 27.5 -13.5t30.5 -4.5q41 0 73 21l10 19l21 -10q-74 -107 -118 -222.5t-44 -201.5q0 -38 11 -56t34 -18q59 0 108 46t81 115t44 137q-43 21 -70.5 56z" />
    <glyph glyph-name="w" unicode="w" horiz-adv-x="680" 
d="M629 318q0 -81 -26.5 -157.5t-79 -125.5t-126.5 -49q-80 0 -114 55q-63 -55 -147 -55q-65 0 -99.5 34.5t-34.5 87.5q0 59 43 119.5t111 119.5t179 142q-25 -4 -45.5 -15.5t-46.5 -30.5q-22 -17 -37 -25.5t-31 -8.5q-14 0 -32 10q-14 9 -26 9q-13 0 -22 -11t-17 -37
l-9 -27h-19l22 73q18 57 42 79.5t53 22.5q12 0 22 -3t24 -10q3 -1 15 -6t25.5 -7.5t27.5 -2.5q41 0 77 21l11 19l21 -10q-104 -106 -169.5 -219.5t-65.5 -205.5q0 -38 12 -56t39 -18q35 0 70 26q-12 27 -12 67q0 58 26.5 113t65 89t69.5 34q38 0 38 -66q0 -54 -21.5 -105
t-64.5 -95q25 -46 76 -46q50 0 85 39.5t52 100t17 121.5q0 22 -1 32q-56 22 -93.5 53t-37.5 80q0 24 16 41t43 17q46 0 67.5 -53t25.5 -121q2 -26 2 -39zM395 313q-15 -24 -25 -62.5t-10 -78.5q0 -33 9 -60q33 38 52 85t19 93q0 47 -17 47q-13 0 -28 -24z" />
    <glyph glyph-name="x" unicode="x" horiz-adv-x="565" 
d="M558.5 513.5q20.5 -17.5 20.5 -48.5t-21 -51.5t-54 -20.5q-30 0 -54 16.5t-35 50.5q-44 -50 -76 -133l27 -243q4 -25 12.5 -35.5t21.5 -10.5q16 0 30 18t31 68l13 37h19l-25 -73q-34 -102 -134 -102q-47 0 -76 22.5t-35 75.5l-9 80q-33 -71 -71 -117q-53 -61 -111 -61
q-34 0 -53.5 17t-19.5 46q0 33 22 54t54 21q59 0 87 -67q52 59 87 147l-26 229q-4 24 -12.5 33t-22.5 9q-15 0 -29 -16.5t-31 -65.5l-13 -37h-19l25 73q20 58 56 80t82 22q49 0 76 -23.5t33 -82.5l7 -59q26 60 61 104q48 61 110 61q32 0 52.5 -17.5z" />
    <glyph glyph-name="y" unicode="y" horiz-adv-x="482" 
d="M468 440q0 -90 -58 -214.5t-139 -221.5q-51 -61 -112.5 -108t-126.5 -69q-40 -15 -71 -15q-32 0 -50.5 15t-18.5 41q0 27 19.5 44.5t49.5 17.5q59 0 107 -69q72 35 130 92l-78 478q-5 28 -10.5 37.5t-15.5 9.5q-11 0 -21 -15t-26 -59l-18 -49h-19l25 73q20 57 50.5 80
t72.5 23q43 0 67 -24t33 -84l46 -343q44 63 76 128.5t47 125.5q-41 22 -67 56t-25 73q0 31 18 49.5t49 18.5q66 0 66 -91z" />
    <glyph glyph-name="z" unicode="z" horiz-adv-x="464" 
d="M101 96q37 23 56.5 33t39.5 10q16 0 28 -4t31 -13q14 -8 24.5 -11.5t22.5 -3.5q18 0 27.5 10t9.5 25q0 22 -16.5 36.5t-41.5 20.5l6 15q54 -12 80 -38t26 -69q0 -51 -32.5 -84.5t-94.5 -33.5q-28 0 -50 7t-48 20q-31 14 -52 20.5t-49 6.5q-29 0 -50 -9.5t-41 -33.5h-29
l486 467q-26 -12 -81 -48q-35 -24 -58.5 -36t-44.5 -12q-17 0 -29 4t-29 13q-14 8 -24.5 11.5t-22.5 3.5q-18 0 -27.5 -9t-9.5 -26q0 -20 14.5 -34t43.5 -23l-6 -15q-106 25 -106 104q0 51 37 88t106 37q28 0 49 -6.5t49 -19.5q27 -13 48 -19.5t48 -6.5q30 0 50.5 9.5
t41.5 33.5h29l-479 -460q26 12 68 40z" />
    <glyph glyph-name="braceleft" unicode="{" horiz-adv-x="361" 
d="M69.5 -161q-41.5 28 -41.5 87q0 39 19 117q33 133 33 184q-1 30 -12 43.5t-35 15.5h-5l3 18h5q32 3 54 24.5t40.5 72t42.5 146.5q23 94 58.5 145t88 70.5t134.5 19.5l-5 -19q-35 -1 -54 -14.5t-36 -57t-42 -144.5q-22 -87 -56.5 -138.5t-83 -76.5t-119.5 -37
q81 -18 115 -53.5t34 -93.5q0 -41 -16 -105q-29 -118 -29 -158q0 -31 13 -42t44 -12l-5 -19q-103 -1 -144.5 27z" />
    <glyph glyph-name="bar" unicode="|" horiz-adv-x="369" 
d="M238 -195h-88v1053h88v-1053z" />
    <glyph glyph-name="braceright" unicode="}" horiz-adv-x="361" 
d="M292.5 755q41.5 -28 41.5 -87q0 -39 -19 -117q-33 -133 -33 -184q1 -30 12 -43.5t35 -15.5h5l-3 -18h-5q-32 -3 -54 -24.5t-40.5 -72t-42.5 -146.5q-23 -94 -58.5 -145t-88 -70.5t-134.5 -19.5l5 19q35 1 54 14.5t36 57t42 144.5q22 87 56.5 138.5t83 76.5t119.5 37
q-81 18 -115 53.5t-34 93.5q0 41 16 105q29 118 29 158q0 31 -13 42t-44 12l5 19q103 1 144.5 -27z" />
    <glyph glyph-name="asciitilde" unicode="~" horiz-adv-x="645" 
d="M339 223.5q-27 10.5 -62 30.5q-36 19 -59 28t-53 9q-66 0 -102 -58l-14 5q28 72 81.5 113.5t119.5 41.5q35 0 61.5 -10t62.5 -30q35 -19 58.5 -28.5t53.5 -9.5q66 0 102 58l14 -5q-28 -72 -81.5 -113.5t-119.5 -41.5q-35 0 -62 10.5z" />
    <glyph glyph-name="uni00A0" unicode="&#xa0;" horiz-adv-x="255" 
 />
    <glyph glyph-name="exclamdown" unicode="&#xa1;" horiz-adv-x="296" 
d="M140 504q28 27 69 27q32 0 50 -16t18 -45q0 -36 -29.5 -64.5t-68.5 -28.5q-32 0 -49.5 16t-17.5 44q0 40 28 67zM137.5 182.5q-5.5 -66.5 -7.5 -155.5q-2 -81 -5 -118q-2 -47 -27 -72t-71 -25q-35 0 -53.5 17.5t-15.5 50.5t20.5 73t55.5 113q43 84 67.5 138.5t40.5 114.5
l18 -3q-17 -67 -22.5 -133.5z" />
    <glyph glyph-name="cent" unicode="&#xa2;" horiz-adv-x="477" 
d="M343 451.5q27 30.5 64 39.5q-17 20 -48 20q-17 0 -36 -8l-123 -456q14 -7 35 -7q72 0 132 88l20 -8q-34 -54 -85.5 -91.5t-117.5 -42.5l-45 -167h-22l45 167q-70 2 -111.5 41t-41.5 113q0 79 37.5 164.5t105.5 148t156 75.5l48 180h22l-48 -178q7 1 20 1q55 0 88.5 -27.5
t33.5 -68.5q0 -27 -13 -53t-36 -42t-50 -16q-25 0 -41 16t-16 42q0 39 27 69.5zM297 488q-38 -27 -69.5 -81t-50 -124.5t-18.5 -142.5q0 -54 23 -79z" />
    <glyph glyph-name="sterling" unicode="&#xa3;" horiz-adv-x="672" 
d="M509.5 670q21.5 27 56.5 35q-2 7 -14 11.5t-28 4.5q-59 0 -91.5 -43.5t-55.5 -129.5l-34 -131h136l-6 -20h-136l-5 -21q-9 -34 -21 -59h141l-6 -20h-145q-19 -33 -42.5 -57.5t-61.5 -56.5q-35 -30 -60 -55t-47 -57q94 81 185 81q33 0 58.5 -5.5t61.5 -16.5
q26 -9 43.5 -13t35.5 -4q22 0 37 11.5t15 31.5q0 42 -70 56l5 18q55 -9 91.5 -36t36.5 -74q0 -36 -20 -67t-55 -49t-79 -18q-38 0 -66.5 10.5t-69.5 31.5q-39 21 -68 31.5t-66 10.5q-42 0 -82 -15q-20 -34 -46.5 -51.5t-51.5 -17.5q-7 0 -10 2t-3 8q0 19 26 41t73 32
q20 40 36.5 82t34.5 107l10 39h-97l6 20h97l21 80h-97l6 20h96l6 22q36 135 119 216t219 81q54 0 86 -26t32 -65q0 -44 -26 -72.5t-65 -28.5q-31 0 -49 16.5t-18 46.5q0 36 21.5 63z" />
    <glyph glyph-name="currency" unicode="&#xa4;" horiz-adv-x="658" 
d="M141 196q-28 47 -28 104q0 54 29 104l-59 58l85 85l58 -58q46 29 105 29q57 0 104 -29l59 59l85 -85l-59 -59q29 -50 29 -104q0 -55 -29 -105l58 -58l-85 -85l-59 59q-47 -28 -103 -28q-60 0 -104 28l-58 -58l-86 85zM250.5 211.5q33.5 -34.5 81.5 -34.5t81.5 34.5
t33.5 88.5t-33.5 89t-81.5 35t-81.5 -35t-33.5 -89t33.5 -88.5z" />
    <glyph glyph-name="yen" unicode="&#xa5;" horiz-adv-x="776" 
d="M808 697.5q25 -24.5 25 -61.5q0 -38 -25.5 -64t-65.5 -26q-33 0 -51 16.5t-18 44.5q1 33 22 57.5t54 34.5q-5 4 -17 4q-30 0 -60 -23q-45 -32 -102 -123.5t-103 -225.5l-9 -34h133l-5 -20h-133l-15 -60h131l-5 -20h-131l-23 -91q-6 -24 -6 -40q0 -26 17 -35t60 -11
l-5 -20q-57 3 -172 3q-108 0 -161 -3l5 20q36 2 54 8t29 23.5t20 54.5l23 91h-141l5 20h141l15 60h-139l5 20h139l6 24q-16 137 -44 232t-71 95q-17 0 -27.5 -12t-18.5 -35l-21 -63h-22l25 77q19 57 54.5 82t86.5 25q65 0 102.5 -40.5t56 -115t32.5 -201.5q33 94 75 169
t89 126q57 62 118 62q43 0 68 -24.5z" />
    <glyph glyph-name="brokenbar" unicode="&#xa6;" horiz-adv-x="372" 
d="M240 384h-88v474h88v-474zM152 326h88v-521h-88v521z" />
    <glyph glyph-name="section" unicode="&#xa7;" horiz-adv-x="576" 
d="M455 704q21 24 51 36q-5 11 -26.5 17t-45.5 6q-55 0 -94.5 -32.5t-39.5 -92.5q0 -34 20.5 -59.5t70.5 -68.5l23 -19q47 -40 71.5 -63.5t39 -49.5t14.5 -57q0 -120 -165 -199q46 -51 46 -104q0 -63 -41 -110t-104 -71.5t-129 -24.5q-59 0 -108.5 20.5t-49.5 70.5
q0 38 27 66t67 28q28 0 44 -14t16 -37q0 -31 -20 -55.5t-51 -36.5q4 -10 26 -16.5t46 -6.5q55 0 94 33t39 93q0 35 -21 61t-71 67q-6 4 -11 9t-11 9q-46 39 -70.5 62.5t-39 50t-14.5 57.5q0 120 164 199q-45 51 -45 104q0 63 40.5 110t104 71.5t129.5 24.5q57 0 108 -21
t51 -70q0 -38 -27.5 -66t-67.5 -28q-29 0 -45 15t-16 40q0 28 21 52zM417 241q0 33 -26.5 63.5t-94.5 83.5q-57 46 -79 69q-59 -44 -59 -100q0 -33 27.5 -65.5t94.5 -85.5q42 -33 80 -69q24 17 38 38t18 50q1 5 1 16z" />
    <glyph glyph-name="dieresis" unicode="&#xa8;" horiz-adv-x="480" 
d="M182.5 737q25.5 23 60.5 23q31 0 48 -18t17 -48q0 -39 -26 -61.5t-61 -22.5q-32 0 -48 18t-16 48q0 38 25.5 61zM409.5 737q25.5 23 60.5 23q31 0 48 -18t17 -48q0 -39 -25.5 -61.5t-60.5 -22.5q-32 0 -48.5 18t-16.5 48q0 38 25.5 61z" />
    <glyph glyph-name="copyright" unicode="&#xa9;" horiz-adv-x="911" 
d="M134.5 583.5q53.5 91.5 145 145t199.5 53.5t199.5 -53.5t145 -145t53.5 -199.5t-53.5 -199.5t-145 -145t-199.5 -53.5t-199.5 53.5t-145 145t-53.5 199.5t53.5 199.5zM169 201q48 -84 130.5 -133.5t179.5 -49.5t179.5 49.5t130.5 133.5t48 183t-48 183t-130.5 133.5
t-179.5 49.5t-179.5 -49.5t-130.5 -133.5t-48 -183t48 -183zM668 276l18 -7q-20 -65 -70.5 -111t-128.5 -46q-104 0 -168.5 67.5t-64.5 202.5q0 88 31.5 150t88 93.5t128.5 31.5q71 0 125.5 -32t54.5 -92q0 -35 -22 -57.5t-57 -22.5t-56 20.5t-21 54.5q0 30 18.5 51.5
t47.5 29.5q-10 11 -29.5 18t-40.5 7q-56 0 -86.5 -53t-30.5 -186q0 -116 37.5 -167.5t94.5 -51.5q83 0 131 100z" />
    <glyph glyph-name="ordfeminine" unicode="&#xaa;" horiz-adv-x="532" 
d="M516 478h19l-13 -36q-15 -43 -44.5 -62.5t-72.5 -19.5q-35 0 -54 15t-19 50q0 18 4 37q-29 -56 -64 -79t-76 -23q-47 0 -72 24t-25 69q0 60 39 123t99.5 104.5t120.5 41.5q38 0 42 -35l7 26q73 0 130 9l-86 -272q-5 -17 -5 -25q0 -16 17 -16q29 0 44 44zM308 448
q30 41 52 100l32 112q-1 38 -24 38q-26 0 -58.5 -36t-55 -92t-22.5 -112q0 -51 24 -51q22 0 52 41z" />
    <glyph glyph-name="guillemotleft" unicode="&#xab;" horiz-adv-x="586" 
d="M277 378.5q-61 -86.5 -108 -125.5q31 -37 59 -120t33 -147h-18q-52 81 -106 145.5t-118 115.5l3 12q86 54 165.5 121t162.5 151h18q-30 -66 -91 -152.5zM478.5 368.5q-54.5 -79.5 -96.5 -115.5q27 -33 51.5 -109t29.5 -134h-18q-50 75 -99 133t-108 104l3 12
q79 49 150.5 110t148.5 138h18q-25 -59 -79.5 -138.5z" />
    <glyph glyph-name="logicalnot" unicode="&#xac;" horiz-adv-x="646" 
d="M95 370h501l-59 -205h-36l50 175h-465z" />
    <glyph glyph-name="uni00AD" unicode="&#xad;" horiz-adv-x="506" 
 />
    <glyph glyph-name="registered" unicode="&#xae;" horiz-adv-x="685" 
d="M538 744.5q64 -37.5 101.5 -101.5t37.5 -140t-37.5 -140t-101.5 -101.5t-140 -37.5t-140 37.5t-101.5 101.5t-37.5 140t37.5 140t101.5 101.5t140 37.5t140 -37.5zM517.5 289.5q54.5 33.5 86 90t31.5 123.5t-31.5 123.5t-86 90t-119.5 33.5t-119.5 -33.5t-86 -90
t-31.5 -123.5t31.5 -123.5t86 -90t119.5 -33.5t119.5 33.5zM567 364q-15 -18 -52 -18q-32 0 -48 10.5t-21 32.5l-15 73q-4 18 -9 26.5t-17 13t-37 5.5v-103q0 -23 4 -29t19 -8v-15l-63 1l-66 -1v15q15 2 19 8t4 29v219q0 23 -4 29.5t-19 8.5v15q14 -1 62 -1l86 1
q122 0 122 -79q0 -27 -23 -49.5t-80 -32.5q46 -4 64.5 -17t24.5 -41l15 -65q3 -13 6 -18.5t9 -5.5q7 0 11 6zM373 655.5q-5 -5.5 -5 -22.5v-109h12q68 0 68 67q0 35 -13 52.5t-41 17.5q-16 0 -21 -5.5z" />
    <glyph glyph-name="macron" unicode="&#xaf;" horiz-adv-x="436" 
d="M493 687h-336l6 25h336z" />
    <glyph glyph-name="degree" unicode="&#xb0;" horiz-adv-x="333" 
d="M347.5 787q35.5 -33 35.5 -87t-35.5 -87.5t-86.5 -33.5q-50 0 -85.5 33.5t-35.5 87.5t35.5 87t85.5 33q51 0 86.5 -33zM329 625q30 27 30 75q0 46 -30.5 73.5t-67.5 27.5t-67 -27.5t-30 -73.5q0 -48 29.5 -75t67.5 -27t68 27z" />
    <glyph glyph-name="plusminus" unicode="&#xb1;" horiz-adv-x="618" 
d="M-15 30h501l-9 -30h-501zM313 370l67 236h36l-67 -236h232l-9 -30h-232l-67 -235h-36l67 235h-233l9 30h233z" />
    <glyph glyph-name="uni00B2" unicode="&#xb2;" horiz-adv-x="356" 
d="M367.5 740q24.5 -14 24.5 -42q0 -39 -38.5 -73t-107.5 -77q-41 -26 -52 -34q21 0 62 -9q6 -1 27 -5t34 -4q19 0 30 7.5t11 22.5q0 10 -4 18l17 7q16 -25 16 -49q0 -30 -24 -49.5t-69 -19.5q-20 0 -64 8q-52 10 -87 10q-19 0 -33 -3t-34 -11l4 18q13 9 33 22
q82 55 133 102t51 96q0 41 -50 41q-54 0 -99 -48l-14 11q28 32 71 53.5t97 21.5q41 0 65.5 -14z" />
    <glyph glyph-name="uni00B3" unicode="&#xb3;" horiz-adv-x="339" 
d="M373 740.5q25 -13.5 25 -40.5q0 -39 -52.5 -70.5t-110.5 -43.5q61 -1 97 -18.5t36 -55.5q0 -47 -52 -82.5t-128.5 -56.5t-149.5 -26v18q57 5 111 24.5t88.5 53t34.5 77.5q0 47 -43 52q-19 -10 -32 -10q-7 0 -12.5 3t-5.5 10q0 19 44 17q37 16 59 39t22 50q0 19 -11.5 28
t-31.5 9q-54 0 -108 -51l-14 12q27 29 71.5 52t95.5 23q42 0 67 -13.5z" />
    <glyph glyph-name="acute" unicode="&#xb4;" horiz-adv-x="296" 
d="M211 726q23 38 35.5 56.5t27.5 33.5q11 12 26 19t29 7q21 0 36 -15q14 -14 14 -30q0 -26 -29 -55q-24 -24 -83 -61q-70 -45 -120 -82l-10 10q41 59 74 117z" />
    <glyph glyph-name="paragraph" unicode="&#xb6;" horiz-adv-x="708" 
d="M116 51q-76 64 -76 178q0 131 62.5 241t170.5 174.5t238 64.5q36 0 98 -2l82 -1q65 0 96 2l-5 -19q-46 -2 -65.5 -17.5t-29.5 -50.5l-143 -545q-33 -125 -104.5 -194.5t-195.5 -69.5q-63 0 -101.5 18t-38.5 57q0 33 23.5 55t62.5 22q33 0 53.5 -15t20.5 -41
q0 -48 -53 -76q9 -3 28 -3q43 0 68.5 37t50.5 121q-166 0 -242 64zM383.5 173q-9.5 -73 -9.5 -109q0 -16 2 -16q25 94 80.5 302.5t82.5 305.5q-4 0 -24 -41.5t-45 -106.5t-46 -136q-69 0 -132 -4t-104 -9.5t-42 -7.5q-1 -5 81.5 -12.5t185.5 -7.5q-20 -85 -29.5 -158z" />
    <glyph glyph-name="periodcentered" unicode="&#xb7;" horiz-adv-x="289" 
d="M82 314q28 27 69 27q32 0 50 -16t18 -45q0 -36 -29.5 -64.5t-68.5 -28.5q-32 0 -49.5 16t-17.5 44q0 40 28 67z" />
    <glyph glyph-name="cedilla" unicode="&#xb8;" horiz-adv-x="339" 
d="M83 -69q30 10 54 10q27 0 43.5 -11t16.5 -31q0 -44 -49.5 -65.5t-114.5 -21.5q-28 0 -52 6t-37 14l6 15q2 -1 18.5 -6t42.5 -5q27 0 52.5 10t25.5 36q0 11 -7.5 17t-20.5 6q-17 0 -31 -7l69 102h28z" />
    <glyph glyph-name="uni00B9" unicode="&#xb9;" horiz-adv-x="268" 
d="M235 437h-95l76 234q-6 -3 -36.5 -15t-72.5 -22l5 19q71 19 113.5 42t91.5 58h19z" />
    <glyph glyph-name="ordmasculine" unicode="&#xba;" horiz-adv-x="491" 
d="M135 588q30 56 88 95t136 39q74 0 115.5 -31t41.5 -92q0 -49 -30 -105t-88 -94.5t-136 -38.5q-73 0 -115 30.5t-42 91.5q0 49 30 105zM296 662.5q-29 -41.5 -47 -104t-18 -121.5q0 -58 36 -58q30 0 58.5 41t46.5 104t18 122q0 58 -36 58q-29 0 -58 -41.5z" />
    <glyph glyph-name="guillemotright" unicode="&#xbb;" horiz-adv-x="585" 
d="M430.5 384.5q53.5 -64.5 118.5 -115.5l-3 -12q-87 -55 -167 -121.5t-162 -149.5h-18q30 66 91.5 152.5t107.5 124.5q-31 37 -59 120.5t-33 147.5h18q53 -82 106.5 -146.5zM221.5 373q48.5 -58 107.5 -104l-3 -12q-80 -50 -152 -110.5t-146 -136.5h-18q25 59 79 138
t95 115q-26 34 -50.5 110.5t-29.5 133.5h18q51 -76 99.5 -134z" />
    <glyph glyph-name="onequarter" unicode="&#xbc;" horiz-adv-x="668" 
d="M735 811l-833 -866l-15 13l833 866zM235 437h-95l76 234q-6 -3 -36.5 -15t-72.5 -22l5 19q71 19 113.5 42t91.5 58h19zM425 67h52l-17 -59h-52l-27 -93h-76l27 93h-194l5 18l336 291h19zM349 67l44 151l-175 -151h131z" />
    <glyph glyph-name="onehalf" unicode="&#xbd;" horiz-adv-x="621" 
d="M735 811l-833 -866l-15 13l833 866zM235 437h-95l76 234q-6 -3 -36.5 -15t-72.5 -22l5 19q71 19 113.5 42t91.5 58h19zM534.5 303q24.5 -14 24.5 -42q0 -39 -38.5 -73t-107.5 -77q-41 -26 -52 -34q21 0 62 -9q6 -1 27 -5t34 -4q19 0 30 7.5t11 22.5q0 10 -4 18l17 7
q16 -25 16 -49q0 -30 -24 -49.5t-69 -19.5q-20 0 -64 8q-52 10 -87 10q-19 0 -33 -3t-34 -11l4 18q13 9 33 22q82 55 133 102t51 96q0 41 -50 41q-54 0 -99 -48l-14 11q28 32 71 53.5t97 21.5q41 0 65.5 -14z" />
    <glyph glyph-name="threequarters" unicode="&#xbe;" horiz-adv-x="750" 
d="M835 811l-833 -866l-15 13l833 866zM373 740.5q25 -13.5 25 -40.5q0 -39 -52.5 -70.5t-110.5 -43.5q61 -1 97 -18.5t36 -55.5q0 -47 -52 -82.5t-128.5 -56.5t-149.5 -26v18q57 5 111 24.5t88.5 53t34.5 77.5q0 47 -43 52q-19 -10 -32 -10q-7 0 -12.5 3t-5.5 10
q0 19 44 17q37 16 59 39t22 50q0 19 -11.5 28t-31.5 9q-54 0 -108 -51l-14 12q27 29 71.5 52t95.5 23q42 0 67 -13.5zM525 67h52l-17 -59h-52l-27 -93h-76l27 93h-194l5 18l336 291h19zM449 67l44 151l-175 -151h131z" />
    <glyph glyph-name="questiondown" unicode="&#xbf;" horiz-adv-x="488" 
d="M237 504q28 27 69 27q32 0 50 -16t18 -45q0 -36 -29.5 -64.5t-68.5 -28.5q-32 0 -49.5 16t-17.5 44q0 40 28 67zM236 -159.5q26 6.5 38 18.5q-25 3 -42.5 21t-17.5 43q1 28 23 46.5t53 18.5q28 0 47 -16t19 -46q0 -57 -65 -85.5t-149 -28.5q-85 0 -135.5 29.5t-50.5 82.5
q0 29 16 53.5t47.5 49t92.5 65.5q55 38 78.5 56.5t37.5 39.5t14 47t-16.5 43.5t-49.5 17.5q-22 0 -44 -6.5t-32 -17.5q19 -1 34.5 -16t15.5 -37q0 -24 -19.5 -41t-49.5 -17q-25 0 -40 13t-15 38q0 36 30 59.5t75 34.5t89 11q72 0 118.5 -27.5t46.5 -76.5q0 -32 -20.5 -60
t-49 -50.5t-82.5 -59.5q-74 -49 -102 -77t-28 -64q0 -32 22.5 -50t61.5 -18q23 0 49 6.5z" />
    <glyph glyph-name="Agrave" unicode="&#xc0;" horiz-adv-x="653" 
d="M550 36q14 -15 32 -16l-4 -20q-51 3 -145 3q-102 0 -150 -3l4 20q34 2 53 8.5t27 24t6 51.5l-9 164h-216l-88 -125q-32 -45 -32 -74q0 -24 21.5 -35.5t62.5 -13.5l-5 -20q-84 3 -130 3q-37 0 -69 -3l4 20q26 7 50.5 30t62.5 76l417 587q9 -1 26 -1q18 0 25 1l40 -629
q3 -33 17 -48zM363 288l-13 265l-188 -265h201zM395 818q-7 3 -30.5 11.5t-40.5 19.5q-14 8 -22.5 22t-8.5 29q0 14 7 25q14 24 45 24q21 0 38 -11q14 -9 24.5 -21t30.5 -37q5 -6 28 -35.5t57 -62.5l-8 -11q-55 25 -120 47z" />
    <glyph glyph-name="Aacute" unicode="&#xc1;" horiz-adv-x="653" 
d="M550 36q14 -15 32 -16l-4 -20q-51 3 -145 3q-102 0 -150 -3l4 20q34 2 53 8.5t27 24t6 51.5l-9 164h-216l-88 -125q-32 -45 -32 -74q0 -24 21.5 -35.5t62.5 -13.5l-5 -20q-84 3 -130 3q-37 0 -69 -3l4 20q26 7 50.5 30t62.5 76l417 587q9 -1 26 -1q18 0 25 1l40 -629
q3 -33 17 -48zM363 288l-13 265l-188 -265h201zM522 843q30 28 36 33q31 29 48.5 43.5t36.5 25.5t43 11q35 0 48 -27q5 -9 5 -20q0 -17 -12 -31.5t-33 -25.5q-17 -9 -42.5 -18t-53.5 -17q-75 -20 -138 -45l-7 12q39 31 69 59z" />
    <glyph glyph-name="Acircumflex" unicode="&#xc2;" horiz-adv-x="653" 
d="M550 36q14 -15 32 -16l-4 -20q-51 3 -145 3q-102 0 -150 -3l4 20q34 2 53 8.5t27 24t6 51.5l-9 164h-216l-88 -125q-32 -45 -32 -74q0 -24 21.5 -35.5t62.5 -13.5l-5 -20q-84 3 -130 3q-37 0 -69 -3l4 20q26 7 50.5 30t62.5 76l417 587q9 -1 26 -1q18 0 25 1l40 -629
q3 -33 17 -48zM363 288l-13 265l-188 -265h201zM256 771l-5 14q83 26 155 67.5t116 87.5h18q23 -56 54.5 -92.5t84.5 -62.5l-4 -14q-65 11 -108.5 24.5t-92.5 34.5q-104 -38 -218 -59z" />
    <glyph glyph-name="Atilde" unicode="&#xc3;" horiz-adv-x="653" 
d="M550 36q14 -15 32 -16l-4 -20q-51 3 -145 3q-102 0 -150 -3l4 20q34 2 53 8.5t27 24t6 51.5l-9 164h-216l-88 -125q-32 -45 -32 -74q0 -24 21.5 -35.5t62.5 -13.5l-5 -20q-84 3 -130 3q-37 0 -69 -3l4 20q26 7 50.5 30t62.5 76l417 587q9 -1 26 -1q18 0 25 1l40 -629
q3 -33 17 -48zM363 288l-13 265l-188 -265h201zM495.5 916.5q23.5 -10.5 51.5 -29.5q24 -17 40.5 -25t39.5 -8q22 0 40.5 13.5t36.5 44.5l18 -5q-27 -70 -72 -104.5t-94 -34.5q-36 0 -59 10.5t-52 30.5q-24 16 -40 24t-39 8q-22 0 -40.5 -13.5t-36.5 -44.5l-18 5
q27 70 71.5 104.5t94.5 34.5q35 0 58.5 -10.5z" />
    <glyph glyph-name="Adieresis" unicode="&#xc4;" horiz-adv-x="653" 
d="M550 36q14 -15 32 -16l-4 -20q-51 3 -145 3q-102 0 -150 -3l4 20q34 2 53 8.5t27 24t6 51.5l-9 164h-216l-88 -125q-32 -45 -32 -74q0 -24 21.5 -35.5t62.5 -13.5l-5 -20q-84 3 -130 3q-37 0 -69 -3l4 20q26 7 50.5 30t62.5 76l417 587q9 -1 26 -1q18 0 25 1l40 -629
q3 -33 17 -48zM363 288l-13 265l-188 -265h201zM316 894q25 23 61 23q31 0 48 -18.5t17 -48.5q0 -39 -26 -61.5t-61 -22.5q-31 0 -47.5 18t-16.5 48q0 39 25 62zM556 894q25 23 61 23q31 0 48 -18.5t17 -48.5q0 -39 -26 -61.5t-61 -22.5q-32 0 -48 18t-16 48q0 39 25 62z
" />
    <glyph glyph-name="Aring" unicode="&#xc5;" horiz-adv-x="653" 
d="M550 36q14 -15 32 -16l-4 -20q-51 3 -145 3q-102 0 -150 -3l4 20q34 2 53 8.5t27 24t6 51.5l-9 164h-216l-88 -125q-32 -45 -32 -74q0 -24 21.5 -35.5t62.5 -13.5l-5 -20q-84 3 -130 3q-37 0 -69 -3l4 20q26 7 50.5 30t62.5 76l417 587q9 -1 26 -1q18 0 25 1l40 -629
q3 -33 17 -48zM363 288l-13 265l-188 -265h201zM567 913.5q28 -23.5 28 -61.5q0 -30 -17.5 -55t-46 -40t-60.5 -15q-42 0 -68.5 23t-26.5 63q0 46 35 77.5t86 31.5q42 0 70 -23.5zM540.5 788.5q28.5 25.5 28.5 62.5q0 31 -22.5 48t-52.5 17q-37 0 -64 -26.5t-27 -61.5
q0 -30 21.5 -47.5t50.5 -17.5q37 0 65.5 25.5z" />
    <glyph glyph-name="AE" unicode="&#xc6;" horiz-adv-x="905" 
d="M952 708q-13 -36 -38 -118q-9 -30 -13 -62h-22q7 39 7 71q0 47 -21 66.5t-67 19.5h-63q-35 0 -52.5 -5.5t-27.5 -22.5t-20 -55l-63 -236h78q28 0 47 15t30.5 37t25.5 60h22q-16 -49 -27 -95l-7 -27q-11 -41 -26 -122h-22q0 16 3 31q2 22 2 31q0 22 -11 35t-41 15h-79
l-64 -240q-9 -38 -9 -49q0 -21 14.5 -27.5t51.5 -6.5h73q48 0 79 16.5t54 54t46 106.5h22q-8 -22 -21 -72q-17 -59 -26 -128q-68 3 -226 3q-215 0 -324 -3l4 20q36 2 54 8t28.5 23t20.5 55l64 240h-160l-214 -252q-15 -18 -22 -28.5t-7 -18.5q0 -23 62 -27v-20q-27 3 -86 3
q-43 0 -67 -3v20q31 2 86 64l484 570q-1 19 -15.5 25.5t-51.5 8.5l5 20q66 -2 106 -2l57 67h26l-57 -67q76 -1 191 -1q144 0 207 3zM413 366l63 236q2 5 4 17l-215 -253h148z" />
    <glyph glyph-name="Ccedilla" unicode="&#xc7;" horiz-adv-x="693" 
d="M682 478h-22q8 46 8 79q0 46 -17 76q-35 65 -118 65q-80 0 -152.5 -70.5t-116 -183t-43.5 -230.5q0 -99 35.5 -148.5t99.5 -49.5q38 0 79 17.5t71 48.5q26 28 45.5 62.5t44.5 95.5h22q-47 -173 -59 -240h-22q3 21 3 34q0 26 -13 26q-8 0 -20 -9q-46 -31 -92 -48t-104 -17
q-134 0 -201 64t-67 184q0 118 62.5 231.5t172.5 185t243 71.5q56 0 88.5 -17t60.5 -48q8 -9 15 -9q18 0 40 60h21q-33 -86 -64 -230zM301 -63q28 10 58 10q31 0 49 -12.5t18 -35.5q0 -44 -51.5 -65.5t-118.5 -21.5q-34 0 -63 6t-46 14l6 15q40 -11 81 -11q33 0 61.5 10
t28.5 36q0 23 -32 23q-18 0 -35 -7l48 108h27z" />
    <glyph glyph-name="Egrave" unicode="&#xc8;" horiz-adv-x="626" 
d="M671 708q-28 -76 -38 -118q-5 -22 -13 -62h-22q1 13 1 36q0 67 -25 94t-86 27h-31q-35 0 -52.5 -5.5t-28 -22.5t-20.5 -55l-63 -236h37q50 0 84 35t53 85h23q-19 -57 -31 -105l-6 -25q-12 -47 -29 -130h-22q1 7 1 22q0 98 -84 98h-31l-64 -240q-9 -31 -9 -49
q0 -21 14.5 -27.5t51.5 -6.5h37q54 0 91 16.5t66 54.5t59 106h23q-11 -29 -22 -72q-17 -59 -26 -128q-68 3 -227 3q-216 0 -325 -3l5 20q36 2 53.5 8t28.5 23t21 55l132 496q8 34 8 48q0 22 -14.5 29t-52.5 9l5 20q109 -3 325 -3q142 0 203 3zM355 818q-7 3 -30.5 11.5
t-40.5 19.5q-14 8 -22.5 22t-8.5 29q0 14 7 25q14 24 45 24q21 0 38 -11q14 -9 24.5 -21t30.5 -37q5 -6 28 -35.5t57 -62.5l-8 -11q-55 25 -120 47z" />
    <glyph glyph-name="Eacute" unicode="&#xc9;" horiz-adv-x="626" 
d="M671 708q-28 -76 -38 -118q-5 -22 -13 -62h-22q1 13 1 36q0 67 -25 94t-86 27h-31q-35 0 -52.5 -5.5t-28 -22.5t-20.5 -55l-63 -236h37q50 0 84 35t53 85h23q-19 -57 -31 -105l-6 -25q-12 -47 -29 -130h-22q1 7 1 22q0 98 -84 98h-31l-64 -240q-9 -31 -9 -49
q0 -21 14.5 -27.5t51.5 -6.5h37q54 0 91 16.5t66 54.5t59 106h23q-11 -29 -22 -72q-17 -59 -26 -128q-68 3 -227 3q-216 0 -325 -3l5 20q36 2 53.5 8t28.5 23t21 55l132 496q8 34 8 48q0 22 -14.5 29t-52.5 9l5 20q109 -3 325 -3q142 0 203 3zM482 843q30 28 36 33
q31 29 48.5 43.5t36.5 25.5t43 11q35 0 48 -27q5 -9 5 -20q0 -17 -12 -31.5t-33 -25.5q-17 -9 -42.5 -18t-53.5 -17q-75 -20 -138 -45l-7 12q39 31 69 59z" />
    <glyph glyph-name="Ecircumflex" unicode="&#xca;" horiz-adv-x="626" 
d="M671 708q-28 -76 -38 -118q-5 -22 -13 -62h-22q1 13 1 36q0 67 -25 94t-86 27h-31q-35 0 -52.5 -5.5t-28 -22.5t-20.5 -55l-63 -236h37q50 0 84 35t53 85h23q-19 -57 -31 -105l-6 -25q-12 -47 -29 -130h-22q1 7 1 22q0 98 -84 98h-31l-64 -240q-9 -31 -9 -49
q0 -21 14.5 -27.5t51.5 -6.5h37q54 0 91 16.5t66 54.5t59 106h23q-11 -29 -22 -72q-17 -59 -26 -128q-68 3 -227 3q-216 0 -325 -3l5 20q36 2 53.5 8t28.5 23t21 55l132 496q8 34 8 48q0 22 -14.5 29t-52.5 9l5 20q109 -3 325 -3q142 0 203 3zM216 771l-5 14q83 26 155 67.5
t116 87.5h18q23 -56 54.5 -92.5t84.5 -62.5l-4 -14q-65 11 -108.5 24.5t-92.5 34.5q-104 -38 -218 -59z" />
    <glyph glyph-name="Edieresis" unicode="&#xcb;" horiz-adv-x="626" 
d="M671 708q-28 -76 -38 -118q-5 -22 -13 -62h-22q1 13 1 36q0 67 -25 94t-86 27h-31q-35 0 -52.5 -5.5t-28 -22.5t-20.5 -55l-63 -236h37q50 0 84 35t53 85h23q-19 -57 -31 -105l-6 -25q-12 -47 -29 -130h-22q1 7 1 22q0 98 -84 98h-31l-64 -240q-9 -31 -9 -49
q0 -21 14.5 -27.5t51.5 -6.5h37q54 0 91 16.5t66 54.5t59 106h23q-11 -29 -22 -72q-17 -59 -26 -128q-68 3 -227 3q-216 0 -325 -3l5 20q36 2 53.5 8t28.5 23t21 55l132 496q8 34 8 48q0 22 -14.5 29t-52.5 9l5 20q109 -3 325 -3q142 0 203 3zM276 894q25 23 61 23
q31 0 48 -18.5t17 -48.5q0 -39 -26 -61.5t-61 -22.5q-31 0 -47.5 18t-16.5 48q0 39 25 62zM516 894q25 23 61 23q31 0 48 -18.5t17 -48.5q0 -39 -26 -61.5t-61 -22.5q-32 0 -48 18t-16 48q0 39 25 62z" />
    <glyph glyph-name="Igrave" unicode="&#xcc;" horiz-adv-x="390" 
d="M215 57q0 -21 14.5 -28t53.5 -9l-4 -20q-58 3 -163 3t-157 -3l5 20q35 2 52.5 8t28 23.5t20.5 54.5l132 496q8 34 8 48q0 22 -14.5 29t-52.5 9l5 20q49 -3 157 -3q99 0 164 3l-5 -20q-37 -2 -54.5 -8t-28 -23t-20.5 -55l-132 -496q-9 -38 -9 -49zM243 818
q-7 3 -30.5 11.5t-40.5 19.5q-14 8 -22.5 22t-8.5 29q0 14 7 25q14 24 45 24q21 0 38 -11q14 -9 24.5 -21t30.5 -37q5 -6 28 -35.5t57 -62.5l-8 -11q-55 25 -120 47z" />
    <glyph glyph-name="Iacute" unicode="&#xcd;" horiz-adv-x="390" 
d="M215 57q0 -21 14.5 -28t53.5 -9l-4 -20q-58 3 -163 3t-157 -3l5 20q35 2 52.5 8t28 23.5t20.5 54.5l132 496q8 34 8 48q0 22 -14.5 29t-52.5 9l5 20q49 -3 157 -3q99 0 164 3l-5 -20q-37 -2 -54.5 -8t-28 -23t-20.5 -55l-132 -496q-9 -38 -9 -49zM370 843q30 28 36 33
q31 29 48.5 43.5t36.5 25.5t43 11q35 0 48 -27q5 -9 5 -20q0 -17 -12 -31.5t-33 -25.5q-17 -9 -42.5 -18t-53.5 -17q-75 -20 -138 -45l-7 12q39 31 69 59z" />
    <glyph glyph-name="Icircumflex" unicode="&#xce;" horiz-adv-x="390" 
d="M215 57q0 -21 14.5 -28t53.5 -9l-4 -20q-58 3 -163 3t-157 -3l5 20q35 2 52.5 8t28 23.5t20.5 54.5l132 496q8 34 8 48q0 22 -14.5 29t-52.5 9l5 20q49 -3 157 -3q99 0 164 3l-5 -20q-37 -2 -54.5 -8t-28 -23t-20.5 -55l-132 -496q-9 -38 -9 -49zM104 771l-5 14
q83 26 155 67.5t116 87.5h18q23 -56 54.5 -92.5t84.5 -62.5l-4 -14q-65 11 -108.5 24.5t-92.5 34.5q-104 -38 -218 -59z" />
    <glyph glyph-name="Idieresis" unicode="&#xcf;" horiz-adv-x="390" 
d="M215 57q0 -21 14.5 -28t53.5 -9l-4 -20q-58 3 -163 3t-157 -3l5 20q35 2 52.5 8t28 23.5t20.5 54.5l132 496q8 34 8 48q0 22 -14.5 29t-52.5 9l5 20q49 -3 157 -3q99 0 164 3l-5 -20q-37 -2 -54.5 -8t-28 -23t-20.5 -55l-132 -496q-9 -38 -9 -49zM164 894q25 23 61 23
q31 0 48 -18.5t17 -48.5q0 -39 -26 -61.5t-61 -22.5q-31 0 -47.5 18t-16.5 48q0 39 25 62zM404 894q25 23 61 23q31 0 48 -18.5t17 -48.5q0 -39 -26 -61.5t-61 -22.5q-32 0 -48 18t-16 48q0 39 25 62z" />
    <glyph glyph-name="Eth" unicode="&#xd0;" horiz-adv-x="771" 
d="M700 246q-56 -108 -167.5 -177t-269.5 -69l-49 1q-58 2 -102 2q-97 0 -150 -3l3 20q34 2 51.5 8t28 23.5t20.5 54.5l131 496q8 27 8 43q0 22 -14.5 32t-51.5 11l3 20q45 -3 132 -3h32q105 3 149 3q147 0 224.5 -60.5t77.5 -178.5q0 -115 -56 -223zM440 89
q75 71 114.5 182.5t39.5 229.5q0 94 -39 141.5t-123 47.5q-26 0 -38.5 -6.5t-20.5 -23.5t-18 -56l-131 -500q-11 -44 -11 -55q0 -17 11.5 -24t38.5 -7q102 0 177 71zM443 341h-424l6 25h424z" />
    <glyph glyph-name="Ntilde" unicode="&#xd1;" horiz-adv-x="825" 
d="M907.5 730q25.5 -24 25.5 -61q0 -39 -26 -65t-65 -26q-33 0 -51 16.5t-18 43.5q0 33 21 58t54 35q-4 4 -16 4q-48 0 -84 -53q-44 -66 -92 -232.5t-109 -454.5h-22l-248 543q-43 -212 -81.5 -357t-74.5 -192q-22 -29 -46.5 -46t-60.5 -17q-44 0 -69 24t-25 61
q0 39 25.5 65t65.5 26q32 0 50.5 -16.5t18.5 -43.5q0 -33 -21.5 -58t-54.5 -35q5 -4 17 -4q51 0 84 54q37 59 77 211t87 392q6 29 6 45q0 24 -16 31.5t-61 9.5l5 20q32 -3 89 -3q46 0 81 3l207 -474q84 359 150 456q44 64 108 64q44 0 69.5 -24zM552.5 916.5
q23.5 -10.5 51.5 -29.5q24 -17 40.5 -25t39.5 -8q22 0 40.5 13.5t36.5 44.5l18 -5q-27 -70 -72 -104.5t-94 -34.5q-36 0 -59 10.5t-52 30.5q-24 16 -40 24t-39 8q-22 0 -40.5 -13.5t-36.5 -44.5l-18 5q27 70 71.5 104.5t94.5 34.5q35 0 58.5 -10.5z" />
    <glyph glyph-name="Ograve" unicode="&#xd2;" horiz-adv-x="777" 
d="M99.5 455q57.5 116 161.5 191.5t234 75.5q128 0 200 -63t72 -178q0 -113 -58 -228.5t-162 -191t-234 -75.5q-128 0 -199.5 63t-71.5 177q0 113 57.5 229zM355 632q-63 -72 -102 -186t-39 -233q0 -97 30 -153t78 -56q68 0 131 72t102 186t39 233q0 97 -30 153t-78 56
q-68 0 -131 -72zM419 818q-7 3 -30.5 11.5t-40.5 19.5q-14 8 -22.5 22t-8.5 29q0 14 7 25q14 24 45 24q21 0 38 -11q14 -9 24.5 -21t30.5 -37q5 -6 28 -35.5t57 -62.5l-8 -11q-55 25 -120 47z" />
    <glyph glyph-name="Oacute" unicode="&#xd3;" horiz-adv-x="777" 
d="M99.5 455q57.5 116 161.5 191.5t234 75.5q128 0 200 -63t72 -178q0 -113 -58 -228.5t-162 -191t-234 -75.5q-128 0 -199.5 63t-71.5 177q0 113 57.5 229zM355 632q-63 -72 -102 -186t-39 -233q0 -97 30 -153t78 -56q68 0 131 72t102 186t39 233q0 97 -30 153t-78 56
q-68 0 -131 -72zM546 843q30 28 36 33q31 29 48.5 43.5t36.5 25.5t43 11q35 0 48 -27q5 -9 5 -20q0 -17 -12 -31.5t-33 -25.5q-17 -9 -42.5 -18t-53.5 -17q-75 -20 -138 -45l-7 12q39 31 69 59z" />
    <glyph glyph-name="Ocircumflex" unicode="&#xd4;" horiz-adv-x="777" 
d="M99.5 455q57.5 116 161.5 191.5t234 75.5q128 0 200 -63t72 -178q0 -113 -58 -228.5t-162 -191t-234 -75.5q-128 0 -199.5 63t-71.5 177q0 113 57.5 229zM355 632q-63 -72 -102 -186t-39 -233q0 -97 30 -153t78 -56q68 0 131 72t102 186t39 233q0 97 -30 153t-78 56
q-68 0 -131 -72zM280 771l-5 14q83 26 155 67.5t116 87.5h18q23 -56 54.5 -92.5t84.5 -62.5l-4 -14q-65 11 -108.5 24.5t-92.5 34.5q-104 -38 -218 -59z" />
    <glyph glyph-name="Otilde" unicode="&#xd5;" horiz-adv-x="777" 
d="M99.5 455q57.5 116 161.5 191.5t234 75.5q128 0 200 -63t72 -178q0 -113 -58 -228.5t-162 -191t-234 -75.5q-128 0 -199.5 63t-71.5 177q0 113 57.5 229zM355 632q-63 -72 -102 -186t-39 -233q0 -97 30 -153t78 -56q68 0 131 72t102 186t39 233q0 97 -30 153t-78 56
q-68 0 -131 -72zM519.5 916.5q23.5 -10.5 51.5 -29.5q24 -17 40.5 -25t39.5 -8q22 0 40.5 13.5t36.5 44.5l18 -5q-27 -70 -72 -104.5t-94 -34.5q-36 0 -59 10.5t-52 30.5q-24 16 -40 24t-39 8q-22 0 -40.5 -13.5t-36.5 -44.5l-18 5q27 70 71.5 104.5t94.5 34.5
q35 0 58.5 -10.5z" />
    <glyph glyph-name="Odieresis" unicode="&#xd6;" horiz-adv-x="777" 
d="M99.5 455q57.5 116 161.5 191.5t234 75.5q128 0 200 -63t72 -178q0 -113 -58 -228.5t-162 -191t-234 -75.5q-128 0 -199.5 63t-71.5 177q0 113 57.5 229zM355 632q-63 -72 -102 -186t-39 -233q0 -97 30 -153t78 -56q68 0 131 72t102 186t39 233q0 97 -30 153t-78 56
q-68 0 -131 -72zM340 894q25 23 61 23q31 0 48 -18.5t17 -48.5q0 -39 -26 -61.5t-61 -22.5q-31 0 -47.5 18t-16.5 48q0 39 25 62zM580 894q25 23 61 23q31 0 48 -18.5t17 -48.5q0 -39 -26 -61.5t-61 -22.5q-32 0 -48 18t-16 48q0 39 25 62z" />
    <glyph glyph-name="multiply" unicode="&#xd7;" horiz-adv-x="496" 
d="M242 355l-125 175l26 18l123 -175l227 177l16 -22l-227 -176l125 -173l-25 -18l-124 173l-224 -174l-15 22z" />
    <glyph glyph-name="Oslash" unicode="&#xd8;" horiz-adv-x="777" 
d="M767 481q0 -113 -58 -228.5t-162 -191t-234 -75.5q-118 0 -189 54l-110 -113l-17 14l110 114q-65 62 -65 171q0 113 57.5 229t161.5 191.5t234 75.5q121 0 192 -56l102 107l15 -13l-102 -108q65 -62 65 -171zM355 632q-63 -72 -102 -186t-39 -233q0 -38 4 -65l370 423
q-10 63 -37 98t-65 35q-68 0 -131 -72zM453 76q63 72 102 186t39 233q0 19 -2 49l-369 -424q12 -55 38 -85.5t61 -30.5q68 0 131 72z" />
    <glyph glyph-name="Ugrave" unicode="&#xd9;" horiz-adv-x="694" 
d="M659 629q0 29 -17 41.5t-59 17.5l5 20q37 -3 107 -3q55 0 88 3l-5 -20q-34 -5 -53 -17t-31.5 -38t-25.5 -77l-68 -265q-36 -138 -98 -212q-37 -43 -90.5 -68t-114.5 -25q-73 0 -122 20.5t-73 58.5q-27 39 -27 93q0 48 22 130l83 314q8 34 8 48q0 22 -14.5 29t-52.5 9
l6 20q51 -3 165 -3q93 0 155 3l-6 -20q-37 -2 -54.5 -8t-28 -23t-20.5 -55l-88 -331q-24 -88 -24 -146q0 -52 22 -78t68 -26q105 0 165.5 68t92.5 191l69 264q16 59 16 85zM416 818q-7 3 -30.5 11.5t-40.5 19.5q-14 8 -22.5 22t-8.5 29q0 14 7 25q14 24 45 24q21 0 38 -11
q14 -9 24.5 -21t30.5 -37q5 -6 28 -35.5t57 -62.5l-8 -11q-55 25 -120 47z" />
    <glyph glyph-name="Uacute" unicode="&#xda;" horiz-adv-x="694" 
d="M659 629q0 29 -17 41.5t-59 17.5l5 20q37 -3 107 -3q55 0 88 3l-5 -20q-34 -5 -53 -17t-31.5 -38t-25.5 -77l-68 -265q-36 -138 -98 -212q-37 -43 -90.5 -68t-114.5 -25q-73 0 -122 20.5t-73 58.5q-27 39 -27 93q0 48 22 130l83 314q8 34 8 48q0 22 -14.5 29t-52.5 9
l6 20q51 -3 165 -3q93 0 155 3l-6 -20q-37 -2 -54.5 -8t-28 -23t-20.5 -55l-88 -331q-24 -88 -24 -146q0 -52 22 -78t68 -26q105 0 165.5 68t92.5 191l69 264q16 59 16 85zM543 843q30 28 36 33q31 29 48.5 43.5t36.5 25.5t43 11q35 0 48 -27q5 -9 5 -20q0 -17 -12 -31.5
t-33 -25.5q-17 -9 -42.5 -18t-53.5 -17q-75 -20 -138 -45l-7 12q39 31 69 59z" />
    <glyph glyph-name="Ucircumflex" unicode="&#xdb;" horiz-adv-x="694" 
d="M659 629q0 29 -17 41.5t-59 17.5l5 20q37 -3 107 -3q55 0 88 3l-5 -20q-34 -5 -53 -17t-31.5 -38t-25.5 -77l-68 -265q-36 -138 -98 -212q-37 -43 -90.5 -68t-114.5 -25q-73 0 -122 20.5t-73 58.5q-27 39 -27 93q0 48 22 130l83 314q8 34 8 48q0 22 -14.5 29t-52.5 9
l6 20q51 -3 165 -3q93 0 155 3l-6 -20q-37 -2 -54.5 -8t-28 -23t-20.5 -55l-88 -331q-24 -88 -24 -146q0 -52 22 -78t68 -26q105 0 165.5 68t92.5 191l69 264q16 59 16 85zM277 771l-5 14q83 26 155 67.5t116 87.5h18q23 -56 54.5 -92.5t84.5 -62.5l-4 -14
q-65 11 -108.5 24.5t-92.5 34.5q-104 -38 -218 -59z" />
    <glyph glyph-name="Udieresis" unicode="&#xdc;" horiz-adv-x="694" 
d="M659 629q0 29 -17 41.5t-59 17.5l5 20q37 -3 107 -3q55 0 88 3l-5 -20q-34 -5 -53 -17t-31.5 -38t-25.5 -77l-68 -265q-36 -138 -98 -212q-37 -43 -90.5 -68t-114.5 -25q-73 0 -122 20.5t-73 58.5q-27 39 -27 93q0 48 22 130l83 314q8 34 8 48q0 22 -14.5 29t-52.5 9
l6 20q51 -3 165 -3q93 0 155 3l-6 -20q-37 -2 -54.5 -8t-28 -23t-20.5 -55l-88 -331q-24 -88 -24 -146q0 -52 22 -78t68 -26q105 0 165.5 68t92.5 191l69 264q16 59 16 85zM337 894q25 23 61 23q31 0 48 -18.5t17 -48.5q0 -39 -26 -61.5t-61 -22.5q-31 0 -47.5 18t-16.5 48
q0 39 25 62zM577 894q25 23 61 23q31 0 48 -18.5t17 -48.5q0 -39 -26 -61.5t-61 -22.5q-32 0 -48 18t-16 48q0 39 25 62z" />
    <glyph glyph-name="Yacute" unicode="&#xdd;" horiz-adv-x="734" 
d="M790 697.5q25 -24.5 25 -61.5q0 -38 -25.5 -64t-65.5 -26q-33 0 -51 16.5t-18 44.5q1 33 22 57.5t54 34.5q-5 4 -17 4q-30 0 -60 -23q-45 -32 -102 -123.5t-103 -225.5l-57 -225q-6 -24 -6 -40q0 -26 17 -35t60 -11l-5 -20q-57 3 -172 3q-108 0 -161 -3l5 20q36 2 54 8
t29 23.5t20 54.5l54 215q-16 137 -44 232t-71 95q-17 0 -27.5 -12t-18.5 -35l-21 -63h-22l25 77q19 57 54.5 82t86.5 25q65 0 102.5 -40.5t56 -115t32.5 -201.5q33 94 75 169t89 126q57 62 118 62q43 0 68 -24.5zM536 843q30 28 36 33q31 29 48.5 43.5t36.5 25.5t43 11
q35 0 48 -27q5 -9 5 -20q0 -17 -12 -31.5t-33 -25.5q-17 -9 -42.5 -18t-53.5 -17q-75 -20 -138 -45l-7 12q39 31 69 59z" />
    <glyph glyph-name="Thorn" unicode="&#xde;" horiz-adv-x="661" 
d="M224 106q-9 -38 -9 -49q0 -21 14.5 -28t53.5 -9l-4 -20q-58 3 -163 3t-157 -3l5 20q35 2 52.5 8t28 23.5t20.5 54.5l132 496q8 34 8 48q0 22 -14.5 29t-52.5 9l5 20q49 -3 157 -3q99 0 164 3l-5 -20q-37 -2 -54.5 -8t-28 -23t-20.5 -55l-11 -40l79 1q116 0 175.5 -40.5
t59.5 -110.5q0 -78 -52 -140t-146 -97t-215 -35h-13zM340 543l-102 -383h18q79 0 132 37t78.5 97.5t25.5 133.5q0 55 -27.5 85.5t-81.5 30.5q-32 0 -43 -1z" />
    <glyph glyph-name="germandbls" unicode="&#xdf;" horiz-adv-x="608" 
d="M338 731.5q-24 -35.5 -45 -114.5l-208 -791q-86 -2 -144 -14l184 700q25 94 60.5 152.5t91.5 88t140 29.5q95 0 140.5 -29t45.5 -70q0 -38 -26 -66t-85 -71q-36 -25 -69 -52q-30 -24 -39.5 -40t-9.5 -33q0 -29 18.5 -53.5t55.5 -59.5l18 -17q44 -43 64 -73t20 -70
q0 -51 -29 -88t-76.5 -55.5t-104.5 -18.5q-63 0 -101 29t-38 78q0 31 16 52.5t42 21.5q28 0 43.5 -25.5t15.5 -59.5q0 -20 -6.5 -39.5t-17.5 -32.5q12 -4 25 -4q32 0 53.5 27t21.5 70q0 31 -8.5 60.5t-26.5 65.5q-4 8 -17 35t-21 53t-8 48q0 34 14.5 54.5t48.5 53.5l31 30
q32 33 46.5 77t14.5 91q0 49 -19.5 72.5t-50.5 23.5q-36 0 -60 -35.5z" />
    <glyph glyph-name="agrave" unicode="&#xe0;" horiz-adv-x="558" 
d="M495 162h19l-25 -73q-20 -56 -55.5 -79.5t-76.5 -23.5q-52 0 -74 31q-14 18 -14 50q0 26 9 59q-34 -74 -75.5 -107t-91.5 -33q-55 0 -83.5 32.5t-28.5 90.5q0 89 47.5 188.5t120.5 166.5t143 67q27 0 43.5 -16t19.5 -48l14 49q80 1 145 15l-131 -446q-5 -17 -5 -28
q0 -22 19 -22q35 0 62 79zM362 428q1 5 1 15q0 25 -8.5 38t-25.5 13q-34 0 -77.5 -61t-74 -153t-30.5 -178q0 -33 6.5 -47.5t21.5 -14.5q22 0 48.5 30.5t53 88t46.5 136.5l-5 -24zM278 703q-17 17 -31.5 32.5t-23.5 30.5q-11 19 -11 36q0 13 6.5 24t17.5 18t26 7
q17 0 31.5 -8.5t23.5 -23.5t14.5 -32t13.5 -48q15 -69 40 -133l-12 -7q-39 48 -95 104z" />
    <glyph glyph-name="aacute" unicode="&#xe1;" horiz-adv-x="558" 
d="M495 162h19l-25 -73q-20 -56 -55.5 -79.5t-76.5 -23.5q-52 0 -74 31q-14 18 -14 50q0 26 9 59q-34 -74 -75.5 -107t-91.5 -33q-55 0 -83.5 32.5t-28.5 90.5q0 89 47.5 188.5t120.5 166.5t143 67q27 0 43.5 -16t19.5 -48l14 49q80 1 145 15l-131 -446q-5 -17 -5 -28
q0 -22 19 -22q35 0 62 79zM362 428q1 5 1 15q0 25 -8.5 38t-25.5 13q-34 0 -77.5 -61t-74 -153t-30.5 -178q0 -33 6.5 -47.5t21.5 -14.5q22 0 48.5 30.5t53 88t46.5 136.5l-5 -24zM388 726q23 38 35.5 56.5t27.5 33.5q11 12 26 19t29 7q21 0 36 -15q14 -14 14 -30
q0 -26 -29 -55q-24 -24 -83 -61q-70 -45 -120 -82l-10 10q41 59 74 117z" />
    <glyph glyph-name="acircumflex" unicode="&#xe2;" horiz-adv-x="558" 
d="M495 162h19l-25 -73q-20 -56 -55.5 -79.5t-76.5 -23.5q-52 0 -74 31q-14 18 -14 50q0 26 9 59q-34 -74 -75.5 -107t-91.5 -33q-55 0 -83.5 32.5t-28.5 90.5q0 89 47.5 188.5t120.5 166.5t143 67q27 0 43.5 -16t19.5 -48l14 49q80 1 145 15l-131 -446q-5 -17 -5 -28
q0 -22 19 -22q35 0 62 79zM362 428q1 5 1 15q0 25 -8.5 38t-25.5 13q-34 0 -77.5 -61t-74 -153t-30.5 -178q0 -33 6.5 -47.5t21.5 -14.5q22 0 48.5 30.5t53 88t46.5 136.5l-5 -24zM179 610l-5 14q72 31 135.5 84t103.5 112h18q14 -71 41 -116.5t78 -79.5l-4 -14
q-62 13 -104.5 31t-81.5 43q-81 -46 -181 -74z" />
    <glyph glyph-name="atilde" unicode="&#xe3;" horiz-adv-x="558" 
d="M495 162h19l-25 -73q-20 -56 -55.5 -79.5t-76.5 -23.5q-52 0 -74 31q-14 18 -14 50q0 26 9 59q-34 -74 -75.5 -107t-91.5 -33q-55 0 -83.5 32.5t-28.5 90.5q0 89 47.5 188.5t120.5 166.5t143 67q27 0 43.5 -16t19.5 -48l14 49q80 1 145 15l-131 -446q-5 -17 -5 -28
q0 -22 19 -22q35 0 62 79zM362 428q1 5 1 15q0 25 -8.5 38t-25.5 13q-34 0 -77.5 -61t-74 -153t-30.5 -178q0 -33 6.5 -47.5t21.5 -14.5q22 0 48.5 30.5t53 88t46.5 136.5l-5 -24zM395 775.5q19 -10.5 41 -30.5q18 -16 31.5 -24t31.5 -8q20 0 37 13.5t34 44.5l18 -5
q-26 -70 -67 -104.5t-87 -34.5q-29 0 -48 10.5t-41 30.5q-18 16 -31.5 24t-31.5 8q-39 0 -71 -58l-18 5q26 70 67.5 104.5t86.5 34.5q29 0 48 -10.5z" />
    <glyph glyph-name="adieresis" unicode="&#xe4;" horiz-adv-x="558" 
d="M495 162h19l-25 -73q-20 -56 -55.5 -79.5t-76.5 -23.5q-52 0 -74 31q-14 18 -14 50q0 26 9 59q-34 -74 -75.5 -107t-91.5 -33q-55 0 -83.5 32.5t-28.5 90.5q0 89 47.5 188.5t120.5 166.5t143 67q27 0 43.5 -16t19.5 -48l14 49q80 1 145 15l-131 -446q-5 -17 -5 -28
q0 -22 19 -22q35 0 62 79zM362 428q1 5 1 15q0 25 -8.5 38t-25.5 13q-34 0 -77.5 -61t-74 -153t-30.5 -178q0 -33 6.5 -47.5t21.5 -14.5q22 0 48.5 30.5t53 88t46.5 136.5l-5 -24zM230.5 737q25.5 23 60.5 23q31 0 48 -18t17 -48q0 -39 -26 -61.5t-61 -22.5q-32 0 -48 18
t-16 48q0 38 25.5 61zM457.5 737q25.5 23 60.5 23q31 0 48 -18t17 -48q0 -39 -25.5 -61.5t-60.5 -22.5q-32 0 -48.5 18t-16.5 48q0 38 25.5 61z" />
    <glyph glyph-name="aring" unicode="&#xe5;" horiz-adv-x="558" 
d="M495 162h19l-25 -73q-20 -56 -55.5 -79.5t-76.5 -23.5q-52 0 -74 31q-14 18 -14 50q0 26 9 59q-34 -74 -75.5 -107t-91.5 -33q-55 0 -83.5 32.5t-28.5 90.5q0 89 47.5 188.5t120.5 166.5t143 67q27 0 43.5 -16t19.5 -48l14 49q80 1 145 15l-131 -446q-5 -17 -5 -28
q0 -22 19 -22q35 0 62 79zM362 428q1 5 1 15q0 25 -8.5 38t-25.5 13q-34 0 -77.5 -61t-74 -153t-30.5 -178q0 -33 6.5 -47.5t21.5 -14.5q22 0 48.5 30.5t53 88t46.5 136.5l-5 -24zM481.5 773.5q27.5 -23.5 27.5 -61.5q0 -30 -17.5 -55t-46 -40t-60.5 -15q-42 0 -68.5 23
t-26.5 63q0 46 35 77.5t86 31.5q43 0 70.5 -23.5zM454.5 648.5q28.5 25.5 28.5 62.5q0 31 -22.5 48t-52.5 17q-37 0 -64 -26.5t-27 -61.5q0 -30 21.5 -47.5t50.5 -17.5q37 0 65.5 25.5z" />
    <glyph glyph-name="ae" unicode="&#xe6;" horiz-adv-x="735" 
d="M640 305q-93 -61 -216 -94q-6 -34 -6 -68q0 -53 19.5 -75t57.5 -22q31 0 69 19.5t75 62.5l18 -8q-36 -56 -96.5 -95t-135.5 -39q-55 0 -94.5 23.5t-54.5 67.5q-33 -45 -76 -68t-92 -23q-57 0 -85.5 31t-28.5 88q0 89 60 185.5t152.5 160.5t182.5 64q51 0 72 -35
q75 51 160 51q50 0 81 -21t31 -62q0 -82 -93 -143zM535.5 471q-35.5 -41 -65 -106.5t-43.5 -135.5q78 33 109 60q42 36 64.5 85t22.5 105q0 33 -24 33q-28 0 -63.5 -41zM317 315q49 97 129 155q-14 19 -40 19q-54 0 -116.5 -56t-105 -145.5t-42.5 -183.5q0 -31 13 -47.5
t34 -16.5q45 0 82 53q-3 15 -3 34q0 91 49 188z" />
    <glyph glyph-name="ccedilla" unicode="&#xe7;" horiz-adv-x="463" 
d="M262.5 457.5q-46.5 -53.5 -75.5 -140t-29 -177.5q0 -100 76 -100q72 0 132 88l20 -8q-36 -58 -91.5 -96t-126.5 -38q-73 0 -116.5 39t-43.5 115q0 86 43 177.5t121 152.5t177 61q55 0 88.5 -27.5t33.5 -68.5q0 -27 -13 -53t-36 -42t-50 -16q-25 0 -41 16t-16 42
q0 39 27 69.5t64 39.5q-17 20 -48 20q-49 0 -95.5 -53.5zM137 -69q30 10 54 10q27 0 43.5 -11t16.5 -31q0 -44 -49.5 -65.5t-114.5 -21.5q-28 0 -52 6t-37 14l6 15q2 -1 18.5 -6t42.5 -5q27 0 52.5 10t25.5 36q0 11 -7.5 17t-20.5 6q-17 0 -31 -7l69 102h28z" />
    <glyph glyph-name="egrave" unicode="&#xe8;" horiz-adv-x="469" 
d="M375 307q-93 -62 -216 -96q-6 -34 -6 -68q0 -53 19.5 -75t57.5 -22q31 0 70 19.5t76 62.5l16 -8q-36 -56 -96.5 -95t-135.5 -39q-69 0 -113 37t-44 104q0 89 48 184t131 157.5t182 62.5q46 0 75 -20.5t29 -58.5q0 -83 -93 -145zM276 471q-37 -41 -68 -106.5t-46 -134.5
q71 31 110 67q40 36 63 82.5t23 99.5q0 19 -4 26t-12 7q-29 0 -66 -41zM256 703q-17 17 -31.5 32.5t-23.5 30.5q-11 19 -11 36q0 13 6.5 24t17.5 18t26 7q17 0 31.5 -8.5t23.5 -23.5t14.5 -32t13.5 -48q15 -69 40 -133l-12 -7q-39 48 -95 104z" />
    <glyph glyph-name="eacute" unicode="&#xe9;" horiz-adv-x="469" 
d="M375 307q-93 -62 -216 -96q-6 -34 -6 -68q0 -53 19.5 -75t57.5 -22q31 0 70 19.5t76 62.5l16 -8q-36 -56 -96.5 -95t-135.5 -39q-69 0 -113 37t-44 104q0 89 48 184t131 157.5t182 62.5q46 0 75 -20.5t29 -58.5q0 -83 -93 -145zM276 471q-37 -41 -68 -106.5t-46 -134.5
q71 31 110 67q40 36 63 82.5t23 99.5q0 19 -4 26t-12 7q-29 0 -66 -41zM366 726q23 38 35.5 56.5t27.5 33.5q11 12 26 19t29 7q21 0 36 -15q14 -14 14 -30q0 -26 -29 -55q-24 -24 -83 -61q-70 -45 -120 -82l-10 10q41 59 74 117z" />
    <glyph glyph-name="ecircumflex" unicode="&#xea;" horiz-adv-x="469" 
d="M375 307q-93 -62 -216 -96q-6 -34 -6 -68q0 -53 19.5 -75t57.5 -22q31 0 70 19.5t76 62.5l16 -8q-36 -56 -96.5 -95t-135.5 -39q-69 0 -113 37t-44 104q0 89 48 184t131 157.5t182 62.5q46 0 75 -20.5t29 -58.5q0 -83 -93 -145zM276 471q-37 -41 -68 -106.5t-46 -134.5
q71 31 110 67q40 36 63 82.5t23 99.5q0 19 -4 26t-12 7q-29 0 -66 -41zM157 610l-5 14q72 31 135.5 84t103.5 112h18q14 -71 41 -116.5t78 -79.5l-4 -14q-62 13 -104.5 31t-81.5 43q-81 -46 -181 -74z" />
    <glyph glyph-name="edieresis" unicode="&#xeb;" horiz-adv-x="469" 
d="M375 307q-93 -62 -216 -96q-6 -34 -6 -68q0 -53 19.5 -75t57.5 -22q31 0 70 19.5t76 62.5l16 -8q-36 -56 -96.5 -95t-135.5 -39q-69 0 -113 37t-44 104q0 89 48 184t131 157.5t182 62.5q46 0 75 -20.5t29 -58.5q0 -83 -93 -145zM276 471q-37 -41 -68 -106.5t-46 -134.5
q71 31 110 67q40 36 63 82.5t23 99.5q0 19 -4 26t-12 7q-29 0 -66 -41zM208.5 737q25.5 23 60.5 23q31 0 48 -18t17 -48q0 -39 -26 -61.5t-61 -22.5q-32 0 -48 18t-16 48q0 38 25.5 61zM435.5 737q25.5 23 60.5 23q31 0 48 -18t17 -48q0 -39 -25.5 -61.5t-60.5 -22.5
q-32 0 -48.5 18t-16.5 48q0 38 25.5 61z" />
    <glyph glyph-name="igrave" unicode="&#xec;" horiz-adv-x="322" 
d="M145 462q0 20 -17 20q-19 0 -34 -18.5t-31 -60.5l-19 -51h-19l27 76q37 103 139 103q46 0 67 -23t21 -59q0 -26 -10 -58l-106 -306q-6 -18 -6 -29q0 -21 20 -21q16 0 31 17t32 62l18 48h19l-25 -73q-36 -103 -135 -103q-46 0 -68.5 21t-22.5 61q0 34 15 77l98 287
q6 18 6 30zM131 703q-17 17 -31.5 32.5t-23.5 30.5q-11 19 -11 36q0 13 6.5 24t17.5 18t26 7q17 0 31.5 -8.5t23.5 -23.5t14.5 -32t13.5 -48q15 -69 40 -133l-12 -7q-39 48 -95 104z" />
    <glyph glyph-name="iacute" unicode="&#xed;" horiz-adv-x="322" 
d="M145 462q0 20 -17 20q-19 0 -34 -18.5t-31 -60.5l-19 -51h-19l27 76q37 103 139 103q46 0 67 -23t21 -59q0 -26 -10 -58l-106 -306q-6 -18 -6 -29q0 -21 20 -21q16 0 31 17t32 62l18 48h19l-25 -73q-36 -103 -135 -103q-46 0 -68.5 21t-22.5 61q0 34 15 77l98 287
q6 18 6 30zM241 726q23 38 35.5 56.5t27.5 33.5q11 12 26 19t29 7q21 0 36 -15q14 -14 14 -30q0 -26 -29 -55q-24 -24 -83 -61q-70 -45 -120 -82l-10 10q41 59 74 117z" />
    <glyph glyph-name="icircumflex" unicode="&#xee;" horiz-adv-x="322" 
d="M145 462q0 20 -17 20q-19 0 -34 -18.5t-31 -60.5l-19 -51h-19l27 76q37 103 139 103q46 0 67 -23t21 -59q0 -26 -10 -58l-106 -306q-6 -18 -6 -29q0 -21 20 -21q16 0 31 17t32 62l18 48h19l-25 -73q-36 -103 -135 -103q-46 0 -68.5 21t-22.5 61q0 34 15 77l98 287
q6 18 6 30zM32 610l-5 14q72 31 135.5 84t103.5 112h18q14 -71 41 -116.5t78 -79.5l-4 -14q-62 13 -104.5 31t-81.5 43q-81 -46 -181 -74z" />
    <glyph glyph-name="idieresis" unicode="&#xef;" horiz-adv-x="322" 
d="M145 462q0 20 -17 20q-19 0 -34 -18.5t-31 -60.5l-19 -51h-19l27 76q37 103 139 103q46 0 67 -23t21 -59q0 -26 -10 -58l-106 -306q-6 -18 -6 -29q0 -21 20 -21q16 0 31 17t32 62l18 48h19l-25 -73q-36 -103 -135 -103q-46 0 -68.5 21t-22.5 61q0 34 15 77l98 287
q6 18 6 30zM83.5 737q25.5 23 60.5 23q31 0 48 -18t17 -48q0 -39 -26 -61.5t-61 -22.5q-32 0 -48 18t-16 48q0 38 25.5 61zM310.5 737q25.5 23 60.5 23q31 0 48 -18t17 -48q0 -39 -25.5 -61.5t-60.5 -22.5q-32 0 -48.5 18t-16.5 48q0 38 25.5 61z" />
    <glyph glyph-name="eth" unicode="&#xf0;" horiz-adv-x="528" 
d="M465 550.5q33 -73.5 33 -160.5q0 -96 -38 -189.5t-112 -154t-174 -60.5q-74 0 -118 40t-44 125q0 80 36.5 168.5t104 148.5t154.5 60q22 0 37 -6q-13 72 -45 125l-170 -75l-6 18l166 73q-40 59 -109 102l12 17q95 -33 163 -89l151 67l6 -18l-142 -62q62 -56 95 -129.5z
M270 71.5q37 65.5 59.5 163t22.5 186.5q0 40 -5 82q-17 5 -31 5q-45 0 -81.5 -68.5t-56.5 -170t-20 -192.5q0 -40 8 -55.5t26 -15.5q41 0 78 65.5z" />
    <glyph glyph-name="ntilde" unicode="&#xf1;" horiz-adv-x="603" 
d="M559 162l-25 -73q-36 -103 -134 -103q-56 0 -80 33q-13 19 -13 47q0 32 16 79l90 270q9 27 9 43q0 23 -19 23q-30 0 -72.5 -61t-85.5 -160.5t-75 -209.5l-13 -50h-141l121 432q6 18 6 32q0 18 -17 18q-19 0 -33.5 -17.5t-30.5 -61.5l-19 -51h-19l27 76q19 55 51 79t78 24
q86 0 86 -82q0 -28 -8 -58l-31 -121q41 102 78.5 158.5t76 79.5t85.5 23q90 0 90 -80q0 -30 -13 -71l-98 -295q-6 -18 -6 -29q0 -21 19 -21q16 0 31.5 17t31.5 62l18 48h19zM392 775.5q19 -10.5 41 -30.5q18 -16 31.5 -24t31.5 -8q20 0 37 13.5t34 44.5l18 -5
q-26 -70 -67 -104.5t-87 -34.5q-29 0 -48 10.5t-41 30.5q-18 16 -31.5 24t-31.5 8q-39 0 -71 -58l-18 5q26 70 67.5 104.5t86.5 34.5q29 0 48 -10.5z" />
    <glyph glyph-name="ograve" unicode="&#xf2;" horiz-adv-x="529" 
d="M49.5 322q37.5 89 111 149t175.5 60q78 0 120 -42.5t42 -122.5q0 -82 -37.5 -171t-111 -149t-175.5 -60q-78 0 -120 42.5t-42 122.5q0 82 37.5 171zM250 440q-44 -71 -74 -174t-30 -192q0 -36 8 -52t26 -16q37 0 80.5 69t73.5 171.5t30 194.5q0 39 -8 54.5t-25 15.5
q-37 0 -81 -71zM268 703q-17 17 -31.5 32.5t-23.5 30.5q-11 19 -11 36q0 13 6.5 24t17.5 18t26 7q17 0 31.5 -8.5t23.5 -23.5t14.5 -32t13.5 -48q15 -69 40 -133l-12 -7q-39 48 -95 104z" />
    <glyph glyph-name="oacute" unicode="&#xf3;" horiz-adv-x="529" 
d="M49.5 322q37.5 89 111 149t175.5 60q78 0 120 -42.5t42 -122.5q0 -82 -37.5 -171t-111 -149t-175.5 -60q-78 0 -120 42.5t-42 122.5q0 82 37.5 171zM250 440q-44 -71 -74 -174t-30 -192q0 -36 8 -52t26 -16q37 0 80.5 69t73.5 171.5t30 194.5q0 39 -8 54.5t-25 15.5
q-37 0 -81 -71zM378 726q23 38 35.5 56.5t27.5 33.5q11 12 26 19t29 7q21 0 36 -15q14 -14 14 -30q0 -26 -29 -55q-24 -24 -83 -61q-70 -45 -120 -82l-10 10q41 59 74 117z" />
    <glyph glyph-name="ocircumflex" unicode="&#xf4;" horiz-adv-x="529" 
d="M49.5 322q37.5 89 111 149t175.5 60q78 0 120 -42.5t42 -122.5q0 -82 -37.5 -171t-111 -149t-175.5 -60q-78 0 -120 42.5t-42 122.5q0 82 37.5 171zM250 440q-44 -71 -74 -174t-30 -192q0 -36 8 -52t26 -16q37 0 80.5 69t73.5 171.5t30 194.5q0 39 -8 54.5t-25 15.5
q-37 0 -81 -71zM169 610l-5 14q72 31 135.5 84t103.5 112h18q14 -71 41 -116.5t78 -79.5l-4 -14q-62 13 -104.5 31t-81.5 43q-81 -46 -181 -74z" />
    <glyph glyph-name="otilde" unicode="&#xf5;" horiz-adv-x="529" 
d="M49.5 322q37.5 89 111 149t175.5 60q78 0 120 -42.5t42 -122.5q0 -82 -37.5 -171t-111 -149t-175.5 -60q-78 0 -120 42.5t-42 122.5q0 82 37.5 171zM250 440q-44 -71 -74 -174t-30 -192q0 -36 8 -52t26 -16q37 0 80.5 69t73.5 171.5t30 194.5q0 39 -8 54.5t-25 15.5
q-37 0 -81 -71zM385 775.5q19 -10.5 41 -30.5q18 -16 31.5 -24t31.5 -8q20 0 37 13.5t34 44.5l18 -5q-26 -70 -67 -104.5t-87 -34.5q-29 0 -48 10.5t-41 30.5q-18 16 -31.5 24t-31.5 8q-39 0 -71 -58l-18 5q26 70 67.5 104.5t86.5 34.5q29 0 48 -10.5z" />
    <glyph glyph-name="odieresis" unicode="&#xf6;" horiz-adv-x="529" 
d="M49.5 322q37.5 89 111 149t175.5 60q78 0 120 -42.5t42 -122.5q0 -82 -37.5 -171t-111 -149t-175.5 -60q-78 0 -120 42.5t-42 122.5q0 82 37.5 171zM250 440q-44 -71 -74 -174t-30 -192q0 -36 8 -52t26 -16q37 0 80.5 69t73.5 171.5t30 194.5q0 39 -8 54.5t-25 15.5
q-37 0 -81 -71zM220.5 737q25.5 23 60.5 23q31 0 48 -18t17 -48q0 -39 -26 -61.5t-61 -22.5q-32 0 -48 18t-16 48q0 38 25.5 61zM447.5 737q25.5 23 60.5 23q31 0 48 -18t17 -48q0 -39 -25.5 -61.5t-60.5 -22.5q-32 0 -48.5 18t-16.5 48q0 38 25.5 61z" />
    <glyph glyph-name="divide" unicode="&#xf7;" horiz-adv-x="636" 
d="M357 532q23 22 50 22q19 0 30.5 -11t11.5 -29q0 -28 -23 -49t-51 -21q-19 0 -30 11t-11 28q0 27 23 49zM87 370h501l-9 -30h-501zM274 244q23 22 50 22q19 0 30.5 -11t11.5 -29q0 -28 -23 -49.5t-51 -21.5q-18 0 -29.5 11.5t-11.5 28.5q0 27 23 49z" />
    <glyph glyph-name="oslash" unicode="&#xf8;" horiz-adv-x="529" 
d="M498 366q0 -82 -37.5 -171t-111 -149t-175.5 -60q-46 0 -79 15l-60 -83l-15 10l58 81q-66 40 -66 142q0 82 37.5 171t111 149t175.5 60q49 0 82 -16l60 85l15 -9l-59 -85q64 -41 64 -140zM253 445q-42 -66 -72.5 -164t-34.5 -186l218 355q-1 34 -9 47.5t-24 13.5
q-36 0 -78 -66zM256.5 69q41.5 63 72 159t34.5 187l-217 -356q2 -28 10.5 -40.5t23.5 -12.5q35 0 76.5 63z" />
    <glyph glyph-name="ugrave" unicode="&#xf9;" horiz-adv-x="597" 
d="M536 165h19l-27 -76q-19 -55 -54.5 -79t-79.5 -24q-27 0 -46 9t-28 25q-9 18 -9 41t10 65l27 103q-39 -94 -75 -147t-73 -74.5t-83 -21.5q-45 0 -67.5 21t-22.5 61q0 31 13 69l97 295q6 18 6 29q0 21 -19 21q-16 0 -31.5 -17t-31.5 -62l-18 -48h-19l25 73q36 103 134 103
q91 0 91 -83q0 -31 -14 -76l-90 -270q-9 -27 -9 -43q0 -23 19 -23q30 0 71 59t82.5 156.5t73.5 209.5l15 56q89 2 145 14l-125 -446q-6 -21 -6 -33q0 -17 17 -17q19 0 34 18t30 61zM260 703q-17 17 -31.5 32.5t-23.5 30.5q-11 19 -11 36q0 13 6.5 24t17.5 18t26 7
q17 0 31.5 -8.5t23.5 -23.5t14.5 -32t13.5 -48q15 -69 40 -133l-12 -7q-39 48 -95 104z" />
    <glyph glyph-name="uacute" unicode="&#xfa;" horiz-adv-x="597" 
d="M536 165h19l-27 -76q-19 -55 -54.5 -79t-79.5 -24q-27 0 -46 9t-28 25q-9 18 -9 41t10 65l27 103q-39 -94 -75 -147t-73 -74.5t-83 -21.5q-45 0 -67.5 21t-22.5 61q0 31 13 69l97 295q6 18 6 29q0 21 -19 21q-16 0 -31.5 -17t-31.5 -62l-18 -48h-19l25 73q36 103 134 103
q91 0 91 -83q0 -31 -14 -76l-90 -270q-9 -27 -9 -43q0 -23 19 -23q30 0 71 59t82.5 156.5t73.5 209.5l15 56q89 2 145 14l-125 -446q-6 -21 -6 -33q0 -17 17 -17q19 0 34 18t30 61zM370 726q23 38 35.5 56.5t27.5 33.5q11 12 26 19t29 7q21 0 36 -15q14 -14 14 -30
q0 -26 -29 -55q-24 -24 -83 -61q-70 -45 -120 -82l-10 10q41 59 74 117z" />
    <glyph glyph-name="ucircumflex" unicode="&#xfb;" horiz-adv-x="597" 
d="M536 165h19l-27 -76q-19 -55 -54.5 -79t-79.5 -24q-27 0 -46 9t-28 25q-9 18 -9 41t10 65l27 103q-39 -94 -75 -147t-73 -74.5t-83 -21.5q-45 0 -67.5 21t-22.5 61q0 31 13 69l97 295q6 18 6 29q0 21 -19 21q-16 0 -31.5 -17t-31.5 -62l-18 -48h-19l25 73q36 103 134 103
q91 0 91 -83q0 -31 -14 -76l-90 -270q-9 -27 -9 -43q0 -23 19 -23q30 0 71 59t82.5 156.5t73.5 209.5l15 56q89 2 145 14l-125 -446q-6 -21 -6 -33q0 -17 17 -17q19 0 34 18t30 61zM161 610l-5 14q72 31 135.5 84t103.5 112h18q14 -71 41 -116.5t78 -79.5l-4 -14
q-62 13 -104.5 31t-81.5 43q-81 -46 -181 -74z" />
    <glyph glyph-name="udieresis" unicode="&#xfc;" horiz-adv-x="597" 
d="M536 165h19l-27 -76q-19 -55 -54.5 -79t-79.5 -24q-27 0 -46 9t-28 25q-9 18 -9 41t10 65l27 103q-39 -94 -75 -147t-73 -74.5t-83 -21.5q-45 0 -67.5 21t-22.5 61q0 31 13 69l97 295q6 18 6 29q0 21 -19 21q-16 0 -31.5 -17t-31.5 -62l-18 -48h-19l25 73q36 103 134 103
q91 0 91 -83q0 -31 -14 -76l-90 -270q-9 -27 -9 -43q0 -23 19 -23q30 0 71 59t82.5 156.5t73.5 209.5l15 56q89 2 145 14l-125 -446q-6 -21 -6 -33q0 -17 17 -17q19 0 34 18t30 61zM212.5 737q25.5 23 60.5 23q31 0 48 -18t17 -48q0 -39 -26 -61.5t-61 -22.5q-32 0 -48 18
t-16 48q0 38 25.5 61zM439.5 737q25.5 23 60.5 23q31 0 48 -18t17 -48q0 -39 -25.5 -61.5t-60.5 -22.5q-32 0 -48.5 18t-16.5 48q0 38 25.5 61z" />
    <glyph glyph-name="yacute" unicode="&#xfd;" horiz-adv-x="482" 
d="M468 440q0 -90 -58 -214.5t-139 -221.5q-51 -61 -112.5 -108t-126.5 -69q-40 -15 -71 -15q-32 0 -50.5 15t-18.5 41q0 27 19.5 44.5t49.5 17.5q59 0 107 -69q72 35 130 92l-78 478q-5 28 -10.5 37.5t-15.5 9.5q-11 0 -21 -15t-26 -59l-18 -49h-19l25 73q20 57 50.5 80
t72.5 23q43 0 67 -24t33 -84l46 -343q44 63 76 128.5t47 125.5q-41 22 -67 56t-25 73q0 31 18 49.5t49 18.5q66 0 66 -91zM333 726q23 38 35.5 56.5t27.5 33.5q11 12 26 19t29 7q21 0 36 -15q14 -14 14 -30q0 -26 -29 -55q-24 -24 -83 -61q-70 -45 -120 -82l-10 10
q41 59 74 117z" />
    <glyph glyph-name="thorn" unicode="&#xfe;" horiz-adv-x="584" 
d="M522.5 491.5q31.5 -39.5 31.5 -114.5q0 -82 -37 -173.5t-105 -154.5t-157 -63q-28 0 -52 9t-38 25l-27 -95q-6 -21 -6 -36q0 -28 20 -38t63 -11l-6 -21l-25 1q-105 3 -133 3q-33 0 -141 -4l6 21q36 0 52 13t26 49l182 650q-28 -62 -65 -112t-89 -103l-11 13
q46 49 75 84.5t58.5 88t58.5 127.5l33 117q81 6 149 28l-113 -399q35 71 73 103t85 32q61 0 92.5 -39.5zM307.5 75.5q44.5 60.5 72.5 150t28 169.5q0 47 -8.5 65t-24.5 18q-28 0 -64 -47.5t-64 -119.5l-77 -273q17 -23 45 -23q48 0 92.5 60.5z" />
    <glyph glyph-name="ydieresis" unicode="&#xff;" horiz-adv-x="482" 
d="M468 440q0 -90 -58 -214.5t-139 -221.5q-51 -61 -112.5 -108t-126.5 -69q-40 -15 -71 -15q-32 0 -50.5 15t-18.5 41q0 27 19.5 44.5t49.5 17.5q59 0 107 -69q72 35 130 92l-78 478q-5 28 -10.5 37.5t-15.5 9.5q-11 0 -21 -15t-26 -59l-18 -49h-19l25 73q20 57 50.5 80
t72.5 23q43 0 67 -24t33 -84l46 -343q44 63 76 128.5t47 125.5q-41 22 -67 56t-25 73q0 31 18 49.5t49 18.5q66 0 66 -91zM175.5 737q25.5 23 60.5 23q31 0 48 -18t17 -48q0 -39 -26 -61.5t-61 -22.5q-32 0 -48 18t-16 48q0 38 25.5 61zM402.5 737q25.5 23 60.5 23
q31 0 48 -18t17 -48q0 -39 -25.5 -61.5t-60.5 -22.5q-32 0 -48.5 18t-16.5 48q0 38 25.5 61z" />
    <glyph glyph-name="Amacron" unicode="&#x100;" horiz-adv-x="653" 
d="M550 36q14 -15 32 -16l-4 -20q-51 3 -145 3q-102 0 -150 -3l4 20q34 2 53 8.5t27 24t6 51.5l-9 164h-216l-88 -125q-32 -45 -32 -74q0 -24 21.5 -35.5t62.5 -13.5l-5 -20q-84 3 -130 3q-37 0 -69 -3l4 20q26 7 50.5 30t62.5 76l417 587q9 -1 26 -1q18 0 25 1l40 -629
q3 -33 17 -48zM363 288l-13 265l-188 -265h201zM668 819h-400l6 25h400z" />
    <glyph glyph-name="amacron" unicode="&#x101;" horiz-adv-x="558" 
d="M495 162h19l-25 -73q-20 -56 -55.5 -79.5t-76.5 -23.5q-52 0 -74 31q-14 18 -14 50q0 26 9 59q-34 -74 -75.5 -107t-91.5 -33q-55 0 -83.5 32.5t-28.5 90.5q0 89 47.5 188.5t120.5 166.5t143 67q27 0 43.5 -16t19.5 -48l14 49q80 1 145 15l-131 -446q-5 -17 -5 -28
q0 -22 19 -22q35 0 62 79zM362 428q1 5 1 15q0 25 -8.5 38t-25.5 13q-34 0 -77.5 -61t-74 -153t-30.5 -178q0 -33 6.5 -47.5t21.5 -14.5q22 0 48.5 30.5t53 88t46.5 136.5l-5 -24zM557 687h-336l6 25h336z" />
    <glyph glyph-name="Abreve" unicode="&#x102;" horiz-adv-x="653" 
d="M550 36q14 -15 32 -16l-4 -20q-51 3 -145 3q-102 0 -150 -3l4 20q34 2 53 8.5t27 24t6 51.5l-9 164h-216l-88 -125q-32 -45 -32 -74q0 -24 21.5 -35.5t62.5 -13.5l-5 -20q-84 3 -130 3q-37 0 -69 -3l4 20q26 7 50.5 30t62.5 76l417 587q9 -1 26 -1q18 0 25 1l40 -629
q3 -33 17 -48zM363 288l-13 265l-188 -265h201zM717 926l11 -10q-42 -58 -115 -101.5t-144 -43.5q-66 0 -106 40t-52 104l15 7q29 -29 66.5 -41t96.5 -12q132 0 228 57z" />
    <glyph glyph-name="abreve" unicode="&#x103;" horiz-adv-x="558" 
d="M495 162h19l-25 -73q-20 -56 -55.5 -79.5t-76.5 -23.5q-52 0 -74 31q-14 18 -14 50q0 26 9 59q-34 -74 -75.5 -107t-91.5 -33q-55 0 -83.5 32.5t-28.5 90.5q0 89 47.5 188.5t120.5 166.5t143 67q27 0 43.5 -16t19.5 -48l14 49q80 1 145 15l-131 -446q-5 -17 -5 -28
q0 -22 19 -22q35 0 62 79zM362 428q1 5 1 15q0 25 -8.5 38t-25.5 13q-34 0 -77.5 -61t-74 -153t-30.5 -178q0 -33 6.5 -47.5t21.5 -14.5q22 0 48.5 30.5t53 88t46.5 136.5l-5 -24zM498 737q53 18 96 51l11 -10q-38 -63 -104.5 -110t-130.5 -47q-53 0 -84 43t-41 113l16 7
q24 -35 52.5 -50t77.5 -15q54 0 107 18z" />
    <glyph glyph-name="Aogonek" unicode="&#x104;" horiz-adv-x="653" 
d="M550 36q14 -15 32 -16l-4 -20q-51 3 -145 3q-102 0 -150 -3l4 20q34 2 53 8.5t27 24t6 51.5l-9 164h-216l-88 -125q-32 -45 -32 -74q0 -24 21.5 -35.5t62.5 -13.5l-5 -20q-84 3 -130 3q-37 0 -69 -3l4 20q26 7 50.5 30t62.5 76l417 587q9 -1 26 -1q18 0 25 1l40 -629
q3 -33 17 -48zM363 288l-13 265l-188 -265h201zM472.5 -44.5q-29.5 -30.5 -29.5 -63.5q0 -30 33 -30q34 0 73 22l11 -17q-68 -55 -145 -55q-40 0 -62.5 16t-22.5 44q0 44 56 77.5t136 53.5h26q-46 -17 -75.5 -47.5z" />
    <glyph glyph-name="aogonek" unicode="&#x105;" horiz-adv-x="558" 
d="M495 162h19l-25 -73q-20 -56 -55.5 -79.5t-76.5 -23.5q-52 0 -74 31q-14 18 -14 50q0 26 9 59q-34 -74 -75.5 -107t-91.5 -33q-55 0 -83.5 32.5t-28.5 90.5q0 89 47.5 188.5t120.5 166.5t143 67q27 0 43.5 -16t19.5 -48l14 49q80 1 145 15l-131 -446q-5 -17 -5 -28
q0 -22 19 -22q35 0 62 79zM362 428q1 5 1 15q0 25 -8.5 38t-25.5 13q-34 0 -77.5 -61t-74 -153t-30.5 -178q0 -33 6.5 -47.5t21.5 -14.5q22 0 48.5 30.5t53 88t46.5 136.5l-5 -24zM347 -44q-30 -31 -30 -65q0 -14 7.5 -21.5t21.5 -7.5q15 0 32.5 8.5t30.5 21.5l13 -12
q-56 -68 -134 -68q-39 0 -61.5 16t-22.5 44q0 44 56 77.5t136 53.5h26q-45 -16 -75 -47z" />
    <glyph glyph-name="Cacute" unicode="&#x106;" horiz-adv-x="693" 
d="M682 478h-22q8 46 8 79q0 46 -17 76q-35 65 -118 65q-80 0 -152.5 -70.5t-116 -183t-43.5 -230.5q0 -99 35.5 -148.5t99.5 -49.5q38 0 79 17.5t71 48.5q26 28 45.5 62.5t44.5 95.5h22q-47 -173 -59 -240h-22q3 21 3 34q0 26 -13 26q-8 0 -20 -9q-46 -31 -92 -48t-104 -17
q-134 0 -201 64t-67 184q0 118 62.5 231.5t172.5 185t243 71.5q56 0 88.5 -17t60.5 -48q8 -9 15 -9q18 0 40 60h21q-33 -86 -64 -230zM558 843q30 28 36 33q31 29 48.5 43.5t36.5 25.5t43 11q35 0 48 -27q5 -9 5 -20q0 -17 -12 -31.5t-33 -25.5q-17 -9 -42.5 -18t-53.5 -17
q-75 -20 -138 -45l-7 12q39 31 69 59z" />
    <glyph glyph-name="cacute" unicode="&#x107;" horiz-adv-x="463" 
d="M262.5 457.5q-46.5 -53.5 -75.5 -140t-29 -177.5q0 -100 76 -100q72 0 132 88l20 -8q-36 -58 -91.5 -96t-126.5 -38q-73 0 -116.5 39t-43.5 115q0 86 43 177.5t121 152.5t177 61q55 0 88.5 -27.5t33.5 -68.5q0 -27 -13 -53t-36 -42t-50 -16q-25 0 -41 16t-16 42
q0 39 27 69.5t64 39.5q-17 20 -48 20q-49 0 -95.5 -53.5zM357 725q23 38 35.5 56.5t27.5 33.5q11 12 26 19t29 7q21 0 36 -15q14 -14 14 -30q0 -26 -29 -55q-24 -24 -83 -61q-70 -45 -120 -82l-10 10q41 59 74 117z" />
    <glyph glyph-name="Ccircumflex" unicode="&#x108;" horiz-adv-x="693" 
d="M682 478h-22q8 46 8 79q0 46 -17 76q-35 65 -118 65q-80 0 -152.5 -70.5t-116 -183t-43.5 -230.5q0 -99 35.5 -148.5t99.5 -49.5q38 0 79 17.5t71 48.5q26 28 45.5 62.5t44.5 95.5h22q-47 -173 -59 -240h-22q3 21 3 34q0 26 -13 26q-8 0 -20 -9q-46 -31 -92 -48t-104 -17
q-134 0 -201 64t-67 184q0 118 62.5 231.5t172.5 185t243 71.5q56 0 88.5 -17t60.5 -48q8 -9 15 -9q18 0 40 60h21q-33 -86 -64 -230zM292 771l-5 14q83 26 155 67.5t116 87.5h18q23 -56 54.5 -92.5t84.5 -62.5l-4 -14q-65 11 -108.5 24.5t-92.5 34.5q-104 -38 -218 -59z
" />
    <glyph glyph-name="ccircumflex" unicode="&#x109;" horiz-adv-x="463" 
d="M262.5 457.5q-46.5 -53.5 -75.5 -140t-29 -177.5q0 -100 76 -100q72 0 132 88l20 -8q-36 -58 -91.5 -96t-126.5 -38q-73 0 -116.5 39t-43.5 115q0 86 43 177.5t121 152.5t177 61q55 0 88.5 -27.5t33.5 -68.5q0 -27 -13 -53t-36 -42t-50 -16q-25 0 -41 16t-16 42
q0 39 27 69.5t64 39.5q-17 20 -48 20q-49 0 -95.5 -53.5zM148 609l-5 14q72 31 135.5 84t103.5 112h18q14 -71 41 -116.5t78 -79.5l-4 -14q-62 13 -104.5 31t-81.5 43q-81 -46 -181 -74z" />
    <glyph glyph-name="Cdotaccent" unicode="&#x10a;" horiz-adv-x="693" 
d="M682 478h-22q8 46 8 79q0 46 -17 76q-35 65 -118 65q-80 0 -152.5 -70.5t-116 -183t-43.5 -230.5q0 -99 35.5 -148.5t99.5 -49.5q38 0 79 17.5t71 48.5q26 28 45.5 62.5t44.5 95.5h22q-47 -173 -59 -240h-22q3 21 3 34q0 26 -13 26q-8 0 -20 -9q-46 -31 -92 -48t-104 -17
q-134 0 -201 64t-67 184q0 118 62.5 231.5t172.5 185t243 71.5q56 0 88.5 -17t60.5 -48q8 -9 15 -9q18 0 40 60h21q-33 -86 -64 -230zM468 893.5q29 25.5 73 25.5q36 0 55 -16.5t19 -45.5q0 -39 -30 -65.5t-74 -26.5q-34 0 -53 16t-19 45q0 42 29 67.5z" />
    <glyph glyph-name="cdotaccent" unicode="&#x10b;" horiz-adv-x="463" 
d="M262.5 457.5q-46.5 -53.5 -75.5 -140t-29 -177.5q0 -100 76 -100q72 0 132 88l20 -8q-36 -58 -91.5 -96t-126.5 -38q-73 0 -116.5 39t-43.5 115q0 86 43 177.5t121 152.5t177 61q55 0 88.5 -27.5t33.5 -68.5q0 -27 -13 -53t-36 -42t-50 -16q-25 0 -41 16t-16 42
q0 39 27 69.5t64 39.5q-17 20 -48 20q-49 0 -95.5 -53.5zM303 748q29 26 74 26q35 0 54.5 -16t19.5 -45q0 -39 -30 -66t-74 -27q-35 0 -54 15.5t-19 44.5q0 42 29 68z" />
    <glyph glyph-name="Ccaron" unicode="&#x10c;" horiz-adv-x="693" 
d="M682 478h-22q8 46 8 79q0 46 -17 76q-35 65 -118 65q-80 0 -152.5 -70.5t-116 -183t-43.5 -230.5q0 -99 35.5 -148.5t99.5 -49.5q38 0 79 17.5t71 48.5q26 28 45.5 62.5t44.5 95.5h22q-47 -173 -59 -240h-22q3 21 3 34q0 26 -13 26q-8 0 -20 -9q-46 -31 -92 -48t-104 -17
q-134 0 -201 64t-67 184q0 118 62.5 231.5t172.5 185t243 71.5q56 0 88.5 -17t60.5 -48q8 -9 15 -9q18 0 40 60h21q-33 -86 -64 -230zM785 937l5 -14q-83 -26 -155 -67.5t-116 -87.5h-18q-23 56 -54.5 92.5t-84.5 62.5l4 14q65 -11 108 -24.5t94 -34.5q105 38 217 59z" />
    <glyph glyph-name="ccaron" unicode="&#x10d;" horiz-adv-x="463" 
d="M262.5 457.5q-46.5 -53.5 -75.5 -140t-29 -177.5q0 -100 76 -100q72 0 132 88l20 -8q-36 -58 -91.5 -96t-126.5 -38q-73 0 -116.5 39t-43.5 115q0 86 43 177.5t121 152.5t177 61q55 0 88.5 -27.5t33.5 -68.5q0 -27 -13 -53t-36 -42t-50 -16q-25 0 -41 16t-16 42
q0 39 27 69.5t64 39.5q-17 20 -48 20q-49 0 -95.5 -53.5zM578 819l5 -14q-72 -32 -135.5 -84.5t-103.5 -111.5h-18q-14 71 -41 116.5t-78 79.5l4 14q62 -13 104.5 -31t81.5 -43q85 47 181 74z" />
    <glyph glyph-name="Dcaron" unicode="&#x10e;" horiz-adv-x="771" 
d="M700 246q-56 -108 -167.5 -177t-269.5 -69l-49 1q-58 2 -102 2q-97 0 -150 -3l3 20q34 2 51.5 8t28 23.5t20.5 54.5l131 496q8 27 8 43q0 22 -14.5 32t-51.5 11l3 20q45 -3 132 -3h32q105 3 149 3q147 0 224.5 -60.5t77.5 -178.5q0 -115 -56 -223zM440 89
q75 71 114.5 182.5t39.5 229.5q0 94 -39 141.5t-123 47.5q-26 0 -38.5 -6.5t-20.5 -23.5t-18 -56l-131 -500q-11 -44 -11 -55q0 -17 11.5 -24t38.5 -7q102 0 177 71zM728 937l5 -14q-83 -26 -155 -67.5t-116 -87.5h-18q-23 56 -54.5 92.5t-84.5 62.5l4 14q65 -11 108 -24.5
t94 -34.5q105 38 217 59z" />
    <glyph glyph-name="dcaron" unicode="&#x10f;" horiz-adv-x="579" 
d="M516 162h19l-24 -73q-18 -57 -53.5 -80t-78.5 -23q-62 0 -79 46q-8 18 -8 42q0 29 12 71l1 4q-38 -85 -80.5 -124t-101.5 -39q-53 0 -86 35t-33 105q0 81 42 176.5t118 162t173 66.5q47 0 61 -34l45 170q5 18 5 28q0 20 -15.5 29t-52.5 9l6 21q69 1 125.5 11t108.5 30
l-196 -710q-5 -14 -5 -27q0 -23 19 -23q15 0 30 17.5t31 61.5zM391 473q-11 35 -40 35q-43 0 -89.5 -61.5t-78 -155.5t-31.5 -186q0 -35 7.5 -52t24.5 -17q20 0 47 29.5t56.5 85.5t53.5 133zM670 658.5q15 51.5 15 74.5q0 19 -13 19l3 21l28 -1q48 0 96 12q1 -2 1 -10
q0 -38 -43 -101t-119 -137l-14 4q31 67 46 118.5z" />
    <glyph glyph-name="Dcroat" unicode="&#x110;" horiz-adv-x="771" 
d="M700 246q-56 -108 -167.5 -177t-269.5 -69l-49 1q-58 2 -102 2q-97 0 -150 -3l3 20q34 2 51.5 8t28 23.5t20.5 54.5l131 496q8 27 8 43q0 22 -14.5 32t-51.5 11l3 20q45 -3 132 -3h32q105 3 149 3q147 0 224.5 -60.5t77.5 -178.5q0 -115 -56 -223zM440 89
q75 71 114.5 182.5t39.5 229.5q0 94 -39 141.5t-123 47.5q-26 0 -38.5 -6.5t-20.5 -23.5t-18 -56l-131 -500q-11 -44 -11 -55q0 -17 11.5 -24t38.5 -7q102 0 177 71zM443 341h-424l6 25h424z" />
    <glyph glyph-name="dcroat" unicode="&#x111;" horiz-adv-x="579" 
d="M516 162h19l-24 -73q-18 -57 -53.5 -80t-78.5 -23q-62 0 -79 46q-8 18 -8 42q0 29 12 71l1 4q-38 -85 -80.5 -124t-101.5 -39q-53 0 -86 35t-33 105q0 81 42 176.5t118 162t173 66.5q47 0 61 -34l45 170q5 18 5 28q0 20 -15.5 29t-52.5 9l6 21q69 1 125.5 11t108.5 30
l-196 -710q-5 -14 -5 -27q0 -23 19 -23q15 0 30 17.5t31 61.5zM391 473q-11 35 -40 35q-43 0 -89.5 -61.5t-78 -155.5t-31.5 -186q0 -35 7.5 -52t24.5 -17q20 0 47 29.5t56.5 85.5t53.5 133zM649 608h-386l6 20h386z" />
    <glyph glyph-name="Emacron" unicode="&#x112;" horiz-adv-x="626" 
d="M671 708q-28 -76 -38 -118q-5 -22 -13 -62h-22q1 13 1 36q0 67 -25 94t-86 27h-31q-35 0 -52.5 -5.5t-28 -22.5t-20.5 -55l-63 -236h37q50 0 84 35t53 85h23q-19 -57 -31 -105l-6 -25q-12 -47 -29 -130h-22q1 7 1 22q0 98 -84 98h-31l-64 -240q-9 -31 -9 -49
q0 -21 14.5 -27.5t51.5 -6.5h37q54 0 91 16.5t66 54.5t59 106h23q-11 -29 -22 -72q-17 -59 -26 -128q-68 3 -227 3q-216 0 -325 -3l5 20q36 2 53.5 8t28.5 23t21 55l132 496q8 34 8 48q0 22 -14.5 29t-52.5 9l5 20q109 -3 325 -3q142 0 203 3zM628 819h-400l6 25h400z" />
    <glyph glyph-name="emacron" unicode="&#x113;" horiz-adv-x="469" 
d="M375 307q-93 -62 -216 -96q-6 -34 -6 -68q0 -53 19.5 -75t57.5 -22q31 0 70 19.5t76 62.5l16 -8q-36 -56 -96.5 -95t-135.5 -39q-69 0 -113 37t-44 104q0 89 48 184t131 157.5t182 62.5q46 0 75 -20.5t29 -58.5q0 -83 -93 -145zM276 471q-37 -41 -68 -106.5t-46 -134.5
q71 31 110 67q40 36 63 82.5t23 99.5q0 19 -4 26t-12 7q-29 0 -66 -41zM535 687h-336l6 25h336z" />
    <glyph glyph-name="Ebreve" unicode="&#x114;" horiz-adv-x="626" 
d="M671 708q-28 -76 -38 -118q-5 -22 -13 -62h-22q1 13 1 36q0 67 -25 94t-86 27h-31q-35 0 -52.5 -5.5t-28 -22.5t-20.5 -55l-63 -236h37q50 0 84 35t53 85h23q-19 -57 -31 -105l-6 -25q-12 -47 -29 -130h-22q1 7 1 22q0 98 -84 98h-31l-64 -240q-9 -31 -9 -49
q0 -21 14.5 -27.5t51.5 -6.5h37q54 0 91 16.5t66 54.5t59 106h23q-11 -29 -22 -72q-17 -59 -26 -128q-68 3 -227 3q-216 0 -325 -3l5 20q36 2 53.5 8t28.5 23t21 55l132 496q8 34 8 48q0 22 -14.5 29t-52.5 9l5 20q109 -3 325 -3q142 0 203 3zM677 926l11 -10
q-42 -58 -115 -101.5t-144 -43.5q-66 0 -106 40t-52 104l15 7q29 -29 66.5 -41t96.5 -12q132 0 228 57z" />
    <glyph glyph-name="ebreve" unicode="&#x115;" horiz-adv-x="469" 
d="M375 307q-93 -62 -216 -96q-6 -34 -6 -68q0 -53 19.5 -75t57.5 -22q31 0 70 19.5t76 62.5l16 -8q-36 -56 -96.5 -95t-135.5 -39q-69 0 -113 37t-44 104q0 89 48 184t131 157.5t182 62.5q46 0 75 -20.5t29 -58.5q0 -83 -93 -145zM276 471q-37 -41 -68 -106.5t-46 -134.5
q71 31 110 67q40 36 63 82.5t23 99.5q0 19 -4 26t-12 7q-29 0 -66 -41zM476 737q53 18 96 51l11 -10q-38 -63 -104.5 -110t-130.5 -47q-53 0 -84 43t-41 113l16 7q24 -35 52.5 -50t77.5 -15q54 0 107 18z" />
    <glyph glyph-name="Edotaccent" unicode="&#x116;" horiz-adv-x="626" 
d="M671 708q-28 -76 -38 -118q-5 -22 -13 -62h-22q1 13 1 36q0 67 -25 94t-86 27h-31q-35 0 -52.5 -5.5t-28 -22.5t-20.5 -55l-63 -236h37q50 0 84 35t53 85h23q-19 -57 -31 -105l-6 -25q-12 -47 -29 -130h-22q1 7 1 22q0 98 -84 98h-31l-64 -240q-9 -31 -9 -49
q0 -21 14.5 -27.5t51.5 -6.5h37q54 0 91 16.5t66 54.5t59 106h23q-11 -29 -22 -72q-17 -59 -26 -128q-68 3 -227 3q-216 0 -325 -3l5 20q36 2 53.5 8t28.5 23t21 55l132 496q8 34 8 48q0 22 -14.5 29t-52.5 9l5 20q109 -3 325 -3q142 0 203 3zM392 893.5q29 25.5 73 25.5
q36 0 55 -16.5t19 -45.5q0 -39 -30 -65.5t-74 -26.5q-34 0 -53 16t-19 45q0 42 29 67.5z" />
    <glyph glyph-name="edotaccent" unicode="&#x117;" horiz-adv-x="469" 
d="M375 307q-93 -62 -216 -96q-6 -34 -6 -68q0 -53 19.5 -75t57.5 -22q31 0 70 19.5t76 62.5l16 -8q-36 -56 -96.5 -95t-135.5 -39q-69 0 -113 37t-44 104q0 89 48 184t131 157.5t182 62.5q46 0 75 -20.5t29 -58.5q0 -83 -93 -145zM276 471q-37 -41 -68 -106.5t-46 -134.5
q71 31 110 67q40 36 63 82.5t23 99.5q0 19 -4 26t-12 7q-29 0 -66 -41zM312 749q29 26 74 26q35 0 54.5 -16t19.5 -45q0 -39 -30 -66t-74 -27q-35 0 -54 15.5t-19 44.5q0 42 29 68z" />
    <glyph glyph-name="Eogonek" unicode="&#x118;" horiz-adv-x="626" 
d="M671 708q-28 -76 -38 -118q-5 -22 -13 -62h-22q1 13 1 36q0 67 -25 94t-86 27h-31q-35 0 -52.5 -5.5t-28 -22.5t-20.5 -55l-63 -236h37q50 0 84 35t53 85h23q-19 -57 -31 -105l-6 -25q-12 -47 -29 -130h-22q1 7 1 22q0 98 -84 98h-31l-64 -240q-9 -31 -9 -49
q0 -21 14.5 -27.5t51.5 -6.5h37q54 0 91 16.5t66 54.5t59 106h23q-11 -29 -22 -72q-17 -59 -26 -128q-68 3 -227 3q-216 0 -325 -3l5 20q36 2 53.5 8t28.5 23t21 55l132 496q8 34 8 48q0 22 -14.5 29t-52.5 9l5 20q109 -3 325 -3q142 0 203 3zM430.5 -44.5
q-29.5 -30.5 -29.5 -63.5q0 -30 33 -30q34 0 73 22l11 -17q-68 -55 -145 -55q-40 0 -62.5 16t-22.5 44q0 44 56 77.5t136 53.5h26q-46 -17 -75.5 -47.5z" />
    <glyph glyph-name="eogonek" unicode="&#x119;" horiz-adv-x="469" 
d="M375 307q-93 -62 -216 -96q-6 -34 -6 -68q0 -53 19.5 -75t57.5 -22q31 0 70 19.5t76 62.5l16 -8q-36 -56 -96.5 -95t-135.5 -39q-69 0 -113 37t-44 104q0 89 48 184t131 157.5t182 62.5q46 0 75 -20.5t29 -58.5q0 -83 -93 -145zM276 471q-37 -41 -68 -106.5t-46 -134.5
q71 31 110 67q40 36 63 82.5t23 99.5q0 19 -4 26t-12 7q-29 0 -66 -41zM174 -44q-30 -31 -30 -65q0 -14 7.5 -21.5t21.5 -7.5q15 0 32.5 8.5t30.5 21.5l13 -12q-56 -68 -134 -68q-39 0 -61.5 16t-22.5 44q0 44 56 77.5t136 53.5h26q-45 -16 -75 -47z" />
    <glyph glyph-name="Ecaron" unicode="&#x11a;" horiz-adv-x="626" 
d="M671 708q-28 -76 -38 -118q-5 -22 -13 -62h-22q1 13 1 36q0 67 -25 94t-86 27h-31q-35 0 -52.5 -5.5t-28 -22.5t-20.5 -55l-63 -236h37q50 0 84 35t53 85h23q-19 -57 -31 -105l-6 -25q-12 -47 -29 -130h-22q1 7 1 22q0 98 -84 98h-31l-64 -240q-9 -31 -9 -49
q0 -21 14.5 -27.5t51.5 -6.5h37q54 0 91 16.5t66 54.5t59 106h23q-11 -29 -22 -72q-17 -59 -26 -128q-68 3 -227 3q-216 0 -325 -3l5 20q36 2 53.5 8t28.5 23t21 55l132 496q8 34 8 48q0 22 -14.5 29t-52.5 9l5 20q109 -3 325 -3q142 0 203 3zM709 937l5 -14
q-83 -26 -155 -67.5t-116 -87.5h-18q-23 56 -54.5 92.5t-84.5 62.5l4 14q65 -11 108 -24.5t94 -34.5q105 38 217 59z" />
    <glyph glyph-name="ecaron" unicode="&#x11b;" horiz-adv-x="469" 
d="M375 307q-93 -62 -216 -96q-6 -34 -6 -68q0 -53 19.5 -75t57.5 -22q31 0 70 19.5t76 62.5l16 -8q-36 -56 -96.5 -95t-135.5 -39q-69 0 -113 37t-44 104q0 89 48 184t131 157.5t182 62.5q46 0 75 -20.5t29 -58.5q0 -83 -93 -145zM276 471q-37 -41 -68 -106.5t-46 -134.5
q71 31 110 67q40 36 63 82.5t23 99.5q0 19 -4 26t-12 7q-29 0 -66 -41zM587 820l5 -14q-72 -32 -135.5 -84.5t-103.5 -111.5h-18q-14 71 -41 116.5t-78 79.5l4 14q62 -13 104.5 -31t81.5 -43q85 47 181 74z" />
    <glyph glyph-name="Gcircumflex" unicode="&#x11c;" horiz-adv-x="739" 
d="M381.5 12q20.5 6 35.5 15q16 11 24.5 26.5t16.5 46.5l23 88q9 33 9 52q0 25 -18 33.5t-66 10.5l5 20q62 -3 170 -3q94 0 141 3l-5 -20q-24 -2 -35.5 -8t-20 -22.5t-18.5 -55.5l-53 -198h-20q2 26 -5 41.5t-23 15.5q-15 0 -30 -6t-31 -14t-23 -12q-38 -20 -73 -29.5
t-72 -9.5q-131 0 -203 60t-72 169q0 116 62 234t172 195.5t246 77.5q60 0 95.5 -16.5t68.5 -48.5q9 -9 17 -9q10 0 19.5 14t20.5 46h22q-33 -86 -64 -230h-22q5 43 5 75q0 24 -3 40.5t-11 32.5q-20 38 -59.5 58t-94.5 20q-96 0 -167.5 -87t-109.5 -210t-38 -225
q0 -90 35.5 -133t107.5 -43q21 0 41.5 6zM303 771l-5 14q83 26 155 67.5t116 87.5h18q23 -56 54.5 -92.5t84.5 -62.5l-4 -14q-65 11 -108.5 24.5t-92.5 34.5q-104 -38 -218 -59z" />
    <glyph glyph-name="gcircumflex" unicode="&#x11d;" horiz-adv-x="472" 
d="M512 558q17 -17 17 -47q0 -27 -14 -42.5t-33 -15.5q-20 0 -35 15.5t-15 42.5q0 19 9 44q-39 -17 -60 -45q26 -13 40 -36.5t14 -56.5q0 -42 -23.5 -83.5t-66.5 -72t-100 -41.5q-56 -25 -80.5 -40t-24.5 -29q0 -9 11 -15.5t34 -13.5l84 -28q53 -18 83.5 -41.5t30.5 -66.5
q0 -48 -41.5 -88.5t-111.5 -64.5t-151 -24q-78 0 -130 21t-52 55q0 35 56 59.5t127 32.5l4 -15q-62 -34 -62 -79q0 -28 21 -42.5t58 -14.5t77.5 14.5t67.5 39t27 52.5q0 16 -11.5 23.5t-40.5 15.5l-142 41q-27 8 -43.5 24.5t-16.5 40.5q0 36 42.5 67t136.5 71h-10
q-67 0 -108.5 28t-41.5 84q0 46 28.5 93t84.5 78.5t133 31.5q42 0 78 -11q18 25 45.5 40.5t56.5 15.5q31 0 48 -17zM274 300.5q24 67.5 24 148.5q0 30 -6.5 46.5t-25.5 16.5q-29 0 -50.5 -35t-32 -86.5t-10.5 -98.5q0 -32 8 -45.5t24 -13.5q45 0 69 67.5zM124 610l-5 14
q72 31 135.5 84t103.5 112h18q14 -71 41 -116.5t78 -79.5l-4 -14q-62 13 -104.5 31t-81.5 43q-81 -46 -181 -74z" />
    <glyph glyph-name="Gbreve" unicode="&#x11e;" horiz-adv-x="739" 
d="M381.5 12q20.5 6 35.5 15q16 11 24.5 26.5t16.5 46.5l23 88q9 33 9 52q0 25 -18 33.5t-66 10.5l5 20q62 -3 170 -3q94 0 141 3l-5 -20q-24 -2 -35.5 -8t-20 -22.5t-18.5 -55.5l-53 -198h-20q2 26 -5 41.5t-23 15.5q-15 0 -30 -6t-31 -14t-23 -12q-38 -20 -73 -29.5
t-72 -9.5q-131 0 -203 60t-72 169q0 116 62 234t172 195.5t246 77.5q60 0 95.5 -16.5t68.5 -48.5q9 -9 17 -9q10 0 19.5 14t20.5 46h22q-33 -86 -64 -230h-22q5 43 5 75q0 24 -3 40.5t-11 32.5q-20 38 -59.5 58t-94.5 20q-96 0 -167.5 -87t-109.5 -210t-38 -225
q0 -90 35.5 -133t107.5 -43q21 0 41.5 6zM764 926l11 -10q-42 -58 -115 -101.5t-144 -43.5q-66 0 -106 40t-52 104l15 7q29 -29 66.5 -41t96.5 -12q132 0 228 57z" />
    <glyph glyph-name="gbreve" unicode="&#x11f;" horiz-adv-x="472" 
d="M512 558q17 -17 17 -47q0 -27 -14 -42.5t-33 -15.5q-20 0 -35 15.5t-15 42.5q0 19 9 44q-39 -17 -60 -45q26 -13 40 -36.5t14 -56.5q0 -42 -23.5 -83.5t-66.5 -72t-100 -41.5q-56 -25 -80.5 -40t-24.5 -29q0 -9 11 -15.5t34 -13.5l84 -28q53 -18 83.5 -41.5t30.5 -66.5
q0 -48 -41.5 -88.5t-111.5 -64.5t-151 -24q-78 0 -130 21t-52 55q0 35 56 59.5t127 32.5l4 -15q-62 -34 -62 -79q0 -28 21 -42.5t58 -14.5t77.5 14.5t67.5 39t27 52.5q0 16 -11.5 23.5t-40.5 15.5l-142 41q-27 8 -43.5 24.5t-16.5 40.5q0 36 42.5 67t136.5 71h-10
q-67 0 -108.5 28t-41.5 84q0 46 28.5 93t84.5 78.5t133 31.5q42 0 78 -11q18 25 45.5 40.5t56.5 15.5q31 0 48 -17zM274 300.5q24 67.5 24 148.5q0 30 -6.5 46.5t-25.5 16.5q-29 0 -50.5 -35t-32 -86.5t-10.5 -98.5q0 -32 8 -45.5t24 -13.5q45 0 69 67.5zM443 737
q53 18 96 51l11 -10q-38 -63 -104.5 -110t-130.5 -47q-53 0 -84 43t-41 113l16 7q24 -35 52.5 -50t77.5 -15q54 0 107 18z" />
    <glyph glyph-name="Gdotaccent" unicode="&#x120;" horiz-adv-x="739" 
d="M381.5 12q20.5 6 35.5 15q16 11 24.5 26.5t16.5 46.5l23 88q9 33 9 52q0 25 -18 33.5t-66 10.5l5 20q62 -3 170 -3q94 0 141 3l-5 -20q-24 -2 -35.5 -8t-20 -22.5t-18.5 -55.5l-53 -198h-20q2 26 -5 41.5t-23 15.5q-15 0 -30 -6t-31 -14t-23 -12q-38 -20 -73 -29.5
t-72 -9.5q-131 0 -203 60t-72 169q0 116 62 234t172 195.5t246 77.5q60 0 95.5 -16.5t68.5 -48.5q9 -9 17 -9q10 0 19.5 14t20.5 46h22q-33 -86 -64 -230h-22q5 43 5 75q0 24 -3 40.5t-11 32.5q-20 38 -59.5 58t-94.5 20q-96 0 -167.5 -87t-109.5 -210t-38 -225
q0 -90 35.5 -133t107.5 -43q21 0 41.5 6zM479 893.5q29 25.5 73 25.5q36 0 55 -16.5t19 -45.5q0 -39 -30 -65.5t-74 -26.5q-34 0 -53 16t-19 45q0 42 29 67.5z" />
    <glyph glyph-name="gdotaccent" unicode="&#x121;" horiz-adv-x="472" 
d="M512 558q17 -17 17 -47q0 -27 -14 -42.5t-33 -15.5q-20 0 -35 15.5t-15 42.5q0 19 9 44q-39 -17 -60 -45q26 -13 40 -36.5t14 -56.5q0 -42 -23.5 -83.5t-66.5 -72t-100 -41.5q-56 -25 -80.5 -40t-24.5 -29q0 -9 11 -15.5t34 -13.5l84 -28q53 -18 83.5 -41.5t30.5 -66.5
q0 -48 -41.5 -88.5t-111.5 -64.5t-151 -24q-78 0 -130 21t-52 55q0 35 56 59.5t127 32.5l4 -15q-62 -34 -62 -79q0 -28 21 -42.5t58 -14.5t77.5 14.5t67.5 39t27 52.5q0 16 -11.5 23.5t-40.5 15.5l-142 41q-27 8 -43.5 24.5t-16.5 40.5q0 36 42.5 67t136.5 71h-10
q-67 0 -108.5 28t-41.5 84q0 46 28.5 93t84.5 78.5t133 31.5q42 0 78 -11q18 25 45.5 40.5t56.5 15.5q31 0 48 -17zM274 300.5q24 67.5 24 148.5q0 30 -6.5 46.5t-25.5 16.5q-29 0 -50.5 -35t-32 -86.5t-10.5 -98.5q0 -32 8 -45.5t24 -13.5q45 0 69 67.5zM279 749
q29 26 74 26q35 0 54.5 -16t19.5 -45q0 -39 -30 -66t-74 -27q-35 0 -54 15.5t-19 44.5q0 42 29 68z" />
    <glyph glyph-name="Gcommaaccent" unicode="&#x122;" horiz-adv-x="739" 
d="M381.5 12q20.5 6 35.5 15q16 11 24.5 26.5t16.5 46.5l23 88q9 33 9 52q0 25 -18 33.5t-66 10.5l5 20q62 -3 170 -3q94 0 141 3l-5 -20q-24 -2 -35.5 -8t-20 -22.5t-18.5 -55.5l-53 -198h-20q2 26 -5 41.5t-23 15.5q-15 0 -30 -6t-31 -14t-23 -12q-38 -20 -73 -29.5
t-72 -9.5q-131 0 -203 60t-72 169q0 116 62 234t172 195.5t246 77.5q60 0 95.5 -16.5t68.5 -48.5q9 -9 17 -9q10 0 19.5 14t20.5 46h22q-33 -86 -64 -230h-22q5 43 5 75q0 24 -3 40.5t-11 32.5q-20 38 -59.5 58t-94.5 20q-96 0 -167.5 -87t-109.5 -210t-38 -225
q0 -90 35.5 -133t107.5 -43q21 0 41.5 6zM368 -69q20 -16 20 -45q0 -50 -36 -84t-102 -43l-2 19q39 4 66.5 19.5t32.5 38.5q-24 -17 -57 -17q-60 0 -60 49q0 33 25.5 56t64.5 23q28 0 48 -16z" />
    <glyph glyph-name="gcommaaccent" unicode="&#x123;" horiz-adv-x="472" 
d="M512 558q17 -17 17 -47q0 -27 -14 -42.5t-33 -15.5q-20 0 -35 15.5t-15 42.5q0 19 9 44q-39 -17 -60 -45q26 -13 40 -36.5t14 -56.5q0 -42 -23.5 -83.5t-66.5 -72t-100 -41.5q-56 -25 -80.5 -40t-24.5 -29q0 -9 11 -15.5t34 -13.5l84 -28q53 -18 83.5 -41.5t30.5 -66.5
q0 -48 -41.5 -88.5t-111.5 -64.5t-151 -24q-78 0 -130 21t-52 55q0 35 56 59.5t127 32.5l4 -15q-62 -34 -62 -79q0 -28 21 -42.5t58 -14.5t77.5 14.5t67.5 39t27 52.5q0 16 -11.5 23.5t-40.5 15.5l-142 41q-27 8 -43.5 24.5t-16.5 40.5q0 36 42.5 67t136.5 71h-10
q-67 0 -108.5 28t-41.5 84q0 46 28.5 93t84.5 78.5t133 31.5q42 0 78 -11q18 25 45.5 40.5t56.5 15.5q31 0 48 -17zM274 300.5q24 67.5 24 148.5q0 30 -6.5 46.5t-25.5 16.5q-29 0 -50.5 -35t-32 -86.5t-10.5 -98.5q0 -32 8 -45.5t24 -13.5q45 0 69 67.5zM259 634
q-20 16 -20 45q0 50 36 84t102 43l2 -19q-39 -4 -66.5 -19.5t-32.5 -38.5q24 17 57 17q60 0 60 -49q0 -33 -25.5 -56t-64.5 -23q-28 0 -48 16z" />
    <glyph glyph-name="Hcircumflex" unicode="&#x124;" horiz-adv-x="810" 
d="M884 708l-5 -20q-37 -2 -54.5 -8t-28 -23t-20.5 -55l-132 -496q-9 -38 -9 -49q0 -21 14.5 -28t53.5 -9l-4 -20q-54 3 -164 3q-101 0 -157 -3l4 20q36 2 54 8t28.5 23t20.5 55l64 240h-261l-64 -240q-9 -38 -9 -49q0 -21 14.5 -28t53.5 -9l-4 -20q-55 3 -157 3
q-109 0 -163 -3l5 20q35 2 52.5 8t28 23.5t20.5 54.5l132 496q8 34 8 48q0 22 -14.5 29t-52.5 9l5 20q51 -3 163 -3q96 0 158 3l-5 -20q-37 -2 -54.5 -8t-28 -23t-20.5 -55l-63 -236h261l63 236q9 32 9 48q0 22 -15 29t-53 9l5 20q54 -3 156 -3q109 0 165 3zM306 771l-5 14
q83 26 155 67.5t116 87.5h18q23 -56 54.5 -92.5t84.5 -62.5l-4 -14q-65 11 -108.5 24.5t-92.5 34.5q-104 -38 -218 -59z" />
    <glyph glyph-name="hcircumflex" unicode="&#x125;" horiz-adv-x="570" 
d="M525 162l-25 -73q-36 -103 -134 -103q-91 0 -91 81q0 36 15 78l89 270q9 29 9 44q0 22 -19 22q-28 0 -66.5 -52t-78.5 -140t-73 -192l-24 -84q-1 -1 -1 -3v1l-3 -11h-141l198 667q5 18 5 28q0 20 -15.5 29t-52.5 9l6 21q70 1 125.5 11t107.5 30l-136 -465
q51 113 100.5 157t112.5 44q47 0 69 -21.5t22 -58.5q0 -32 -14 -71l-98 -295q-6 -18 -6 -29q0 -21 20 -21q33 0 62 79l18 48h19zM314 850l-5 14q72 31 135.5 84t103.5 112h18q14 -71 41 -116.5t78 -79.5l-4 -14q-62 13 -104.5 31t-81.5 43q-81 -46 -181 -74z" />
    <glyph glyph-name="Hbar" unicode="&#x126;" horiz-adv-x="810" 
d="M884 708l-5 -20q-37 -2 -54.5 -8t-28 -23t-20.5 -55l-132 -496q-9 -38 -9 -49q0 -21 14.5 -28t53.5 -9l-4 -20q-54 3 -164 3q-101 0 -157 -3l4 20q36 2 54 8t28.5 23t20.5 55l64 240h-261l-64 -240q-9 -38 -9 -49q0 -21 14.5 -28t53.5 -9l-4 -20q-55 3 -157 3
q-109 0 -163 -3l5 20q35 2 52.5 8t28 23.5t20.5 54.5l132 496q8 34 8 48q0 22 -14.5 29t-52.5 9l5 20q51 -3 163 -3q96 0 158 3l-5 -20q-37 -2 -54.5 -8t-28 -23t-20.5 -55l-63 -236h261l63 236q9 32 9 48q0 22 -15 29t-53 9l5 20q54 -3 156 -3q109 0 165 3zM868 513h-807
l5 20h807z" />
    <glyph glyph-name="hbar" unicode="&#x127;" horiz-adv-x="570" 
d="M525 162l-25 -73q-36 -103 -134 -103q-91 0 -91 81q0 36 15 78l89 270q9 29 9 44q0 22 -19 22q-28 0 -66.5 -52t-78.5 -140t-73 -192l-24 -84q-1 -1 -1 -3v1l-3 -11h-141l198 667q5 18 5 28q0 20 -15.5 29t-52.5 9l6 21q70 1 125.5 11t107.5 30l-136 -465
q51 113 100.5 157t112.5 44q47 0 69 -21.5t22 -58.5q0 -32 -14 -71l-98 -295q-6 -18 -6 -29q0 -21 20 -21q33 0 62 79l18 48h19zM463 608h-386l6 20h386z" />
    <glyph glyph-name="Itilde" unicode="&#x128;" horiz-adv-x="390" 
d="M215 57q0 -21 14.5 -28t53.5 -9l-4 -20q-58 3 -163 3t-157 -3l5 20q35 2 52.5 8t28 23.5t20.5 54.5l132 496q8 34 8 48q0 22 -14.5 29t-52.5 9l5 20q49 -3 157 -3q99 0 164 3l-5 -20q-37 -2 -54.5 -8t-28 -23t-20.5 -55l-132 -496q-9 -38 -9 -49zM343.5 916.5
q23.5 -10.5 51.5 -29.5q24 -17 40.5 -25t39.5 -8q22 0 40.5 13.5t36.5 44.5l18 -5q-27 -70 -72 -104.5t-94 -34.5q-36 0 -59 10.5t-52 30.5q-24 16 -40 24t-39 8q-22 0 -40.5 -13.5t-36.5 -44.5l-18 5q27 70 71.5 104.5t94.5 34.5q35 0 58.5 -10.5z" />
    <glyph glyph-name="itilde" unicode="&#x129;" horiz-adv-x="322" 
d="M145 462q0 20 -17 20q-19 0 -34 -18.5t-31 -60.5l-19 -51h-19l27 76q37 103 139 103q46 0 67 -23t21 -59q0 -26 -10 -58l-106 -306q-6 -18 -6 -29q0 -21 20 -21q16 0 31 17t32 62l18 48h19l-25 -73q-36 -103 -135 -103q-46 0 -68.5 21t-22.5 61q0 34 15 77l98 287
q6 18 6 30zM248 775.5q19 -10.5 41 -30.5q18 -16 31.5 -24t31.5 -8q20 0 37 13.5t34 44.5l18 -5q-26 -70 -67 -104.5t-87 -34.5q-29 0 -48 10.5t-41 30.5q-18 16 -31.5 24t-31.5 8q-39 0 -71 -58l-18 5q26 70 67.5 104.5t86.5 34.5q29 0 48 -10.5z" />
    <glyph glyph-name="Imacron" unicode="&#x12a;" horiz-adv-x="390" 
d="M215 57q0 -21 14.5 -28t53.5 -9l-4 -20q-58 3 -163 3t-157 -3l5 20q35 2 52.5 8t28 23.5t20.5 54.5l132 496q8 34 8 48q0 22 -14.5 29t-52.5 9l5 20q49 -3 157 -3q99 0 164 3l-5 -20q-37 -2 -54.5 -8t-28 -23t-20.5 -55l-132 -496q-9 -38 -9 -49zM516 819h-400l6 25h400z
" />
    <glyph glyph-name="imacron" unicode="&#x12b;" horiz-adv-x="322" 
d="M145 462q0 20 -17 20q-19 0 -34 -18.5t-31 -60.5l-19 -51h-19l27 76q37 103 139 103q46 0 67 -23t21 -59q0 -26 -10 -58l-106 -306q-6 -18 -6 -29q0 -21 20 -21q16 0 31 17t32 62l18 48h19l-25 -73q-36 -103 -135 -103q-46 0 -68.5 21t-22.5 61q0 34 15 77l98 287
q6 18 6 30zM379.948 687h-285.592l5.09961 25h285.592z" />
    <glyph glyph-name="Ibreve" unicode="&#x12c;" horiz-adv-x="390" 
d="M215 57q0 -21 14.5 -28t53.5 -9l-4 -20q-58 3 -163 3t-157 -3l5 20q35 2 52.5 8t28 23.5t20.5 54.5l132 496q8 34 8 48q0 22 -14.5 29t-52.5 9l5 20q49 -3 157 -3q99 0 164 3l-5 -20q-37 -2 -54.5 -8t-28 -23t-20.5 -55l-132 -496q-9 -38 -9 -49zM565 926l11 -10
q-42 -58 -115 -101.5t-144 -43.5q-66 0 -106 40t-52 104l15 7q29 -29 66.5 -41t96.5 -12q132 0 228 57z" />
    <glyph glyph-name="ibreve" unicode="&#x12d;" horiz-adv-x="322" 
d="M145 462q0 20 -17 20q-19 0 -34 -18.5t-31 -60.5l-19 -51h-19l27 76q37 103 139 103q46 0 67 -23t21 -59q0 -26 -10 -58l-106 -306q-6 -18 -6 -29q0 -21 20 -21q16 0 31 17t32 62l18 48h19l-25 -73q-36 -103 -135 -103q-46 0 -68.5 21t-22.5 61q0 34 15 77l98 287
q6 18 6 30zM351 737q53 18 96 51l11 -10q-38 -63 -104.5 -110t-130.5 -47q-53 0 -84 43t-41 113l16 7q24 -35 52.5 -50t77.5 -15q54 0 107 18z" />
    <glyph glyph-name="Iogonek" unicode="&#x12e;" horiz-adv-x="390" 
d="M215 57q0 -21 14.5 -28t53.5 -9l-4 -20q-58 3 -163 3t-157 -3l5 20q35 2 52.5 8t28 23.5t20.5 54.5l132 496q8 34 8 48q0 22 -14.5 29t-52.5 9l5 20q49 -3 157 -3q99 0 164 3l-5 -20q-37 -2 -54.5 -8t-28 -23t-20.5 -55l-132 -496q-9 -38 -9 -49zM199.5 -44.5
q-29.5 -30.5 -29.5 -63.5q0 -30 33 -30q34 0 73 22l11 -17q-68 -55 -145 -55q-40 0 -62.5 16t-22.5 44q0 44 56 77.5t136 53.5h26q-46 -17 -75.5 -47.5z" />
    <glyph glyph-name="iogonek" unicode="&#x12f;" horiz-adv-x="322" 
d="M207 749q29 24 72 24q35 0 54.5 -16.5t19.5 -45.5q0 -40 -30 -66t-74 -26q-36 0 -55 17.5t-17 47.5q1 41 30 65zM146 462q0 20 -18 20t-33 -18.5t-31 -60.5l-20 -51h-19l28 76q37 103 139 103q46 0 67 -22.5t21 -58.5q0 -29 -11 -59l-105 -306q-6 -18 -6 -29
q0 -21 20 -21q15 0 30.5 17t32.5 62l18 48h19l-26 -73q-35 -103 -135 -103q-91 0 -91 83q0 33 15 76l98 287q7 23 7 30zM110 -44q-30 -31 -30 -65q0 -14 7.5 -21.5t21.5 -7.5q15 0 32.5 8.5t30.5 21.5l13 -12q-56 -68 -134 -68q-39 0 -61.5 16t-22.5 44q0 44 56 77.5
t136 53.5h26q-45 -16 -75 -47z" />
    <glyph glyph-name="Idotaccent" unicode="&#x130;" horiz-adv-x="390" 
d="M215 57q0 -21 14.5 -28t53.5 -9l-4 -20q-58 3 -163 3t-157 -3l5 20q35 2 52.5 8t28 23.5t20.5 54.5l132 496q8 34 8 48q0 22 -14.5 29t-52.5 9l5 20q49 -3 157 -3q99 0 164 3l-5 -20q-37 -2 -54.5 -8t-28 -23t-20.5 -55l-132 -496q-9 -38 -9 -49zM280 893.5
q29 25.5 73 25.5q36 0 55 -16.5t19 -45.5q0 -39 -30 -65.5t-74 -26.5q-34 0 -53 16t-19 45q0 42 29 67.5z" />
    <glyph glyph-name="dotlessi" unicode="&#x131;" horiz-adv-x="322" 
d="M145 462q0 20 -17 20q-19 0 -34 -18.5t-31 -60.5l-19 -51h-19l27 76q37 103 139 103q46 0 67 -23t21 -59q0 -26 -10 -58l-106 -306q-6 -18 -6 -29q0 -21 20 -21q16 0 31 17t32 62l18 48h19l-25 -73q-36 -103 -135 -103q-46 0 -68.5 21t-22.5 61q0 34 15 77l98 287
q6 18 6 30z" />
    <glyph glyph-name="Jcircumflex" unicode="&#x134;" horiz-adv-x="683" 
d="M787 718q0 -24 -73 -52q-59 -47 -100 -121.5t-73 -178.5h100l-3 -20h-102q-8 -26 -11 -39l-62 -242q-29 -114 -101 -183.5t-195 -69.5q-63 0 -101.5 18t-38.5 57q0 33 22.5 54.5t61.5 21.5q34 0 55.5 -16t22.5 -44q0 -47 -55 -71q9 -3 28 -3q38 0 62 28.5t39 72.5t41 140
l54 192q11 42 29 84h-136l3 20h142q43 90 110.5 153.5t177.5 135.5q-40 -14 -96 -42q-52 -24 -84 -35t-74 -11q-29 0 -54 6.5t-63 20.5q-30 11 -52 17t-45 6q-28 0 -44.5 -14.5t-16.5 -42.5q2 -67 113 -77l-3 -19q-79 6 -126.5 42.5t-47.5 101.5q0 60 36.5 95.5t105.5 35.5
q43 0 75.5 -12.5t75.5 -37.5q41 -25 74.5 -38t77.5 -13q85 0 169 39q38 58 63 58q8 0 13 -5q6 -6 6 -12zM315 771l-5 14q83 26 155 67.5t116 87.5h18q23 -56 54.5 -92.5t84.5 -62.5l-4 -14q-65 11 -108.5 24.5t-92.5 34.5q-104 -38 -218 -59z" />
    <glyph glyph-name="jcircumflex" unicode="&#x135;" horiz-adv-x="301" 
d="M-134 -170q51 2 88.5 39.5t55.5 112.5l126 450q6 20 6 31q0 19 -18 19q-17 0 -32.5 -18.5t-30.5 -60.5l-19 -51h-19l27 76q19 55 56 79t83 24q86 0 86 -79q0 -28 -10 -61l-83 -297q-20 -84 -50 -138t-78 -90q-73 -54 -192 -54zM45 610l-5 14q72 31 135.5 84t103.5 112h18
q14 -71 41 -116.5t78 -79.5l-4 -14q-62 13 -104.5 31t-81.5 43q-81 -46 -181 -74z" />
    <glyph glyph-name="Kcommaaccent" unicode="&#x136;" horiz-adv-x="740" 
d="M749.5 697.5q25.5 -24.5 25.5 -64.5q0 -37 -24.5 -68t-66.5 -31q-28 0 -47 17.5t-19 47.5t20 58t54 43q-6 3 -16 3q-18 0 -29 -5.5t-22 -16.5q-16 -18 -28 -46t-26 -73q-17 -54 -31.5 -89.5t-40.5 -63.5t-66 -37q77 -8 109.5 -38t32.5 -94q0 -11 -2 -39l-11 -105
q-3 -37 25 -37q19 0 32 14.5t24 45.5l17 51h20l-26 -77q-18 -54 -53 -80.5t-81 -26.5q-57 0 -86.5 27t-29.5 75q0 8 2 24l19 140q3 24 3 42q0 25 -6 40t-20 25q-44 -11 -61 -11q-25 0 -25 17q0 24 29 24q22 0 59 -10q45 6 72.5 33t42.5 61t33 92q15 51 27 80t31 48
q29 29 71 29q43 0 68.5 -24.5zM215 57q0 -21 14.5 -28t53.5 -9l-4 -20q-55 3 -157 3q-109 0 -163 -3l5 20q35 2 52.5 8t28 23.5t20.5 54.5l132 496q8 34 8 48q0 22 -14.5 29t-52.5 9l5 20q51 -3 163 -3q96 0 158 3l-5 -20q-37 -2 -54.5 -8t-28 -23t-20.5 -55l-132 -496
q-9 -38 -9 -49zM329 -69q20 -16 20 -45q0 -50 -36 -84t-102 -43l-2 19q39 4 66.5 19.5t32.5 38.5q-24 -17 -57 -17q-60 0 -60 49q0 33 25.5 56t64.5 23q28 0 48 -16z" />
    <glyph glyph-name="kcommaaccent" unicode="&#x137;" horiz-adv-x="552" 
d="M514.5 505.5q23.5 -25.5 23.5 -64.5q0 -38 -23 -63t-61 -25q-30 0 -47 16t-17 40q0 30 19 54.5t47 39.5q-5 8 -16 8q-24 0 -42 -15q-13 -11 -21.5 -27.5t-22.5 -49.5q-20 -52 -43 -84t-66 -43q167 -4 167 -109q0 -15 -3 -32l-15 -74q-3 -13 -3 -22q0 -11 4.5 -15.5
t13.5 -4.5q33 0 61 79l18 48h19l-25 -73q-36 -103 -144 -103q-40 0 -61.5 20t-21.5 58q0 20 4 37l17 77q6 24 6 41q0 29 -17.5 44t-58.5 21l-83 -284h-141l198 667q5 18 5 28q0 20 -15.5 29t-52.5 9l6 21q70 1 125.5 11t107.5 30l-145 -496q37 6 60.5 24.5t36.5 41.5t27 60
q11 31 21.5 50.5t26.5 32.5q28 23 62 23q46 0 69.5 -25.5zM232 -69q20 -16 20 -45q0 -50 -36 -84t-102 -43l-2 19q39 4 66.5 19.5t32.5 38.5q-24 -17 -57 -17q-60 0 -60 49q0 33 25.5 56t64.5 23q28 0 48 -16z" />
    <glyph glyph-name="kgreenlandic" unicode="&#x138;" horiz-adv-x="592" 
d="M542.5 505.5q23.5 -25.5 23.5 -64.5q0 -38 -23 -63t-60 -25q-31 0 -48 16.5t-17 41.5q1 29 20 53t47 39q-6 8 -16 8q-23 0 -43 -15q-13 -11 -23.5 -32t-22.5 -55q-23 -61 -46.5 -96.5t-69.5 -48.5q75 -1 121 -27t46 -87q0 -9 -2 -27l-7 -46q-2 -16 -2 -21q0 -12 4 -16.5
t13 -4.5q34 0 62 79l17 48h19l-24 -73q-36 -103 -144 -103q-84 0 -84 78q0 20 4 37l10 49q4 20 4 39q0 31 -18 46.5t-61 21.5l-66 -257h-141l122 432q6 21 6 33q0 17 -17 17q-19 0 -34 -18t-31 -61l-19 -51h-19l27 76q19 55 52 79t79 24q85 0 85 -80q0 -22 -9 -60l-31 -121
q40 5 66 26.5t39.5 48.5t29.5 71q15 39 24.5 59t25.5 33q30 23 63 23q45 0 68.5 -25.5z" />
    <glyph glyph-name="Lacute" unicode="&#x139;" horiz-adv-x="605" 
d="M538 128q-16 -56 -27 -128q-68 3 -227 3q-218 0 -327 -3l5 20q36 2 53.5 8t28.5 23t21 55l132 496q8 34 8 48q0 22 -14.5 29t-52.5 9l5 20q53 -3 165 -3q94 0 156 3l-5 -20q-37 -2 -54.5 -8t-28.5 -23t-21 -55l-132 -496q-9 -38 -9 -49q0 -21 14.5 -27.5t52.5 -6.5h40
q71 0 125 43.5t94 143.5h22q-10 -27 -24 -82zM365 843q30 28 36 33q31 29 48.5 43.5t36.5 25.5t43 11q35 0 48 -27q5 -9 5 -20q0 -17 -12 -31.5t-33 -25.5q-17 -9 -42.5 -18t-53.5 -17q-75 -20 -138 -45l-7 12q39 31 69 59z" />
    <glyph glyph-name="lacute" unicode="&#x13a;" horiz-adv-x="300" 
d="M138 60q0 -25 21 -25q31 0 60 79l18 48h19l-25 -73q-19 -56 -55 -79.5t-78 -23.5q-45 0 -68 23.5t-23 65.5q0 31 12 70l157 522q5 18 5 28q0 20 -15.5 29t-52.5 9l7 21q69 1 124 11t108 30l-210 -710q-4 -13 -4 -25zM322 907q30 28 36 33q31 29 48.5 43.5t36.5 25.5
t43 11q35 0 48 -27q5 -9 5 -20q0 -17 -12 -31.5t-33 -25.5q-17 -9 -42.5 -18t-53.5 -17q-75 -20 -138 -45l-7 12q39 31 69 59z" />
    <glyph glyph-name="Lcommaaccent" unicode="&#x13b;" horiz-adv-x="605" 
d="M538 128q-16 -56 -27 -128q-68 3 -227 3q-218 0 -327 -3l5 20q36 2 53.5 8t28.5 23t21 55l132 496q8 34 8 48q0 22 -14.5 29t-52.5 9l5 20q53 -3 165 -3q94 0 156 3l-5 -20q-37 -2 -54.5 -8t-28.5 -23t-21 -55l-132 -496q-9 -38 -9 -49q0 -21 14.5 -27.5t52.5 -6.5h40
q71 0 125 43.5t94 143.5h22q-10 -27 -24 -82zM319 -69q20 -16 20 -45q0 -50 -36 -84t-102 -43l-2 19q39 4 66.5 19.5t32.5 38.5q-24 -17 -57 -17q-60 0 -60 49q0 33 25.5 56t64.5 23q28 0 48 -16z" />
    <glyph glyph-name="lcommaaccent" unicode="&#x13c;" horiz-adv-x="300" 
d="M138 60q0 -25 21 -25q31 0 60 79l18 48h19l-25 -73q-19 -56 -55 -79.5t-78 -23.5q-45 0 -68 23.5t-23 65.5q0 31 12 70l157 522q5 18 5 28q0 20 -15.5 29t-52.5 9l7 21q69 1 124 11t108 30l-210 -710q-4 -13 -4 -25zM134 -69q20 -16 20 -45q0 -50 -36 -84t-102 -43l-2 19
q39 4 66.5 19.5t32.5 38.5q-24 -17 -57 -17q-60 0 -60 49q0 33 25.5 56t64.5 23q28 0 48 -16z" />
    <glyph glyph-name="Lcaron" unicode="&#x13d;" horiz-adv-x="605" 
d="M538 128q-16 -56 -27 -128q-68 3 -227 3q-218 0 -327 -3l5 20q36 2 53.5 8t28.5 23t21 55l132 496q8 34 8 48q0 22 -14.5 29t-52.5 9l5 20q53 -3 165 -3q94 0 156 3l-5 -20q-37 -2 -54.5 -8t-28.5 -23t-21 -55l-132 -496q-9 -38 -9 -49q0 -21 14.5 -27.5t52.5 -6.5h40
q71 0 125 43.5t94 143.5h22q-10 -27 -24 -82zM507.5 597q14.5 49 14.5 71q0 10 -6 14.5t-21 4.5l3 21l42 -1q48 0 96 12q1 -2 1 -10q0 -36 -42.5 -96.5t-117.5 -131.5l-14 4q30 63 44.5 112z" />
    <glyph glyph-name="lcaron" unicode="&#x13e;" horiz-adv-x="300" 
d="M138 60q0 -25 21 -25q31 0 60 79l18 48h19l-25 -73q-19 -56 -55 -79.5t-78 -23.5q-45 0 -68 23.5t-23 65.5q0 31 12 70l157 522q5 18 5 28q0 20 -15.5 29t-52.5 9l7 21q69 1 124 11t108 30l-210 -710q-4 -13 -4 -25zM402 658.5q15 51.5 15 74.5q0 19 -13 19l3 21l28 -1
q48 0 96 12q1 -2 1 -10q0 -38 -43 -101t-119 -137l-14 4q31 67 46 118.5z" />
    <glyph glyph-name="Ldot" unicode="&#x13f;" horiz-adv-x="621" 
d="M538 128q-16 -56 -27 -128q-68 3 -227 3q-218 0 -327 -3l5 20q36 2 53.5 8t28.5 23t21 55l132 496q8 34 8 48q0 22 -14.5 29t-52.5 9l5 20q53 -3 165 -3q94 0 156 3l-5 -20q-37 -2 -54.5 -8t-28.5 -23t-21 -55l-132 -496q-9 -38 -9 -49q0 -21 14.5 -27.5t52.5 -6.5h40
q71 0 125 43.5t94 143.5h22q-10 -27 -24 -82zM484 418q28 27 69 27q32 0 50 -16t18 -45q0 -36 -29.5 -64.5t-68.5 -28.5q-32 0 -49.5 16t-17.5 44q0 40 28 67z" />
    <glyph glyph-name="ldot" unicode="&#x140;" horiz-adv-x="460" 
d="M138 60q0 -25 21 -25q31 0 60 79l18 48h19l-25 -73q-19 -56 -55 -79.5t-78 -23.5q-45 0 -68 23.5t-23 65.5q0 31 12 70l157 522q5 18 5 28q0 20 -15.5 29t-52.5 9l7 21q69 1 124 11t108 30l-210 -710q-4 -13 -4 -25zM311 344q28 27 69 27q32 0 50 -16t18 -45
q0 -36 -29.5 -64.5t-68.5 -28.5q-32 0 -49.5 16t-17.5 44q0 40 28 67z" />
    <glyph glyph-name="Lslash" unicode="&#x141;" horiz-adv-x="606" 
d="M563 210q-10 -27 -24 -82q-16 -56 -27 -128q-68 3 -227 3q-218 0 -327 -3l5 20q36 2 53.5 8t28.5 23t21 55l40 149l-90 -45l6 23l90 45l86 324q8 34 8 48q0 22 -14.5 29t-52.5 9l5 20q52 -3 165 -3q94 0 156 3l-5 -20q-37 -2 -54.5 -8t-28.5 -23t-21 -55l-65 -242
l226 113l-6 -23l-226 -114l-61 -230q-9 -38 -9 -49q0 -21 14.5 -27.5t52.5 -6.5h40q71 0 125 43.5t94 143.5h22z" />
    <glyph glyph-name="lslash" unicode="&#x142;" horiz-adv-x="320" 
d="M151 85q-4 -13 -4 -25q0 -25 21 -25q31 0 60 79l18 48h19l-25 -73q-19 -56 -55 -79.5t-78 -23.5q-45 0 -68 23.5t-23 65.5q0 31 12 70l48 161l-84 -57l4 30l91 61l98 327q5 18 5 28q0 20 -15.5 29t-52.5 9l7 21q69 1 124 11t108 30l-111 -377l121 81l-4 -30l-127 -85z
" />
    <glyph glyph-name="Nacute" unicode="&#x143;" horiz-adv-x="825" 
d="M907.5 730q25.5 -24 25.5 -61q0 -39 -26 -65t-65 -26q-33 0 -51 16.5t-18 43.5q0 33 21 58t54 35q-4 4 -16 4q-48 0 -84 -53q-44 -66 -92 -232.5t-109 -454.5h-22l-248 543q-43 -212 -81.5 -357t-74.5 -192q-22 -29 -46.5 -46t-60.5 -17q-44 0 -69 24t-25 61
q0 39 25.5 65t65.5 26q32 0 50.5 -16.5t18.5 -43.5q0 -33 -21.5 -58t-54.5 -35q5 -4 17 -4q51 0 84 54q37 59 77 211t87 392q6 29 6 45q0 24 -16 31.5t-61 9.5l5 20q32 -3 89 -3q46 0 81 3l207 -474q84 359 150 456q44 64 108 64q44 0 69.5 -24zM579 843q30 28 36 33
q31 29 48.5 43.5t36.5 25.5t43 11q35 0 48 -27q5 -9 5 -20q0 -17 -12 -31.5t-33 -25.5q-17 -9 -42.5 -18t-53.5 -17q-75 -20 -138 -45l-7 12q39 31 69 59z" />
    <glyph glyph-name="nacute" unicode="&#x144;" horiz-adv-x="603" 
d="M559 162l-25 -73q-36 -103 -134 -103q-56 0 -80 33q-13 19 -13 47q0 32 16 79l90 270q9 27 9 43q0 23 -19 23q-30 0 -72.5 -61t-85.5 -160.5t-75 -209.5l-13 -50h-141l121 432q6 18 6 32q0 18 -17 18q-19 0 -33.5 -17.5t-30.5 -61.5l-19 -51h-19l27 76q19 55 51 79t78 24
q86 0 86 -82q0 -28 -8 -58l-31 -121q41 102 78.5 158.5t76 79.5t85.5 23q90 0 90 -80q0 -30 -13 -71l-98 -295q-6 -18 -6 -29q0 -21 19 -21q16 0 31.5 17t31.5 62l18 48h19zM385 726q23 38 35.5 56.5t27.5 33.5q11 12 26 19t29 7q21 0 36 -15q14 -14 14 -30q0 -26 -29 -55
q-24 -24 -83 -61q-70 -45 -120 -82l-10 10q41 59 74 117z" />
    <glyph glyph-name="Ncommaaccent" unicode="&#x145;" horiz-adv-x="825" 
d="M907.5 730q25.5 -24 25.5 -61q0 -39 -26 -65t-65 -26q-33 0 -51 16.5t-18 43.5q0 33 21 58t54 35q-4 4 -16 4q-48 0 -84 -53q-44 -66 -92 -232.5t-109 -454.5h-22l-248 543q-43 -212 -81.5 -357t-74.5 -192q-22 -29 -46.5 -46t-60.5 -17q-44 0 -69 24t-25 61
q0 39 25.5 65t65.5 26q32 0 50.5 -16.5t18.5 -43.5q0 -33 -21.5 -58t-54.5 -35q5 -4 17 -4q51 0 84 54q37 59 77 211t87 392q6 29 6 45q0 24 -16 31.5t-61 9.5l5 20q32 -3 89 -3q46 0 81 3l207 -474q84 359 150 456q44 64 108 64q44 0 69.5 -24zM357 -69q20 -16 20 -45
q0 -50 -36 -84t-102 -43l-2 19q39 4 66.5 19.5t32.5 38.5q-24 -17 -57 -17q-60 0 -60 49q0 33 25.5 56t64.5 23q28 0 48 -16z" />
    <glyph glyph-name="ncommaaccent" unicode="&#x146;" horiz-adv-x="603" 
d="M559 162l-25 -73q-36 -103 -134 -103q-56 0 -80 33q-13 19 -13 47q0 32 16 79l90 270q9 27 9 43q0 23 -19 23q-30 0 -72.5 -61t-85.5 -160.5t-75 -209.5l-13 -50h-141l121 432q6 18 6 32q0 18 -17 18q-19 0 -33.5 -17.5t-30.5 -61.5l-19 -51h-19l27 76q19 55 51 79t78 24
q86 0 86 -82q0 -28 -8 -58l-31 -121q41 102 78.5 158.5t76 79.5t85.5 23q90 0 90 -80q0 -30 -13 -71l-98 -295q-6 -18 -6 -29q0 -21 19 -21q16 0 31.5 17t31.5 62l18 48h19zM256 -69q20 -16 20 -45q0 -50 -36 -84t-102 -43l-2 19q39 4 66.5 19.5t32.5 38.5q-24 -17 -57 -17
q-60 0 -60 49q0 33 25.5 56t64.5 23q28 0 48 -16z" />
    <glyph glyph-name="Ncaron" unicode="&#x147;" horiz-adv-x="825" 
d="M907.5 730q25.5 -24 25.5 -61q0 -39 -26 -65t-65 -26q-33 0 -51 16.5t-18 43.5q0 33 21 58t54 35q-4 4 -16 4q-48 0 -84 -53q-44 -66 -92 -232.5t-109 -454.5h-22l-248 543q-43 -212 -81.5 -357t-74.5 -192q-22 -29 -46.5 -46t-60.5 -17q-44 0 -69 24t-25 61
q0 39 25.5 65t65.5 26q32 0 50.5 -16.5t18.5 -43.5q0 -33 -21.5 -58t-54.5 -35q5 -4 17 -4q51 0 84 54q37 59 77 211t87 392q6 29 6 45q0 24 -16 31.5t-61 9.5l5 20q32 -3 89 -3q46 0 81 3l207 -474q84 359 150 456q44 64 108 64q44 0 69.5 -24zM806 937l5 -14
q-83 -26 -155 -67.5t-116 -87.5h-18q-23 56 -54.5 92.5t-84.5 62.5l4 14q65 -11 108 -24.5t94 -34.5q105 38 217 59z" />
    <glyph glyph-name="ncaron" unicode="&#x148;" horiz-adv-x="603" 
d="M559 162l-25 -73q-36 -103 -134 -103q-56 0 -80 33q-13 19 -13 47q0 32 16 79l90 270q9 27 9 43q0 23 -19 23q-30 0 -72.5 -61t-85.5 -160.5t-75 -209.5l-13 -50h-141l121 432q6 18 6 32q0 18 -17 18q-19 0 -33.5 -17.5t-30.5 -61.5l-19 -51h-19l27 76q19 55 51 79t78 24
q86 0 86 -82q0 -28 -8 -58l-31 -121q41 102 78.5 158.5t76 79.5t85.5 23q90 0 90 -80q0 -30 -13 -71l-98 -295q-6 -18 -6 -29q0 -21 19 -21q16 0 31.5 17t31.5 62l18 48h19zM606 820l5 -14q-72 -32 -135.5 -84.5t-103.5 -111.5h-18q-14 71 -41 116.5t-78 79.5l4 14
q62 -13 104.5 -31t81.5 -43q85 47 181 74z" />
    <glyph glyph-name="napostrophe" unicode="&#x149;" horiz-adv-x="603" 
d="M559 162l-25 -73q-36 -103 -134 -103q-56 0 -80 33q-13 19 -13 47q0 32 16 79l90 270q9 27 9 43q0 23 -19 23q-30 0 -72.5 -61t-85.5 -160.5t-75 -209.5l-13 -50h-141l121 432q6 18 6 32q0 18 -17 18q-19 0 -33.5 -17.5t-30.5 -61.5l-19 -51h-19l27 76q19 55 51 79t78 24
q86 0 86 -82q0 -28 -8 -58l-31 -121q41 102 78.5 158.5t76 79.5t85.5 23q90 0 90 -80q0 -30 -13 -71l-98 -295q-6 -18 -6 -29q0 -21 19 -21q16 0 31.5 17t31.5 62l18 48h19zM123 597q-40 -55 -109 -86l-5 16q46 23 75.5 58.5t32.5 76.5q-27 -29 -62 -29q-30 0 -46 14t-16 40
q0 41 30.5 70.5t73.5 29.5q32 0 49 -18.5t17 -53.5q0 -63 -40 -118z" />
    <glyph glyph-name="Eng" unicode="&#x14a;" horiz-adv-x="721" 
d="M803 708l-5 -20q-36 -2 -54 -9t-28.5 -25t-20.5 -56l-151 -571q-24 -107 -63.5 -161t-112.5 -54q-49 0 -84 18.5t-36 56.5q0 33 22.5 54.5t61.5 21.5q34 0 55.5 -16t22.5 -44q0 -46 -56 -71q9 -3 21 -3q55 0 87 45.5t52 119.5l-308 552l-116 -436q-8 -32 -8 -48
q0 -23 15.5 -31.5t55.5 -10.5l-5 -20q-34 3 -94 3q-61 0 -94 -3l4 20q36 2 54.5 9t29 25t20.5 56l131 492q8 32 8 46q0 22 -16 30t-58 10l5 20q31 -3 89 -3q46 0 81 3l266 -485l98 375q8 34 8 49q0 23 -15.5 31t-54.5 10l5 20q35 -3 96 -3q58 0 92 3z" />
    <glyph glyph-name="eng" unicode="&#x14b;" horiz-adv-x="581" 
d="M557 452q0 -30 -13 -72l-76 -265q-34 -109 -70.5 -173t-87.5 -92q-29 -20 -65.5 -29t-69.5 -9q-50 0 -73.5 17t-20.5 48q2 27 23.5 47t51.5 20q28 0 44 -17.5t14 -40.5q-1 -15 -10.5 -31.5t-26.5 -27.5q38 5 60.5 29t38.5 79l137 480q8 30 8 44q0 22 -18 22
q-31 0 -75 -64.5t-88.5 -169t-75.5 -218.5l1 8l-9 -37h-141l122 432q6 21 6 33q0 17 -17 17q-19 0 -34 -18t-31 -61l-19 -51h-19l27 76q19 55 52 79t79 24q85 0 85 -80q0 -22 -9 -60l-36 -141q42 110 80 171t77 85.5t88 24.5q91 0 91 -79z" />
    <glyph glyph-name="Omacron" unicode="&#x14c;" horiz-adv-x="777" 
d="M99.5 455q57.5 116 161.5 191.5t234 75.5q128 0 200 -63t72 -178q0 -113 -58 -228.5t-162 -191t-234 -75.5q-128 0 -199.5 63t-71.5 177q0 113 57.5 229zM355 632q-63 -72 -102 -186t-39 -233q0 -97 30 -153t78 -56q68 0 131 72t102 186t39 233q0 97 -30 153t-78 56
q-68 0 -131 -72zM692 819h-400l6 25h400z" />
    <glyph glyph-name="omacron" unicode="&#x14d;" horiz-adv-x="529" 
d="M49.5 322q37.5 89 111 149t175.5 60q78 0 120 -42.5t42 -122.5q0 -82 -37.5 -171t-111 -149t-175.5 -60q-78 0 -120 42.5t-42 122.5q0 82 37.5 171zM250 440q-44 -71 -74 -174t-30 -192q0 -36 8 -52t26 -16q37 0 80.5 69t73.5 171.5t30 194.5q0 39 -8 54.5t-25 15.5
q-37 0 -81 -71zM547 687h-336l6 25h336z" />
    <glyph glyph-name="Obreve" unicode="&#x14e;" horiz-adv-x="777" 
d="M99.5 455q57.5 116 161.5 191.5t234 75.5q128 0 200 -63t72 -178q0 -113 -58 -228.5t-162 -191t-234 -75.5q-128 0 -199.5 63t-71.5 177q0 113 57.5 229zM355 632q-63 -72 -102 -186t-39 -233q0 -97 30 -153t78 -56q68 0 131 72t102 186t39 233q0 97 -30 153t-78 56
q-68 0 -131 -72zM741 926l11 -10q-42 -58 -115 -101.5t-144 -43.5q-66 0 -106 40t-52 104l15 7q29 -29 66.5 -41t96.5 -12q132 0 228 57z" />
    <glyph glyph-name="obreve" unicode="&#x14f;" horiz-adv-x="529" 
d="M49.5 322q37.5 89 111 149t175.5 60q78 0 120 -42.5t42 -122.5q0 -82 -37.5 -171t-111 -149t-175.5 -60q-78 0 -120 42.5t-42 122.5q0 82 37.5 171zM250 440q-44 -71 -74 -174t-30 -192q0 -36 8 -52t26 -16q37 0 80.5 69t73.5 171.5t30 194.5q0 39 -8 54.5t-25 15.5
q-37 0 -81 -71zM488 737q53 18 96 51l11 -10q-38 -63 -104.5 -110t-130.5 -47q-53 0 -84 43t-41 113l16 7q24 -35 52.5 -50t77.5 -15q54 0 107 18z" />
    <glyph glyph-name="Ohungarumlaut" unicode="&#x150;" horiz-adv-x="777" 
d="M99.5 455q57.5 116 161.5 191.5t234 75.5q128 0 200 -63t72 -178q0 -113 -58 -228.5t-162 -191t-234 -75.5q-128 0 -199.5 63t-71.5 177q0 113 57.5 229zM355 632q-63 -72 -102 -186t-39 -233q0 -97 30 -153t78 -56q68 0 131 72t102 186t39 233q0 97 -30 153t-78 56
q-68 0 -131 -72zM399 864q22 28 36 44t29 27q19 12 38 12q29 0 45 -24q7 -11 7 -25t-8.5 -28t-23.5 -24q-16 -10 -35 -18t-51 -19q-60 -21 -96 -37l-8 11q22 24 67 81zM610 864q22 28 36 44t29 27q19 12 37 12q29 0 45 -24q8 -11 8 -25t-9 -28t-23 -24q-16 -10 -35 -18
t-51 -19q-60 -21 -96 -37l-8 11q22 24 67 81z" />
    <glyph glyph-name="ohungarumlaut" unicode="&#x151;" horiz-adv-x="529" 
d="M49.5 322q37.5 89 111 149t175.5 60q78 0 120 -42.5t42 -122.5q0 -82 -37.5 -171t-111 -149t-175.5 -60q-78 0 -120 42.5t-42 122.5q0 82 37.5 171zM250 440q-44 -71 -74 -174t-30 -192q0 -36 8 -52t26 -16q37 0 80.5 69t73.5 171.5t30 194.5q0 39 -8 54.5t-25 15.5
q-37 0 -81 -71zM282 721q8 22 16.5 41.5t17.5 32.5q9 12 21.5 18.5t25.5 6.5q20 -2 36 -13q19 -17 19 -40q0 -20 -16 -39q-10 -13 -26.5 -26.5t-35.5 -27.5q-57 -41 -95 -76l-11 8q25 52 48 115zM461 723q10 28 16.5 43.5t16.5 28.5q20 25 48 25q21 -2 35 -13q19 -17 19 -40
q0 -20 -16 -39q-10 -13 -26.5 -26.5t-35.5 -27.5q-60 -46 -94 -76l-12 8q24 50 49 117z" />
    <glyph glyph-name="OE" unicode="&#x152;" horiz-adv-x="994" 
d="M1042 708q-24 -64 -38 -118q-11 -34 -13 -62h-22q7 39 7 71q0 47 -21 66.5t-67 19.5h-59q-35 0 -52.5 -5.5t-27.5 -22.5t-20 -55l-63 -236h74q28 0 47 15t30.5 37t25.5 60h22q-16 -49 -27 -95l-7 -27q-14 -52 -26 -122h-22q0 16 3 31q2 22 2 31q0 22 -11 35t-41 15h-75
l-64 -240q-9 -38 -9 -49q0 -21 14.5 -27.5t51.5 -6.5h69q48 0 79 16.5t54 54t46 106.5h22q-7 -15 -21 -72q-19 -67 -26 -128q-67 3 -222 3q-160 0 -244 -1q-53 -16 -105 -16q-124 0 -193.5 63t-69.5 177q0 113 56.5 229t158.5 191.5t230 75.5q50 0 93 -16q45 -1 145 -1h117
q138 0 199 3zM577 646q0 33 -21.5 45.5t-64.5 12.5q-72 0 -135.5 -71.5t-102 -186t-38.5 -233.5q0 -98 29.5 -153.5t79.5 -55.5q45 0 70 15.5t36 55.5l140 527q7 24 7 44z" />
    <glyph glyph-name="oe" unicode="&#x153;" horiz-adv-x="777" 
d="M682 305q-93 -61 -216 -94q-6 -34 -6 -68q0 -53 19.5 -75t57.5 -22q31 0 69 19.5t75 62.5l18 -8q-36 -56 -96.5 -95t-135.5 -39q-57 0 -98 25.5t-54 73.5q-28 -46 -68 -72.5t-88 -26.5q-72 0 -112.5 42.5t-40.5 122.5q0 79 46 167.5t128 148.5t184 60q43 0 68 -21.5
t27 -59.5q44 40 96 62.5t108 22.5q50 0 81 -21t31 -62q0 -82 -93 -143zM577.5 471q-35.5 -41 -65.5 -107t-43 -135q79 33 116 68q38 35 59 82t21 100q0 33 -24 33q-28 0 -63.5 -41zM345.5 285.5q35.5 82.5 95.5 143.5q-1 27 -15.5 43t-41.5 16q-57 0 -111 -53.5t-87.5 -138
t-33.5 -169.5q0 -89 58 -89q25 0 52.5 19t48.5 52q-1 5 -1 18q0 76 35.5 158.5z" />
    <glyph glyph-name="Racute" unicode="&#x154;" horiz-adv-x="711" 
d="M655 121h23l-4 -13q-19 -63 -55 -92.5t-98 -29.5q-61 0 -91.5 26t-30.5 71q0 13 1 19l15 114q2 24 2 33q0 46 -28.5 67.5t-102.5 23.5l-62 -234q-10 -35 -10 -49q0 -19 15 -27.5t53 -9.5l-4 -20q-60 3 -156 3q-111 0 -164 -3l4 20q36 2 54 8t28.5 23t20.5 55l131 496
q9 36 9 47q0 20 -14.5 29t-52.5 10l5 20q51 -3 151 -3l86 1q23 1 64 1q122 0 180.5 -34t58.5 -105q0 -88 -79.5 -147.5t-214.5 -74.5q91 -9 138 -33t47 -83q0 -6 -2 -22l-14 -103q-1 -8 -1 -22q0 -48 32 -48q19 0 33 17.5t28 54.5zM290 358h8q101 0 162.5 59.5t61.5 165.5
q0 54 -23 79.5t-70 25.5q-30 0 -44.5 -13.5t-24.5 -52.5zM476 843q30 28 36 33q31 29 48.5 43.5t36.5 25.5t43 11q35 0 48 -27q5 -9 5 -20q0 -17 -12 -31.5t-33 -25.5q-17 -9 -42.5 -18t-53.5 -17q-75 -20 -138 -45l-7 12q39 31 69 59z" />
    <glyph glyph-name="racute" unicode="&#x155;" horiz-adv-x="470" 
d="M476.5 508.5q21.5 -22.5 21.5 -58.5q0 -43 -27.5 -73.5t-67.5 -30.5q-29 0 -45 15.5t-16 44.5q0 35 24 63.5t59 36.5q-2 0 -6 1.5t-7 1.5q-51 0 -104 -74t-108 -264l-44 -171h-141l122 432q5 16 5 31q0 19 -16 19q-19 0 -34 -18t-31 -61l-19 -51h-19l27 76
q37 103 138 103q77 0 77 -81q0 -29 -8 -59l-8 -32q37 95 75.5 133.5t92.5 38.5q38 0 59.5 -22.5zM333 726q23 38 35.5 56.5t27.5 33.5q11 12 26 19t29 7q21 0 36 -15q14 -14 14 -30q0 -26 -29 -55q-24 -24 -83 -61q-70 -45 -120 -82l-10 10q41 59 74 117z" />
    <glyph glyph-name="Rcommaaccent" unicode="&#x156;" horiz-adv-x="711" 
d="M655 121h23l-4 -13q-19 -63 -55 -92.5t-98 -29.5q-61 0 -91.5 26t-30.5 71q0 13 1 19l15 114q2 24 2 33q0 46 -28.5 67.5t-102.5 23.5l-62 -234q-10 -35 -10 -49q0 -19 15 -27.5t53 -9.5l-4 -20q-60 3 -156 3q-111 0 -164 -3l4 20q36 2 54 8t28.5 23t20.5 55l131 496
q9 36 9 47q0 20 -14.5 29t-52.5 10l5 20q51 -3 151 -3l86 1q23 1 64 1q122 0 180.5 -34t58.5 -105q0 -88 -79.5 -147.5t-214.5 -74.5q91 -9 138 -33t47 -83q0 -6 -2 -22l-14 -103q-1 -8 -1 -22q0 -48 32 -48q19 0 33 17.5t28 54.5zM290 358h8q101 0 162.5 59.5t61.5 165.5
q0 54 -23 79.5t-70 25.5q-30 0 -44.5 -13.5t-24.5 -52.5zM354 -69q20 -16 20 -45q0 -50 -36 -84t-102 -43l-2 19q39 4 66.5 19.5t32.5 38.5q-24 -17 -57 -17q-60 0 -60 49q0 33 25.5 56t64.5 23q28 0 48 -16z" />
    <glyph glyph-name="rcommaaccent" unicode="&#x157;" horiz-adv-x="470" 
d="M476.5 508.5q21.5 -22.5 21.5 -58.5q0 -43 -27.5 -73.5t-67.5 -30.5q-29 0 -45 15.5t-16 44.5q0 35 24 63.5t59 36.5q-2 0 -6 1.5t-7 1.5q-51 0 -104 -74t-108 -264l-44 -171h-141l122 432q5 16 5 31q0 19 -16 19q-19 0 -34 -18t-31 -61l-19 -51h-19l27 76
q37 103 138 103q77 0 77 -81q0 -29 -8 -59l-8 -32q37 95 75.5 133.5t92.5 38.5q38 0 59.5 -22.5zM116 -69q20 -16 20 -45q0 -50 -36 -84t-102 -43l-2 19q39 4 66.5 19.5t32.5 38.5q-24 -17 -57 -17q-60 0 -60 49q0 33 25.5 56t64.5 23q28 0 48 -16z" />
    <glyph glyph-name="Rcaron" unicode="&#x158;" horiz-adv-x="711" 
d="M655 121h23l-4 -13q-19 -63 -55 -92.5t-98 -29.5q-61 0 -91.5 26t-30.5 71q0 13 1 19l15 114q2 24 2 33q0 46 -28.5 67.5t-102.5 23.5l-62 -234q-10 -35 -10 -49q0 -19 15 -27.5t53 -9.5l-4 -20q-60 3 -156 3q-111 0 -164 -3l4 20q36 2 54 8t28.5 23t20.5 55l131 496
q9 36 9 47q0 20 -14.5 29t-52.5 10l5 20q51 -3 151 -3l86 1q23 1 64 1q122 0 180.5 -34t58.5 -105q0 -88 -79.5 -147.5t-214.5 -74.5q91 -9 138 -33t47 -83q0 -6 -2 -22l-14 -103q-1 -8 -1 -22q0 -48 32 -48q19 0 33 17.5t28 54.5zM290 358h8q101 0 162.5 59.5t61.5 165.5
q0 54 -23 79.5t-70 25.5q-30 0 -44.5 -13.5t-24.5 -52.5zM703 937l5 -14q-83 -26 -155 -67.5t-116 -87.5h-18q-23 56 -54.5 92.5t-84.5 62.5l4 14q65 -11 108 -24.5t94 -34.5q105 38 217 59z" />
    <glyph glyph-name="rcaron" unicode="&#x159;" horiz-adv-x="470" 
d="M476.5 508.5q21.5 -22.5 21.5 -58.5q0 -43 -27.5 -73.5t-67.5 -30.5q-29 0 -45 15.5t-16 44.5q0 35 24 63.5t59 36.5q-2 0 -6 1.5t-7 1.5q-51 0 -104 -74t-108 -264l-44 -171h-141l122 432q5 16 5 31q0 19 -16 19q-19 0 -34 -18t-31 -61l-19 -51h-19l27 76
q37 103 138 103q77 0 77 -81q0 -29 -8 -59l-8 -32q37 95 75.5 133.5t92.5 38.5q38 0 59.5 -22.5zM554 820l5 -14q-72 -32 -135.5 -84.5t-103.5 -111.5h-18q-14 71 -41 116.5t-78 79.5l4 14q62 -13 104.5 -31t81.5 -43q85 47 181 74z" />
    <glyph glyph-name="Sacute" unicode="&#x15a;" horiz-adv-x="587" 
d="M561 511h-20q6 29 6 56q0 60 -37 95.5t-106 35.5q-54 0 -87.5 -27t-33.5 -82q0 -46 27.5 -86.5t83.5 -100.5q42 -44 66 -74t41 -66t17 -76q0 -67 -43 -112t-106.5 -66.5t-126.5 -21.5q-64 0 -99 11t-74 35q-22 15 -35 15t-20.5 -10.5t-21.5 -43.5h-20q16 38 31.5 91.5
t36.5 148.5h20q-9 -38 -9 -71q0 -75 41.5 -114.5t121.5 -39.5q129 0 129 105q0 56 -26.5 100.5t-79.5 102.5q-36 41 -57 68.5t-35.5 62.5t-14.5 75q0 64 36.5 109.5t93.5 68t116 22.5q52 0 89 -12t69 -32q26 -16 33 -16q8 0 15.5 12.5t17.5 40.5h20q-38 -96 -59 -204z
M455 843q30 28 36 33q31 29 48.5 43.5t36.5 25.5t43 11q35 0 48 -27q5 -9 5 -20q0 -17 -12 -31.5t-33 -25.5q-17 -9 -42.5 -18t-53.5 -17q-75 -20 -138 -45l-7 12q39 31 69 59z" />
    <glyph glyph-name="sacute" unicode="&#x15b;" horiz-adv-x="420" 
d="M113 7q38 0 61 23t23 63q0 32 -14 66t-42 77q-4 6 -23.5 36t-29 57.5t-9.5 54.5q0 65 48.5 106t133.5 41q65 0 108.5 -23.5t43.5 -80.5q0 -28 -16 -51t-45 -23q-25 0 -40 19t-15 48q0 25 9 46.5t22 36.5q-13 8 -35 8q-36 0 -56.5 -22.5t-21.5 -62.5q0 -27 10.5 -49
t35.5 -62l14 -21q32 -53 45.5 -87t13.5 -68q0 -44 -23 -78.5t-65.5 -54.5t-99.5 -20q-71 0 -118 27.5t-47 88.5q0 30 15 51t41 21t41.5 -22t15.5 -56q0 -22 -5 -39.5t-15 -42.5q15 -7 39 -7zM314 726q23 38 35.5 56.5t27.5 33.5q11 12 26 19t29 7q21 0 36 -15q14 -14 14 -30
q0 -26 -29 -55q-24 -24 -83 -61q-70 -45 -120 -82l-10 10q41 59 74 117z" />
    <glyph glyph-name="Scircumflex" unicode="&#x15c;" horiz-adv-x="587" 
d="M561 511h-20q6 29 6 56q0 60 -37 95.5t-106 35.5q-54 0 -87.5 -27t-33.5 -82q0 -46 27.5 -86.5t83.5 -100.5q42 -44 66 -74t41 -66t17 -76q0 -67 -43 -112t-106.5 -66.5t-126.5 -21.5q-64 0 -99 11t-74 35q-22 15 -35 15t-20.5 -10.5t-21.5 -43.5h-20q16 38 31.5 91.5
t36.5 148.5h20q-9 -38 -9 -71q0 -75 41.5 -114.5t121.5 -39.5q129 0 129 105q0 56 -26.5 100.5t-79.5 102.5q-36 41 -57 68.5t-35.5 62.5t-14.5 75q0 64 36.5 109.5t93.5 68t116 22.5q52 0 89 -12t69 -32q26 -16 33 -16q8 0 15.5 12.5t17.5 40.5h20q-38 -96 -59 -204z
M189 771l-5 14q83 26 155 67.5t116 87.5h18q23 -56 54.5 -92.5t84.5 -62.5l-4 -14q-65 11 -108.5 24.5t-92.5 34.5q-104 -38 -218 -59z" />
    <glyph glyph-name="scircumflex" unicode="&#x15d;" horiz-adv-x="420" 
d="M113 7q38 0 61 23t23 63q0 32 -14 66t-42 77q-4 6 -23.5 36t-29 57.5t-9.5 54.5q0 65 48.5 106t133.5 41q65 0 108.5 -23.5t43.5 -80.5q0 -28 -16 -51t-45 -23q-25 0 -40 19t-15 48q0 25 9 46.5t22 36.5q-13 8 -35 8q-36 0 -56.5 -22.5t-21.5 -62.5q0 -27 10.5 -49
t35.5 -62l14 -21q32 -53 45.5 -87t13.5 -68q0 -44 -23 -78.5t-65.5 -54.5t-99.5 -20q-71 0 -118 27.5t-47 88.5q0 30 15 51t41 21t41.5 -22t15.5 -56q0 -22 -5 -39.5t-15 -42.5q15 -7 39 -7zM105 610l-5 14q72 31 135.5 84t103.5 112h18q14 -71 41 -116.5t78 -79.5l-4 -14
q-62 13 -104.5 31t-81.5 43q-81 -46 -181 -74z" />
    <glyph glyph-name="Scedilla" unicode="&#x15e;" horiz-adv-x="587" 
d="M561 511h-20q6 29 6 56q0 60 -37 95.5t-106 35.5q-54 0 -87.5 -27t-33.5 -82q0 -46 27.5 -86.5t83.5 -100.5q42 -44 66 -74t41 -66t17 -76q0 -67 -43 -112t-106.5 -66.5t-126.5 -21.5q-64 0 -99 11t-74 35q-22 15 -35 15t-20.5 -10.5t-21.5 -43.5h-20q16 38 31.5 91.5
t36.5 148.5h20q-9 -38 -9 -71q0 -75 41.5 -114.5t121.5 -39.5q129 0 129 105q0 56 -26.5 100.5t-79.5 102.5q-36 41 -57 68.5t-35.5 62.5t-14.5 75q0 64 36.5 109.5t93.5 68t116 22.5q52 0 89 -12t69 -32q26 -16 33 -16q8 0 15.5 12.5t17.5 40.5h20q-38 -96 -59 -204z
M213 -63q28 10 58 10q31 0 49 -12.5t18 -35.5q0 -44 -51.5 -65.5t-118.5 -21.5q-34 0 -63 6t-46 14l6 15q40 -11 81 -11q33 0 61.5 10t28.5 36q0 23 -32 23q-18 0 -35 -7l48 108h27z" />
    <glyph glyph-name="scedilla" unicode="&#x15f;" horiz-adv-x="420" 
d="M113 7q38 0 61 23t23 63q0 32 -14 66t-42 77q-4 6 -23.5 36t-29 57.5t-9.5 54.5q0 65 48.5 106t133.5 41q65 0 108.5 -23.5t43.5 -80.5q0 -28 -16 -51t-45 -23q-25 0 -40 19t-15 48q0 25 9 46.5t22 36.5q-13 8 -35 8q-36 0 -56.5 -22.5t-21.5 -62.5q0 -27 10.5 -49
t35.5 -62l14 -21q32 -53 45.5 -87t13.5 -68q0 -44 -23 -78.5t-65.5 -54.5t-99.5 -20q-71 0 -118 27.5t-47 88.5q0 30 15 51t41 21t41.5 -22t15.5 -56q0 -22 -5 -39.5t-15 -42.5q15 -7 39 -7zM102 -69q30 10 54 10q27 0 43.5 -11t16.5 -31q0 -44 -49.5 -65.5t-114.5 -21.5
q-28 0 -52 6t-37 14l6 15q2 -1 18.5 -6t42.5 -5q27 0 52.5 10t25.5 36q0 11 -7.5 17t-20.5 6q-17 0 -31 -7l69 102h28z" />
    <glyph glyph-name="Scaron" unicode="&#x160;" horiz-adv-x="587" 
d="M561 511h-20q6 29 6 56q0 60 -37 95.5t-106 35.5q-54 0 -87.5 -27t-33.5 -82q0 -46 27.5 -86.5t83.5 -100.5q42 -44 66 -74t41 -66t17 -76q0 -67 -43 -112t-106.5 -66.5t-126.5 -21.5q-64 0 -99 11t-74 35q-22 15 -35 15t-20.5 -10.5t-21.5 -43.5h-20q16 38 31.5 91.5
t36.5 148.5h20q-9 -38 -9 -71q0 -75 41.5 -114.5t121.5 -39.5q129 0 129 105q0 56 -26.5 100.5t-79.5 102.5q-36 41 -57 68.5t-35.5 62.5t-14.5 75q0 64 36.5 109.5t93.5 68t116 22.5q52 0 89 -12t69 -32q26 -16 33 -16q8 0 15.5 12.5t17.5 40.5h20q-38 -96 -59 -204z
M682 937l5 -14q-83 -26 -155 -67.5t-116 -87.5h-18q-23 56 -54.5 92.5t-84.5 62.5l4 14q65 -11 108 -24.5t94 -34.5q105 38 217 59z" />
    <glyph glyph-name="scaron" unicode="&#x161;" horiz-adv-x="420" 
d="M113 7q38 0 61 23t23 63q0 32 -14 66t-42 77q-4 6 -23.5 36t-29 57.5t-9.5 54.5q0 65 48.5 106t133.5 41q65 0 108.5 -23.5t43.5 -80.5q0 -28 -16 -51t-45 -23q-25 0 -40 19t-15 48q0 25 9 46.5t22 36.5q-13 8 -35 8q-36 0 -56.5 -22.5t-21.5 -62.5q0 -27 10.5 -49
t35.5 -62l14 -21q32 -53 45.5 -87t13.5 -68q0 -44 -23 -78.5t-65.5 -54.5t-99.5 -20q-71 0 -118 27.5t-47 88.5q0 30 15 51t41 21t41.5 -22t15.5 -56q0 -22 -5 -39.5t-15 -42.5q15 -7 39 -7zM535 820l5 -14q-72 -32 -135.5 -84.5t-103.5 -111.5h-18q-14 71 -41 116.5
t-78 79.5l4 14q62 -13 104.5 -31t81.5 -43q85 47 181 74z" />
    <glyph glyph-name="uni0162" unicode="&#x162;" horiz-adv-x="681" 
d="M837 837.5q21 -20.5 21 -49.5q0 -61 -69 -95q-61 -29 -167 -29q-18 0 -58 2l-147 -550q-8 -30 -8 -46q0 -26 18.5 -37t64.5 -13l-4 -20q-63 3 -185 3q-119 0 -176 -3l4 20q43 2 66.5 10.5t37 28t23.5 57.5l151 565q-75 7 -120 7q-83 0 -113 -17q26 -8 43 -29.5t17 -51.5
q0 -35 -22 -59.5t-56 -24.5q-33 0 -52.5 22.5t-19.5 56.5q0 28 15.5 54t49.5 43q49 24 134 24q66 0 186 -12q110 -10 160 -10q67 0 106 13q-15 14 -25 34.5t-10 44.5q0 36 21.5 59t57.5 23q35 0 56 -20.5zM288 -63q28 10 58 10q31 0 49 -12.5t18 -35.5q0 -44 -51.5 -65.5
t-118.5 -21.5q-34 0 -63 6t-46 14l6 15q40 -11 81 -11q33 0 61.5 10t28.5 36q0 23 -32 23q-18 0 -35 -7l48 108h27z" />
    <glyph glyph-name="uni0163" unicode="&#x163;" horiz-adv-x="353" 
d="M164 85q-3 -10 -3 -20q0 -15 8 -22.5t22 -7.5q22 0 42.5 21.5t36.5 64.5l15 41h19l-20 -58q-39 -118 -150 -118q-51 0 -76.5 26.5t-25.5 72.5q0 29 9 60l101 352h-90l5 20h91l43 149q85 1 145 14l-47 -163h113l-3 -20h-116zM79 -69q30 10 54 10q27 0 43.5 -11t16.5 -31
q0 -44 -49.5 -65.5t-114.5 -21.5q-28 0 -52 6t-37 14l6 15q2 -1 18.5 -6t42.5 -5q27 0 52.5 10t25.5 36q0 11 -7.5 17t-20.5 6q-17 0 -31 -7l69 102h28z" />
    <glyph glyph-name="Tcaron" unicode="&#x164;" horiz-adv-x="681" 
d="M837 837.5q21 -20.5 21 -49.5q0 -61 -69 -95q-61 -29 -167 -29q-18 0 -58 2l-147 -550q-8 -30 -8 -46q0 -26 18.5 -37t64.5 -13l-4 -20q-63 3 -185 3q-119 0 -176 -3l4 20q43 2 66.5 10.5t37 28t23.5 57.5l151 565q-75 7 -120 7q-83 0 -113 -17q26 -8 43 -29.5t17 -51.5
q0 -35 -22 -59.5t-56 -24.5q-33 0 -52.5 22.5t-19.5 56.5q0 28 15.5 54t49.5 43q49 24 134 24q66 0 186 -12q110 -10 160 -10q67 0 106 13q-15 14 -25 34.5t-10 44.5q0 36 21.5 59t57.5 23q35 0 56 -20.5zM762 937l5 -14q-83 -26 -155 -67.5t-116 -87.5h-18
q-23 56 -54.5 92.5t-84.5 62.5l4 14q65 -11 108 -24.5t94 -34.5q105 38 217 59z" />
    <glyph glyph-name="tcaron" unicode="&#x165;" horiz-adv-x="353" 
d="M164 85q-3 -10 -3 -20q0 -15 8 -22.5t22 -7.5q22 0 42.5 21.5t36.5 64.5l15 41h19l-20 -58q-39 -118 -150 -118q-51 0 -76.5 26.5t-25.5 72.5q0 29 9 60l101 352h-90l5 20h91l43 149q85 1 145 14l-47 -163h113l-3 -20h-116zM404 678.5q15 51.5 15 74.5q0 19 -13 19l3 21
l28 -1q48 0 96 12q1 -2 1 -10q0 -38 -43 -101t-119 -137l-14 4q31 67 46 118.5z" />
    <glyph glyph-name="Tbar" unicode="&#x166;" horiz-adv-x="681" 
d="M837 837.5q21 -20.5 21 -49.5q0 -61 -69 -95q-61 -29 -167 -29q-18 0 -58 2l-147 -550q-8 -30 -8 -46q0 -26 18.5 -37t64.5 -13l-4 -20q-63 3 -185 3q-119 0 -176 -3l4 20q43 2 66.5 10.5t37 28t23.5 57.5l151 565q-75 7 -120 7q-83 0 -113 -17q26 -8 43 -29.5t17 -51.5
q0 -35 -22 -59.5t-56 -24.5q-33 0 -52.5 22.5t-19.5 56.5q0 28 15.5 54t49.5 43q49 24 134 24q66 0 186 -12q110 -10 160 -10q67 0 106 13q-15 14 -25 34.5t-10 44.5q0 36 21.5 59t57.5 23q35 0 56 -20.5zM602 341h-424l6 25h424z" />
    <glyph glyph-name="tbar" unicode="&#x167;" horiz-adv-x="353" 
d="M283 497l-22 -76h119l-3 -20h-122l-91 -316q-3 -10 -3 -20q0 -15 8 -22.5t22 -7.5q22 0 42.5 21.5t36.5 64.5l15 41h19l-20 -58q-39 -118 -150 -118q-51 0 -76.5 26.5t-25.5 72.5q0 29 9 60l74 256h-84l5 20h84l22 76h-90l5 20h91l43 149q85 1 145 14l-47 -163h113
l-3 -20h-116z" />
    <glyph glyph-name="Utilde" unicode="&#x168;" horiz-adv-x="694" 
d="M659 629q0 29 -17 41.5t-59 17.5l5 20q37 -3 107 -3q55 0 88 3l-5 -20q-34 -5 -53 -17t-31.5 -38t-25.5 -77l-68 -265q-36 -138 -98 -212q-37 -43 -90.5 -68t-114.5 -25q-73 0 -122 20.5t-73 58.5q-27 39 -27 93q0 48 22 130l83 314q8 34 8 48q0 22 -14.5 29t-52.5 9
l6 20q51 -3 165 -3q93 0 155 3l-6 -20q-37 -2 -54.5 -8t-28 -23t-20.5 -55l-88 -331q-24 -88 -24 -146q0 -52 22 -78t68 -26q105 0 165.5 68t92.5 191l69 264q16 59 16 85zM516.5 916.5q23.5 -10.5 51.5 -29.5q24 -17 40.5 -25t39.5 -8q22 0 40.5 13.5t36.5 44.5l18 -5
q-27 -70 -72 -104.5t-94 -34.5q-36 0 -59 10.5t-52 30.5q-24 16 -40 24t-39 8q-22 0 -40.5 -13.5t-36.5 -44.5l-18 5q27 70 71.5 104.5t94.5 34.5q35 0 58.5 -10.5z" />
    <glyph glyph-name="utilde" unicode="&#x169;" horiz-adv-x="597" 
d="M536 165h19l-27 -76q-19 -55 -54.5 -79t-79.5 -24q-27 0 -46 9t-28 25q-9 18 -9 41t10 65l27 103q-39 -94 -75 -147t-73 -74.5t-83 -21.5q-45 0 -67.5 21t-22.5 61q0 31 13 69l97 295q6 18 6 29q0 21 -19 21q-16 0 -31.5 -17t-31.5 -62l-18 -48h-19l25 73q36 103 134 103
q91 0 91 -83q0 -31 -14 -76l-90 -270q-9 -27 -9 -43q0 -23 19 -23q30 0 71 59t82.5 156.5t73.5 209.5l15 56q89 2 145 14l-125 -446q-6 -21 -6 -33q0 -17 17 -17q19 0 34 18t30 61zM377 775.5q19 -10.5 41 -30.5q18 -16 31.5 -24t31.5 -8q20 0 37 13.5t34 44.5l18 -5
q-26 -70 -67 -104.5t-87 -34.5q-29 0 -48 10.5t-41 30.5q-18 16 -31.5 24t-31.5 8q-39 0 -71 -58l-18 5q26 70 67.5 104.5t86.5 34.5q29 0 48 -10.5z" />
    <glyph glyph-name="Umacron" unicode="&#x16a;" horiz-adv-x="694" 
d="M659 629q0 29 -17 41.5t-59 17.5l5 20q37 -3 107 -3q55 0 88 3l-5 -20q-34 -5 -53 -17t-31.5 -38t-25.5 -77l-68 -265q-36 -138 -98 -212q-37 -43 -90.5 -68t-114.5 -25q-73 0 -122 20.5t-73 58.5q-27 39 -27 93q0 48 22 130l83 314q8 34 8 48q0 22 -14.5 29t-52.5 9
l6 20q51 -3 165 -3q93 0 155 3l-6 -20q-37 -2 -54.5 -8t-28 -23t-20.5 -55l-88 -331q-24 -88 -24 -146q0 -52 22 -78t68 -26q105 0 165.5 68t92.5 191l69 264q16 59 16 85zM689 819h-400l6 25h400z" />
    <glyph glyph-name="umacron" unicode="&#x16b;" horiz-adv-x="597" 
d="M536 165h19l-27 -76q-19 -55 -54.5 -79t-79.5 -24q-27 0 -46 9t-28 25q-9 18 -9 41t10 65l27 103q-39 -94 -75 -147t-73 -74.5t-83 -21.5q-45 0 -67.5 21t-22.5 61q0 31 13 69l97 295q6 18 6 29q0 21 -19 21q-16 0 -31.5 -17t-31.5 -62l-18 -48h-19l25 73q36 103 134 103
q91 0 91 -83q0 -31 -14 -76l-90 -270q-9 -27 -9 -43q0 -23 19 -23q30 0 71 59t82.5 156.5t73.5 209.5l15 56q89 2 145 14l-125 -446q-6 -21 -6 -33q0 -17 17 -17q19 0 34 18t30 61zM539 687h-336l6 25h336z" />
    <glyph glyph-name="Ubreve" unicode="&#x16c;" horiz-adv-x="694" 
d="M659 629q0 29 -17 41.5t-59 17.5l5 20q37 -3 107 -3q55 0 88 3l-5 -20q-34 -5 -53 -17t-31.5 -38t-25.5 -77l-68 -265q-36 -138 -98 -212q-37 -43 -90.5 -68t-114.5 -25q-73 0 -122 20.5t-73 58.5q-27 39 -27 93q0 48 22 130l83 314q8 34 8 48q0 22 -14.5 29t-52.5 9
l6 20q51 -3 165 -3q93 0 155 3l-6 -20q-37 -2 -54.5 -8t-28 -23t-20.5 -55l-88 -331q-24 -88 -24 -146q0 -52 22 -78t68 -26q105 0 165.5 68t92.5 191l69 264q16 59 16 85zM738 926l11 -10q-42 -58 -115 -101.5t-144 -43.5q-66 0 -106 40t-52 104l15 7q29 -29 66.5 -41
t96.5 -12q132 0 228 57z" />
    <glyph glyph-name="ubreve" unicode="&#x16d;" horiz-adv-x="597" 
d="M536 165h19l-27 -76q-19 -55 -54.5 -79t-79.5 -24q-27 0 -46 9t-28 25q-9 18 -9 41t10 65l27 103q-39 -94 -75 -147t-73 -74.5t-83 -21.5q-45 0 -67.5 21t-22.5 61q0 31 13 69l97 295q6 18 6 29q0 21 -19 21q-16 0 -31.5 -17t-31.5 -62l-18 -48h-19l25 73q36 103 134 103
q91 0 91 -83q0 -31 -14 -76l-90 -270q-9 -27 -9 -43q0 -23 19 -23q30 0 71 59t82.5 156.5t73.5 209.5l15 56q89 2 145 14l-125 -446q-6 -21 -6 -33q0 -17 17 -17q19 0 34 18t30 61zM480 737q53 18 96 51l11 -10q-38 -63 -104.5 -110t-130.5 -47q-53 0 -84 43t-41 113l16 7
q24 -35 52.5 -50t77.5 -15q54 0 107 18z" />
    <glyph glyph-name="Uring" unicode="&#x16e;" horiz-adv-x="694" 
d="M659 629q0 29 -17 41.5t-59 17.5l5 20q37 -3 107 -3q55 0 88 3l-5 -20q-34 -5 -53 -17t-31.5 -38t-25.5 -77l-68 -265q-36 -138 -98 -212q-37 -43 -90.5 -68t-114.5 -25q-73 0 -122 20.5t-73 58.5q-27 39 -27 93q0 48 22 130l83 314q8 34 8 48q0 22 -14.5 29t-52.5 9
l6 20q51 -3 165 -3q93 0 155 3l-6 -20q-37 -2 -54.5 -8t-28 -23t-20.5 -55l-88 -331q-24 -88 -24 -146q0 -52 22 -78t68 -26q105 0 165.5 68t92.5 191l69 264q16 59 16 85zM588 913.5q28 -23.5 28 -61.5q0 -30 -17.5 -55t-46 -40t-60.5 -15q-42 0 -68.5 23t-26.5 63
q0 46 35 77.5t86 31.5q42 0 70 -23.5zM561.5 788.5q28.5 25.5 28.5 62.5q0 31 -22.5 48t-52.5 17q-37 0 -64 -26.5t-27 -61.5q0 -30 21.5 -47.5t50.5 -17.5q37 0 65.5 25.5z" />
    <glyph glyph-name="uring" unicode="&#x16f;" horiz-adv-x="597" 
d="M536 165h19l-27 -76q-19 -55 -54.5 -79t-79.5 -24q-27 0 -46 9t-28 25q-9 18 -9 41t10 65l27 103q-39 -94 -75 -147t-73 -74.5t-83 -21.5q-45 0 -67.5 21t-22.5 61q0 31 13 69l97 295q6 18 6 29q0 21 -19 21q-16 0 -31.5 -17t-31.5 -62l-18 -48h-19l25 73q36 103 134 103
q91 0 91 -83q0 -31 -14 -76l-90 -270q-9 -27 -9 -43q0 -23 19 -23q30 0 71 59t82.5 156.5t73.5 209.5l15 56q89 2 145 14l-125 -446q-6 -21 -6 -33q0 -17 17 -17q19 0 34 18t30 61zM463.5 773.5q27.5 -23.5 27.5 -61.5q0 -30 -17.5 -55t-46 -40t-60.5 -15q-42 0 -68.5 23
t-26.5 63q0 46 35 77.5t86 31.5q43 0 70.5 -23.5zM436.5 648.5q28.5 25.5 28.5 62.5q0 31 -22.5 48t-52.5 17q-37 0 -64 -26.5t-27 -61.5q0 -30 21.5 -47.5t50.5 -17.5q37 0 65.5 25.5z" />
    <glyph glyph-name="Uhungarumlaut" unicode="&#x170;" horiz-adv-x="694" 
d="M659 629q0 29 -17 41.5t-59 17.5l5 20q37 -3 107 -3q55 0 88 3l-5 -20q-34 -5 -53 -17t-31.5 -38t-25.5 -77l-68 -265q-36 -138 -98 -212q-37 -43 -90.5 -68t-114.5 -25q-73 0 -122 20.5t-73 58.5q-27 39 -27 93q0 48 22 130l83 314q8 34 8 48q0 22 -14.5 29t-52.5 9
l6 20q51 -3 165 -3q93 0 155 3l-6 -20q-37 -2 -54.5 -8t-28 -23t-20.5 -55l-88 -331q-24 -88 -24 -146q0 -52 22 -78t68 -26q105 0 165.5 68t92.5 191l69 264q16 59 16 85zM396 864q22 28 36 44t29 27q19 12 38 12q29 0 45 -24q7 -11 7 -25t-8.5 -28t-23.5 -24
q-16 -10 -35 -18t-51 -19q-60 -21 -96 -37l-8 11q22 24 67 81zM607 864q22 28 36 44t29 27q19 12 37 12q29 0 45 -24q8 -11 8 -25t-9 -28t-23 -24q-16 -10 -35 -18t-51 -19q-60 -21 -96 -37l-8 11q22 24 67 81z" />
    <glyph glyph-name="uhungarumlaut" unicode="&#x171;" horiz-adv-x="597" 
d="M536 165h19l-27 -76q-19 -55 -54.5 -79t-79.5 -24q-27 0 -46 9t-28 25q-9 18 -9 41t10 65l27 103q-39 -94 -75 -147t-73 -74.5t-83 -21.5q-45 0 -67.5 21t-22.5 61q0 31 13 69l97 295q6 18 6 29q0 21 -19 21q-16 0 -31.5 -17t-31.5 -62l-18 -48h-19l25 73q36 103 134 103
q91 0 91 -83q0 -31 -14 -76l-90 -270q-9 -27 -9 -43q0 -23 19 -23q30 0 71 59t82.5 156.5t73.5 209.5l15 56q89 2 145 14l-125 -446q-6 -21 -6 -33q0 -17 17 -17q19 0 34 18t30 61zM274 721q8 22 16.5 41.5t17.5 32.5q9 12 21.5 18.5t25.5 6.5q20 -2 36 -13q19 -17 19 -40
q0 -20 -16 -39q-10 -13 -26.5 -26.5t-35.5 -27.5q-57 -41 -95 -76l-11 8q25 52 48 115zM453 723q10 28 16.5 43.5t16.5 28.5q20 25 48 25q21 -2 35 -13q19 -17 19 -40q0 -20 -16 -39q-10 -13 -26.5 -26.5t-35.5 -27.5q-60 -46 -94 -76l-12 8q24 50 49 117z" />
    <glyph glyph-name="Uogonek" unicode="&#x172;" horiz-adv-x="694" 
d="M659 629q0 29 -17 41.5t-59 17.5l5 20q37 -3 107 -3q55 0 88 3l-5 -20q-34 -5 -53 -17t-31.5 -38t-25.5 -77l-68 -265q-36 -138 -98 -212q-37 -43 -90.5 -68t-114.5 -25q-73 0 -122 20.5t-73 58.5q-27 39 -27 93q0 48 22 130l83 314q8 34 8 48q0 22 -14.5 29t-52.5 9
l6 20q51 -3 165 -3q93 0 155 3l-6 -20q-37 -2 -54.5 -8t-28 -23t-20.5 -55l-88 -331q-24 -88 -24 -146q0 -52 22 -78t68 -26q105 0 165.5 68t92.5 191l69 264q16 59 16 85zM314.5 -44.5q-29.5 -30.5 -29.5 -63.5q0 -30 33 -30q34 0 73 22l11 -17q-68 -55 -145 -55
q-40 0 -62.5 16t-22.5 44q0 44 56 77.5t136 53.5h26q-46 -17 -75.5 -47.5z" />
    <glyph glyph-name="uogonek" unicode="&#x173;" horiz-adv-x="597" 
d="M536 165h19l-27 -76q-19 -55 -54.5 -79t-79.5 -24q-27 0 -46 9t-28 25q-9 18 -9 41t10 65l27 103q-39 -94 -75 -147t-73 -74.5t-83 -21.5q-45 0 -67.5 21t-22.5 61q0 31 13 69l97 295q6 18 6 29q0 21 -19 21q-16 0 -31.5 -17t-31.5 -62l-18 -48h-19l25 73q36 103 134 103
q91 0 91 -83q0 -31 -14 -76l-90 -270q-9 -27 -9 -43q0 -23 19 -23q30 0 71 59t82.5 156.5t73.5 209.5l15 56q89 2 145 14l-125 -446q-6 -21 -6 -33q0 -17 17 -17q19 0 34 18t30 61zM384 -44q-30 -31 -30 -65q0 -14 7.5 -21.5t21.5 -7.5q15 0 32.5 8.5t30.5 21.5l13 -12
q-56 -68 -134 -68q-39 0 -61.5 16t-22.5 44q0 44 56 77.5t136 53.5h26q-45 -16 -75 -47z" />
    <glyph glyph-name="Wcircumflex" unicode="&#x174;" horiz-adv-x="982" 
d="M1091 708l-5 -20q-35 -10 -62 -31.5t-56 -74.5l-315 -587h-52l-62 446l-269 -446h-52l-79 629q-4 34 -19 48.5t-34 15.5l5 20q49 -3 140 -3q85 0 130 3l-5 -20q-29 -2 -41 -14t-12 -45q0 -16 1 -25l48 -434l183 301l-21 153q-4 33 -16 48t-27 16l5 20q47 -3 130 -3
q104 0 156 3l-5 -20q-45 -2 -62.5 -13.5t-17.5 -43.5q0 -7 2 -27l53 -418l206 379q25 47 25 74q0 25 -20.5 36t-63.5 13l5 20q41 -3 131 -3q45 0 76 3zM415 769l-5 14q83 26 155 67.5t116 87.5h18q23 -56 54.5 -92.5t84.5 -62.5l-4 -14q-65 11 -108.5 24.5t-92.5 34.5
q-104 -38 -218 -59z" />
    <glyph glyph-name="wcircumflex" unicode="&#x175;" horiz-adv-x="680" 
d="M629 318q0 -81 -26.5 -157.5t-79 -125.5t-126.5 -49q-80 0 -114 55q-63 -55 -147 -55q-65 0 -99.5 34.5t-34.5 87.5q0 59 43 119.5t111 119.5t179 142q-25 -4 -45.5 -15.5t-46.5 -30.5q-22 -17 -37 -25.5t-31 -8.5q-14 0 -32 10q-14 9 -26 9q-13 0 -22 -11t-17 -37
l-9 -27h-19l22 73q18 57 42 79.5t53 22.5q12 0 22 -3t24 -10q3 -1 15 -6t25.5 -7.5t27.5 -2.5q41 0 77 21l11 19l21 -10q-104 -106 -169.5 -219.5t-65.5 -205.5q0 -38 12 -56t39 -18q35 0 70 26q-12 27 -12 67q0 58 26.5 113t65 89t69.5 34q38 0 38 -66q0 -54 -21.5 -105
t-64.5 -95q25 -46 76 -46q50 0 85 39.5t52 100t17 121.5q0 22 -1 32q-56 22 -93.5 53t-37.5 80q0 24 16 41t43 17q46 0 67.5 -53t25.5 -121q2 -26 2 -39zM395 313q-15 -24 -25 -62.5t-10 -78.5q0 -33 9 -60q33 38 52 85t19 93q0 47 -17 47q-13 0 -28 -24zM215 610l-5 14
q72 31 135.5 84t103.5 112h18q14 -71 41 -116.5t78 -79.5l-4 -14q-62 13 -104.5 31t-81.5 43q-81 -46 -181 -74z" />
    <glyph glyph-name="Ycircumflex" unicode="&#x176;" horiz-adv-x="734" 
d="M790 697.5q25 -24.5 25 -61.5q0 -38 -25.5 -64t-65.5 -26q-33 0 -51 16.5t-18 44.5q1 33 22 57.5t54 34.5q-5 4 -17 4q-30 0 -60 -23q-45 -32 -102 -123.5t-103 -225.5l-57 -225q-6 -24 -6 -40q0 -26 17 -35t60 -11l-5 -20q-57 3 -172 3q-108 0 -161 -3l5 20q36 2 54 8
t29 23.5t20 54.5l54 215q-16 137 -44 232t-71 95q-17 0 -27.5 -12t-18.5 -35l-21 -63h-22l25 77q19 57 54.5 82t86.5 25q65 0 102.5 -40.5t56 -115t32.5 -201.5q33 94 75 169t89 126q57 62 118 62q43 0 68 -24.5zM270 771l-5 14q83 26 155 67.5t116 87.5h18
q23 -56 54.5 -92.5t84.5 -62.5l-4 -14q-65 11 -108.5 24.5t-92.5 34.5q-104 -38 -218 -59z" />
    <glyph glyph-name="ycircumflex" unicode="&#x177;" horiz-adv-x="482" 
d="M468 440q0 -90 -58 -214.5t-139 -221.5q-51 -61 -112.5 -108t-126.5 -69q-40 -15 -71 -15q-32 0 -50.5 15t-18.5 41q0 27 19.5 44.5t49.5 17.5q59 0 107 -69q72 35 130 92l-78 478q-5 28 -10.5 37.5t-15.5 9.5q-11 0 -21 -15t-26 -59l-18 -49h-19l25 73q20 57 50.5 80
t72.5 23q43 0 67 -24t33 -84l46 -343q44 63 76 128.5t47 125.5q-41 22 -67 56t-25 73q0 31 18 49.5t49 18.5q66 0 66 -91zM124 610l-5 14q72 31 135.5 84t103.5 112h18q14 -71 41 -116.5t78 -79.5l-4 -14q-62 13 -104.5 31t-81.5 43q-81 -46 -181 -74z" />
    <glyph glyph-name="Ydieresis" unicode="&#x178;" horiz-adv-x="734" 
d="M790 697.5q25 -24.5 25 -61.5q0 -38 -25.5 -64t-65.5 -26q-33 0 -51 16.5t-18 44.5q1 33 22 57.5t54 34.5q-5 4 -17 4q-30 0 -60 -23q-45 -32 -102 -123.5t-103 -225.5l-57 -225q-6 -24 -6 -40q0 -26 17 -35t60 -11l-5 -20q-57 3 -172 3q-108 0 -161 -3l5 20q36 2 54 8
t29 23.5t20 54.5l54 215q-16 137 -44 232t-71 95q-17 0 -27.5 -12t-18.5 -35l-21 -63h-22l25 77q19 57 54.5 82t86.5 25q65 0 102.5 -40.5t56 -115t32.5 -201.5q33 94 75 169t89 126q57 62 118 62q43 0 68 -24.5zM330 894q25 23 61 23q31 0 48 -18.5t17 -48.5
q0 -39 -26 -61.5t-61 -22.5q-31 0 -47.5 18t-16.5 48q0 39 25 62zM570 894q25 23 61 23q31 0 48 -18.5t17 -48.5q0 -39 -26 -61.5t-61 -22.5q-32 0 -48 18t-16 48q0 39 25 62z" />
    <glyph glyph-name="Zacute" unicode="&#x179;" horiz-adv-x="658" 
d="M722 700q0 -14 -18.5 -30.5t-56.5 -31.5l-277 -272h152l-8 -20h-164l-283 -278q49 43 101 66.5t103 23.5q35 0 62.5 -6.5t61.5 -18.5q29 -10 46.5 -14.5t36.5 -4.5q21 0 33 10.5t12 29.5q0 42 -73 58l4 19q55 -9 92.5 -36.5t37.5 -79.5q0 -57 -39.5 -93t-105.5 -36
q-39 0 -68 11.5t-69 33.5q-41 23 -69 33.5t-65 10.5q-27 0 -49.5 -6.5t-56.5 -20.5q-18 -26 -38.5 -42t-35.5 -16q-9 0 -14 5q-6 4 -6 13q0 14 18.5 30.5t56.5 31.5l281 276h-162l7 20h175l279 274q-49 -43 -101 -66.5t-102 -23.5q-35 0 -63 6.5t-62 18.5q-27 10 -45 14.5
t-37 4.5q-22 0 -33.5 -10.5t-11.5 -29.5q0 -21 17.5 -35.5t55.5 -22.5l-5 -19q-55 9 -92.5 36.5t-37.5 79.5q0 57 39.5 93t105.5 36q39 0 68 -11.5t69 -33.5q41 -23 69 -33.5t65 -10.5q27 0 49.5 6.5t56.5 20.5q18 26 38.5 42t35.5 16q9 0 14 -5q6 -4 6 -13zM491 843
q30 28 36 33q31 29 48.5 43.5t36.5 25.5t43 11q35 0 48 -27q5 -9 5 -20q0 -17 -12 -31.5t-33 -25.5q-17 -9 -42.5 -18t-53.5 -17q-75 -20 -138 -45l-7 12q39 31 69 59z" />
    <glyph glyph-name="zacute" unicode="&#x17a;" horiz-adv-x="464" 
d="M101 96q37 23 56.5 33t39.5 10q16 0 28 -4t31 -13q14 -8 24.5 -11.5t22.5 -3.5q18 0 27.5 10t9.5 25q0 22 -16.5 36.5t-41.5 20.5l6 15q54 -12 80 -38t26 -69q0 -51 -32.5 -84.5t-94.5 -33.5q-28 0 -50 7t-48 20q-31 14 -52 20.5t-49 6.5q-29 0 -50 -9.5t-41 -33.5h-29
l486 467q-26 -12 -81 -48q-35 -24 -58.5 -36t-44.5 -12q-17 0 -29 4t-29 13q-14 8 -24.5 11.5t-22.5 3.5q-18 0 -27.5 -9t-9.5 -26q0 -20 14.5 -34t43.5 -23l-6 -15q-106 25 -106 104q0 51 37 88t106 37q28 0 49 -6.5t49 -19.5q27 -13 48 -19.5t48 -6.5q30 0 50.5 9.5
t41.5 33.5h29l-479 -460q26 12 68 40zM330 726q23 38 35.5 56.5t27.5 33.5q11 12 26 19t29 7q21 0 36 -15q14 -14 14 -30q0 -26 -29 -55q-24 -24 -83 -61q-70 -45 -120 -82l-10 10q41 59 74 117z" />
    <glyph glyph-name="Zdotaccent" unicode="&#x17b;" horiz-adv-x="658" 
d="M722 700q0 -14 -18.5 -30.5t-56.5 -31.5l-277 -272h152l-8 -20h-164l-283 -278q49 43 101 66.5t103 23.5q35 0 62.5 -6.5t61.5 -18.5q29 -10 46.5 -14.5t36.5 -4.5q21 0 33 10.5t12 29.5q0 42 -73 58l4 19q55 -9 92.5 -36.5t37.5 -79.5q0 -57 -39.5 -93t-105.5 -36
q-39 0 -68 11.5t-69 33.5q-41 23 -69 33.5t-65 10.5q-27 0 -49.5 -6.5t-56.5 -20.5q-18 -26 -38.5 -42t-35.5 -16q-9 0 -14 5q-6 4 -6 13q0 14 18.5 30.5t56.5 31.5l281 276h-162l7 20h175l279 274q-49 -43 -101 -66.5t-102 -23.5q-35 0 -63 6.5t-62 18.5q-27 10 -45 14.5
t-37 4.5q-22 0 -33.5 -10.5t-11.5 -29.5q0 -21 17.5 -35.5t55.5 -22.5l-5 -19q-55 9 -92.5 36.5t-37.5 79.5q0 57 39.5 93t105.5 36q39 0 68 -11.5t69 -33.5q41 -23 69 -33.5t65 -10.5q27 0 49.5 6.5t56.5 20.5q18 26 38.5 42t35.5 16q9 0 14 -5q6 -4 6 -13zM401 893.5
q29 25.5 73 25.5q36 0 55 -16.5t19 -45.5q0 -39 -30 -65.5t-74 -26.5q-34 0 -53 16t-19 45q0 42 29 67.5z" />
    <glyph glyph-name="zdotaccent" unicode="&#x17c;" horiz-adv-x="464" 
d="M101 96q37 23 56.5 33t39.5 10q16 0 28 -4t31 -13q14 -8 24.5 -11.5t22.5 -3.5q18 0 27.5 10t9.5 25q0 22 -16.5 36.5t-41.5 20.5l6 15q54 -12 80 -38t26 -69q0 -51 -32.5 -84.5t-94.5 -33.5q-28 0 -50 7t-48 20q-31 14 -52 20.5t-49 6.5q-29 0 -50 -9.5t-41 -33.5h-29
l486 467q-26 -12 -81 -48q-35 -24 -58.5 -36t-44.5 -12q-17 0 -29 4t-29 13q-14 8 -24.5 11.5t-22.5 3.5q-18 0 -27.5 -9t-9.5 -26q0 -20 14.5 -34t43.5 -23l-6 -15q-106 25 -106 104q0 51 37 88t106 37q28 0 49 -6.5t49 -19.5q27 -13 48 -19.5t48 -6.5q30 0 50.5 9.5
t41.5 33.5h29l-479 -460q26 12 68 40zM276 749q29 26 74 26q35 0 54.5 -16t19.5 -45q0 -39 -30 -66t-74 -27q-35 0 -54 15.5t-19 44.5q0 42 29 68z" />
    <glyph glyph-name="Zcaron" unicode="&#x17d;" horiz-adv-x="658" 
d="M722 700q0 -14 -18.5 -30.5t-56.5 -31.5l-277 -272h152l-8 -20h-164l-283 -278q49 43 101 66.5t103 23.5q35 0 62.5 -6.5t61.5 -18.5q29 -10 46.5 -14.5t36.5 -4.5q21 0 33 10.5t12 29.5q0 42 -73 58l4 19q55 -9 92.5 -36.5t37.5 -79.5q0 -57 -39.5 -93t-105.5 -36
q-39 0 -68 11.5t-69 33.5q-41 23 -69 33.5t-65 10.5q-27 0 -49.5 -6.5t-56.5 -20.5q-18 -26 -38.5 -42t-35.5 -16q-9 0 -14 5q-6 4 -6 13q0 14 18.5 30.5t56.5 31.5l281 276h-162l7 20h175l279 274q-49 -43 -101 -66.5t-102 -23.5q-35 0 -63 6.5t-62 18.5q-27 10 -45 14.5
t-37 4.5q-22 0 -33.5 -10.5t-11.5 -29.5q0 -21 17.5 -35.5t55.5 -22.5l-5 -19q-55 9 -92.5 36.5t-37.5 79.5q0 57 39.5 93t105.5 36q39 0 68 -11.5t69 -33.5q41 -23 69 -33.5t65 -10.5q27 0 49.5 6.5t56.5 20.5q18 26 38.5 42t35.5 16q9 0 14 -5q6 -4 6 -13zM718 937l5 -14
q-83 -26 -155 -67.5t-116 -87.5h-18q-23 56 -54.5 92.5t-84.5 62.5l4 14q65 -11 108 -24.5t94 -34.5q105 38 217 59z" />
    <glyph glyph-name="zcaron" unicode="&#x17e;" horiz-adv-x="464" 
d="M101 96q37 23 56.5 33t39.5 10q16 0 28 -4t31 -13q14 -8 24.5 -11.5t22.5 -3.5q18 0 27.5 10t9.5 25q0 22 -16.5 36.5t-41.5 20.5l6 15q54 -12 80 -38t26 -69q0 -51 -32.5 -84.5t-94.5 -33.5q-28 0 -50 7t-48 20q-31 14 -52 20.5t-49 6.5q-29 0 -50 -9.5t-41 -33.5h-29
l486 467q-26 -12 -81 -48q-35 -24 -58.5 -36t-44.5 -12q-17 0 -29 4t-29 13q-14 8 -24.5 11.5t-22.5 3.5q-18 0 -27.5 -9t-9.5 -26q0 -20 14.5 -34t43.5 -23l-6 -15q-106 25 -106 104q0 51 37 88t106 37q28 0 49 -6.5t49 -19.5q27 -13 48 -19.5t48 -6.5q30 0 50.5 9.5
t41.5 33.5h29l-479 -460q26 12 68 40zM551 820l5 -14q-72 -32 -135.5 -84.5t-103.5 -111.5h-18q-14 71 -41 116.5t-78 79.5l4 14q62 -13 104.5 -31t81.5 -43q85 47 181 74z" />
    <glyph glyph-name="longs" unicode="&#x17f;" horiz-adv-x="341" 
d="M498 756q35 -26 35 -70q0 -33 -26.5 -60t-65.5 -27q-30 0 -47 14t-17 40q0 33 21 59t56 39q-5 6 -14 9.5t-20 3.5q-30 0 -53 -20q-18 -16 -31 -51t-30 -99l-206 -768q-84 -1 -145 -14l184 685h-84l6 20h83q22 81 50 134.5t66 84.5q56 46 141 46q62 0 97 -26z" />
    <glyph glyph-name="uni018F" unicode="&#x18f;" horiz-adv-x="752" 
d="M664 659q73 -64 73 -197q0 -121 -59.5 -231t-164 -177.5t-231.5 -67.5q-111 0 -180.5 54t-69.5 158q0 48 15 103h484q13 41 20.5 92t7.5 95q0 104 -43.5 153.5t-118.5 49.5q-36 0 -72 -11.5t-66 -32.5q-42 -26 -67.5 -66t-51.5 -113h-23q39 129 55 240h23q-3 -22 -3 -35
q0 -24 13 -24q9 0 23 8q5 3 39.5 22t86 31.5t108.5 12.5q129 0 202 -64zM528 282h-320q-22 -72 -22 -128q0 -67 30 -107t87 -40q141 0 225 275z" />
    <glyph glyph-name="florin" unicode="&#x192;" horiz-adv-x="527" 
d="M582.5 755q29.5 -27 29.5 -68q0 -38 -24.5 -69t-60.5 -31q-28 0 -43.5 14t-15.5 40q0 35 21 64.5t56 45.5q-3 7 -13 11t-24 4q-35 0 -62 -36q-17 -23 -32.5 -67t-43.5 -148v-1h167l-5 -20h-168l-101 -379q-43 -166 -144 -245q-37 -29 -80.5 -43.5t-84.5 -14.5
q-47 0 -71 17.5t-21 46.5q1 29 23 48.5t53 19.5q28 0 44.5 -17.5t14.5 -40.5q-1 -15 -10.5 -31.5t-27.5 -27.5q41 5 64.5 29t38.5 79l149 559h-122l5 20h123v1q41 150 114 209q74 58 165 58q57 0 86.5 -27z" />
    <glyph glyph-name="Ohorn" unicode="&#x1a0;" horiz-adv-x="777" 
d="M882 851.5q20 -19.5 20 -51.5q0 -27 -16 -49.5t-47 -38.5q-28 -15 -72 -24t-99 -9q48 -30 73.5 -80t25.5 -118q0 -113 -58 -228.5t-162 -191t-234 -75.5q-128 0 -199.5 63t-71.5 177q0 113 57.5 229t161.5 191.5t234 75.5q71 0 126 -20q19 -2 53 -2q78 0 139 24
q-50 33 -50 78q0 30 19.5 49.5t49.5 19.5t50 -19.5zM453 76q63 72 102 186t39 233q0 97 -30 153t-78 56q-68 0 -131 -72t-102 -186t-39 -233q0 -97 30 -153t78 -56q68 0 131 72z" />
    <glyph glyph-name="ohorn" unicode="&#x1a1;" horiz-adv-x="529" 
d="M581.5 633.5q18.5 -16.5 18.5 -44.5q0 -51 -57 -80q-34 -16 -85 -23q40 -43 40 -120q0 -82 -37.5 -171t-111 -149t-175.5 -60q-78 0 -120 42.5t-42 122.5q0 82 37.5 171t111 149t175.5 60q63 0 104 -29q41 5 66 14q-17 12 -27.5 30t-10.5 39q0 28 18.5 46.5t48.5 18.5
q28 0 46.5 -16.5zM260.5 75q43.5 69 73.5 171.5t30 194.5q0 39 -8 54.5t-25 15.5q-37 0 -81 -71t-74 -174t-30 -192q0 -36 8 -52t26 -16q37 0 80.5 69z" />
    <glyph glyph-name="Uhorn" unicode="&#x1af;" horiz-adv-x="694" 
d="M839.5 855q20.5 -20 20.5 -51q0 -28 -17.5 -50.5t-46.5 -37.5q-47 -26 -95 -31l-102 -394q-36 -141 -97 -212q-80 -93 -215 -93q-63 0 -111 20.5t-74 58.5q-26 36 -26 93q0 52 21 130l83 314q8 32 8 47q0 22 -14.5 29.5t-52.5 9.5l6 20q51 -3 161 -3q97 0 159 3l-6 -20
q-37 -2 -54.5 -8t-28 -23t-20.5 -55l-88 -331q-25 -94 -25 -146q0 -54 25 -79t78 -25q94 0 154.5 70t91.5 189l104 405l-32 -1q-36 0 -64 4l5 20q52 -4 73 -4q38 0 63.5 4.5t48.5 18.5q-22 13 -37 33t-15 45q0 31 19.5 50.5t49.5 19.5t50.5 -20z" />
    <glyph glyph-name="uhorn" unicode="&#x1b0;" horiz-adv-x="597" 
d="M662.5 656.5q18.5 -16.5 18.5 -45.5q0 -52 -57 -79q-20 -10 -62 -20l-120 -427q-6 -21 -6 -33q0 -17 17 -17q19 0 34 18t30 61l19 51h19l-27 -76q-19 -55 -54.5 -79t-79.5 -24q-27 0 -46 9t-28 25q-9 18 -9 41t10 65l27 103q-39 -94 -75 -147t-73 -74.5t-83 -21.5
q-45 0 -67.5 21t-22.5 61q0 31 13 69l97 295q6 18 6 29q0 21 -19 21q-16 0 -31.5 -17t-31.5 -62l-18 -48h-19l25 73q36 103 134 103q91 0 91 -83q0 -31 -14 -76l-90 -270q-9 -27 -9 -43q0 -23 19 -23q30 0 71 59t82.5 156.5t73.5 209.5l15 56q67 2 109 8q34 6 57 14
q-17 11 -28 29t-11 40q0 28 18.5 46.5t48.5 18.5q28 0 46.5 -16.5z" />
    <glyph glyph-name="uni01B7" unicode="&#x1b7;" horiz-adv-x="608" 
d="M660 688l-234 -305q63 -30 94 -69.5t31 -98.5q0 -65 -41.5 -117.5t-113.5 -82t-160 -29.5q-98 0 -173 36q-25 15 -37 15q-10 0 -17.5 -10.5t-16.5 -33.5h-23q33 96 71 270h23q-10 -43 -10 -84q0 -78 41 -122.5t123 -44.5q52 0 94.5 30t67 78t24.5 100q0 68 -33.5 107.5
t-101.5 56.5l5 20l217 281h-114q-82 0 -145.5 -47t-105.5 -158h-23q26 77 53 228q65 -3 224 -3q197 0 286 3z" />
    <glyph glyph-name="uni01CD" unicode="&#x1cd;" horiz-adv-x="653" 
d="M550 36q14 -15 32 -16l-4 -20q-51 3 -145 3q-102 0 -150 -3l4 20q34 2 53 8.5t27 24t6 51.5l-9 164h-216l-88 -125q-32 -45 -32 -74q0 -24 21.5 -35.5t62.5 -13.5l-5 -20q-84 3 -130 3q-37 0 -69 -3l4 20q26 7 50.5 30t62.5 76l417 587q9 -1 26 -1q18 0 25 1l40 -629
q3 -33 17 -48zM363 288l-13 265l-188 -265h201zM749 937l5 -14q-83 -26 -155 -67.5t-116 -87.5h-18q-23 56 -54.5 92.5t-84.5 62.5l4 14q65 -11 108 -24.5t94 -34.5q105 38 217 59z" />
    <glyph glyph-name="uni01CE" unicode="&#x1ce;" horiz-adv-x="558" 
d="M495 162h19l-25 -73q-20 -56 -55.5 -79.5t-76.5 -23.5q-52 0 -74 31q-14 18 -14 50q0 26 9 59q-34 -74 -75.5 -107t-91.5 -33q-55 0 -83.5 32.5t-28.5 90.5q0 89 47.5 188.5t120.5 166.5t143 67q27 0 43.5 -16t19.5 -48l14 49q80 1 145 15l-131 -446q-5 -17 -5 -28
q0 -22 19 -22q35 0 62 79zM362 428q1 5 1 15q0 25 -8.5 38t-25.5 13q-34 0 -77.5 -61t-74 -153t-30.5 -178q0 -33 6.5 -47.5t21.5 -14.5q22 0 48.5 30.5t53 88t46.5 136.5l-5 -24zM609 820l5 -14q-72 -32 -135.5 -84.5t-103.5 -111.5h-18q-14 71 -41 116.5t-78 79.5l4 14
q62 -13 104.5 -31t81.5 -43q85 47 181 74z" />
    <glyph glyph-name="uni01D3" unicode="&#x1d3;" horiz-adv-x="694" 
d="M659 629q0 29 -17 41.5t-59 17.5l5 20q37 -3 107 -3q55 0 88 3l-5 -20q-34 -5 -53 -17t-31.5 -38t-25.5 -77l-68 -265q-36 -138 -98 -212q-37 -43 -90.5 -68t-114.5 -25q-73 0 -122 20.5t-73 58.5q-27 39 -27 93q0 48 22 130l83 314q8 34 8 48q0 22 -14.5 29t-52.5 9
l6 20q51 -3 165 -3q93 0 155 3l-6 -20q-37 -2 -54.5 -8t-28 -23t-20.5 -55l-88 -331q-24 -88 -24 -146q0 -52 22 -78t68 -26q105 0 165.5 68t92.5 191l69 264q16 59 16 85zM770 937l5 -14q-83 -26 -155 -67.5t-116 -87.5h-18q-23 56 -54.5 92.5t-84.5 62.5l4 14
q65 -11 108 -24.5t94 -34.5q105 38 217 59z" />
    <glyph glyph-name="uni01D4" unicode="&#x1d4;" horiz-adv-x="597" 
d="M536 165h19l-27 -76q-19 -55 -54.5 -79t-79.5 -24q-27 0 -46 9t-28 25q-9 18 -9 41t10 65l27 103q-39 -94 -75 -147t-73 -74.5t-83 -21.5q-45 0 -67.5 21t-22.5 61q0 31 13 69l97 295q6 18 6 29q0 21 -19 21q-16 0 -31.5 -17t-31.5 -62l-18 -48h-19l25 73q36 103 134 103
q91 0 91 -83q0 -31 -14 -76l-90 -270q-9 -27 -9 -43q0 -23 19 -23q30 0 71 59t82.5 156.5t73.5 209.5l15 56q89 2 145 14l-125 -446q-6 -21 -6 -33q0 -17 17 -17q19 0 34 18t30 61zM591 820l5 -14q-72 -32 -135.5 -84.5t-103.5 -111.5h-18q-14 71 -41 116.5t-78 79.5l4 14
q62 -13 104.5 -31t81.5 -43q85 47 181 74z" />
    <glyph glyph-name="uni01E4" unicode="&#x1e4;" horiz-adv-x="739" 
d="M587 323q95 0 141 3l-5 -20q-24 -2 -35.5 -8t-20 -23t-18.5 -55l-7 -26h79l-4 -20h-80l-47 -174h-20q2 26 -5 41.5t-23 15.5q-15 0 -30 -6t-31 -14t-23 -12q-38 -20 -73 -29.5t-72 -9.5q-131 0 -203 60t-72 169q0 116 62 234t172 195.5t246 77.5q60 0 95.5 -16.5
t68.5 -48.5q9 -9 17 -9q10 0 19.5 14t20.5 46h22q-33 -86 -64 -230h-22q5 43 5 75q0 24 -3 40.5t-11 32.5q-20 38 -59.5 58t-94.5 20q-96 0 -167.5 -87t-109.5 -210t-38 -225q0 -90 35.5 -133t107.5 -43q21 0 41.5 6t35.5 15q16 10 24.5 26t16.5 47l20 74h-102l4 20h103
l4 16q9 33 9 51q0 25 -18 34t-66 11l5 20q62 -3 170 -3z" />
    <glyph glyph-name="uni01E5" unicode="&#x1e5;" horiz-adv-x="472" 
d="M512 558q17 -17 17 -47q0 -27 -14 -42.5t-33 -15.5q-20 0 -35 15.5t-15 42.5q0 19 9 44q-39 -17 -60 -45q26 -13 40 -36.5t14 -56.5q0 -42 -23.5 -83.5t-66.5 -72t-100 -41.5q-56 -25 -80.5 -40t-24.5 -29q0 -9 11 -15.5t34 -13.5l84 -28q53 -18 83.5 -41.5t30.5 -66.5
q0 -32 -18 -59h87l-4 -20h-97q-39 -44 -112.5 -71t-159.5 -27q-78 0 -130 21t-52 55q0 12 7 22h-76l4 20h91q25 19 68 32t89 18l4 -15q-31 -16 -45 -35h234v5q0 16 -11.5 23.5t-40.5 15.5l-142 41q-27 8 -43.5 24.5t-16.5 40.5q0 36 42.5 67t136.5 71h-10q-67 0 -108.5 28
t-41.5 84q0 46 28.5 93t84.5 78.5t133 31.5q42 0 78 -11q18 25 45.5 40.5t56.5 15.5q31 0 48 -17zM274 300.5q24 67.5 24 148.5q0 30 -6.5 46.5t-25.5 16.5q-29 0 -50.5 -35t-32 -86.5t-10.5 -98.5q0 -32 8 -45.5t24 -13.5q45 0 69 67.5zM200.5 -150.5q50.5 23.5 66.5 57.5
h-240q-5 -10 -5 -24q0 -28 21 -42.5t58 -14.5q49 0 99.5 23.5z" />
    <glyph glyph-name="Gcaron" unicode="&#x1e6;" horiz-adv-x="739" 
d="M381.5 12q20.5 6 35.5 15q16 11 24.5 26.5t16.5 46.5l23 88q9 33 9 52q0 25 -18 33.5t-66 10.5l5 20q62 -3 170 -3q94 0 141 3l-5 -20q-24 -2 -35.5 -8t-20 -22.5t-18.5 -55.5l-53 -198h-20q2 26 -5 41.5t-23 15.5q-15 0 -30 -6t-31 -14t-23 -12q-38 -20 -73 -29.5
t-72 -9.5q-131 0 -203 60t-72 169q0 116 62 234t172 195.5t246 77.5q60 0 95.5 -16.5t68.5 -48.5q9 -9 17 -9q10 0 19.5 14t20.5 46h22q-33 -86 -64 -230h-22q5 43 5 75q0 24 -3 40.5t-11 32.5q-20 38 -59.5 58t-94.5 20q-96 0 -167.5 -87t-109.5 -210t-38 -225
q0 -90 35.5 -133t107.5 -43q21 0 41.5 6zM796 937l5 -14q-83 -26 -155 -67.5t-116 -87.5h-18q-23 56 -54.5 92.5t-84.5 62.5l4 14q65 -11 108 -24.5t94 -34.5q105 38 217 59z" />
    <glyph glyph-name="gcaron" unicode="&#x1e7;" horiz-adv-x="472" 
d="M512 558q17 -17 17 -47q0 -27 -14 -42.5t-33 -15.5q-20 0 -35 15.5t-15 42.5q0 19 9 44q-39 -17 -60 -45q26 -13 40 -36.5t14 -56.5q0 -42 -23.5 -83.5t-66.5 -72t-100 -41.5q-56 -25 -80.5 -40t-24.5 -29q0 -9 11 -15.5t34 -13.5l84 -28q53 -18 83.5 -41.5t30.5 -66.5
q0 -48 -41.5 -88.5t-111.5 -64.5t-151 -24q-78 0 -130 21t-52 55q0 35 56 59.5t127 32.5l4 -15q-62 -34 -62 -79q0 -28 21 -42.5t58 -14.5t77.5 14.5t67.5 39t27 52.5q0 16 -11.5 23.5t-40.5 15.5l-142 41q-27 8 -43.5 24.5t-16.5 40.5q0 36 42.5 67t136.5 71h-10
q-67 0 -108.5 28t-41.5 84q0 46 28.5 93t84.5 78.5t133 31.5q42 0 78 -11q18 25 45.5 40.5t56.5 15.5q31 0 48 -17zM274 300.5q24 67.5 24 148.5q0 30 -6.5 46.5t-25.5 16.5q-29 0 -50.5 -35t-32 -86.5t-10.5 -98.5q0 -32 8 -45.5t24 -13.5q45 0 69 67.5zM554 820l5 -14
q-72 -32 -135.5 -84.5t-103.5 -111.5h-18q-14 71 -41 116.5t-78 79.5l4 14q62 -13 104.5 -31t81.5 -43q85 47 181 74z" />
    <glyph glyph-name="uni01E8" unicode="&#x1e8;" horiz-adv-x="740" 
d="M749.5 697.5q25.5 -24.5 25.5 -64.5q0 -37 -24.5 -68t-66.5 -31q-28 0 -47 17.5t-19 47.5t20 58t54 43q-6 3 -16 3q-18 0 -29 -5.5t-22 -16.5q-16 -18 -28 -46t-26 -73q-17 -54 -31.5 -89.5t-40.5 -63.5t-66 -37q77 -8 109.5 -38t32.5 -94q0 -11 -2 -39l-11 -105
q-3 -37 25 -37q19 0 32 14.5t24 45.5l17 51h20l-26 -77q-18 -54 -53 -80.5t-81 -26.5q-57 0 -86.5 27t-29.5 75q0 8 2 24l19 140q3 24 3 42q0 25 -6 40t-20 25q-44 -11 -61 -11q-25 0 -25 17q0 24 29 24q22 0 59 -10q45 6 72.5 33t42.5 61t33 92q15 51 27 80t31 48
q29 29 71 29q43 0 68.5 -24.5zM215 57q0 -21 14.5 -28t53.5 -9l-4 -20q-55 3 -157 3q-109 0 -163 -3l5 20q35 2 52.5 8t28 23.5t20.5 54.5l132 496q8 34 8 48q0 22 -14.5 29t-52.5 9l5 20q51 -3 163 -3q96 0 158 3l-5 -20q-37 -2 -54.5 -8t-28 -23t-20.5 -55l-132 -496
q-9 -38 -9 -49zM740 937l5 -14q-83 -26 -155 -67.5t-116 -87.5h-18q-23 56 -54.5 92.5t-84.5 62.5l4 14q65 -11 108 -24.5t94 -34.5q105 38 217 59z" />
    <glyph glyph-name="uni01E9" unicode="&#x1e9;" horiz-adv-x="552" 
d="M514.5 505.5q23.5 -25.5 23.5 -64.5q0 -38 -23 -63t-61 -25q-30 0 -47 16t-17 40q0 30 19 54.5t47 39.5q-5 8 -16 8q-24 0 -42 -15q-13 -11 -21.5 -27.5t-22.5 -49.5q-20 -52 -43 -84t-66 -43q167 -4 167 -109q0 -15 -3 -32l-15 -74q-3 -13 -3 -22q0 -11 4.5 -15.5
t13.5 -4.5q33 0 61 79l18 48h19l-25 -73q-36 -103 -144 -103q-40 0 -61.5 20t-21.5 58q0 20 4 37l17 77q6 24 6 41q0 29 -17.5 44t-58.5 21l-83 -284h-141l198 667q5 18 5 28q0 20 -15.5 29t-52.5 9l6 21q70 1 125.5 11t107.5 30l-145 -496q37 6 60.5 24.5t36.5 41.5t27 60
q11 31 21.5 50.5t26.5 32.5q28 23 62 23q46 0 69.5 -25.5zM671 1075l5 -14q-72 -32 -135.5 -84.5t-103.5 -111.5h-18q-14 71 -41 116.5t-78 79.5l4 14q62 -13 104.5 -31t81.5 -43q85 47 181 74z" />
    <glyph glyph-name="uni01EE" unicode="&#x1ee;" horiz-adv-x="608" 
d="M660 688l-234 -305q63 -30 94 -69.5t31 -98.5q0 -65 -41.5 -117.5t-113.5 -82t-160 -29.5q-98 0 -173 36q-25 15 -37 15q-10 0 -17.5 -10.5t-16.5 -33.5h-23q33 96 71 270h23q-10 -43 -10 -84q0 -78 41 -122.5t123 -44.5q52 0 94.5 30t67 78t24.5 100q0 68 -33.5 107.5
t-101.5 56.5l5 20l217 281h-114q-82 0 -145.5 -47t-105.5 -158h-23q26 77 53 228q65 -3 224 -3q197 0 286 3zM694 937l5 -14q-83 -26 -155 -67.5t-116 -87.5h-18q-23 56 -54.5 92.5t-84.5 62.5l4 14q65 -11 108 -24.5t94 -34.5q105 38 217 59z" />
    <glyph glyph-name="uni01EF" unicode="&#x1ef;" horiz-adv-x="484" 
d="M353 161.5q54 -40.5 54 -114.5q0 -67 -44 -121.5t-113.5 -85.5t-142.5 -31q-68 0 -110 30q-20 16 -32 36.5t-12 43.5q0 34 25.5 61.5t68.5 27.5q31 0 49.5 -15.5t18.5 -43.5q0 -34 -24.5 -62.5t-61.5 -35.5q6 -7 20.5 -11.5t33.5 -4.5q46 0 86 25t64 74t24 116
q0 57 -17 95t-41 51q-30 -33 -56 -33q-20 0 -20 15q0 13 18 21t41 11l268 257q-33 -15 -80 -48q-38 -25 -60.5 -36.5t-44.5 -11.5q-15 0 -26.5 4t-30.5 13q-14 7 -24.5 11t-21.5 4q-18 0 -28 -9t-10 -26q0 -20 14.5 -34t43.5 -23l-6 -15q-106 25 -106 105q0 32 16 60.5
t48 46t78 17.5q29 0 50 -6.5t49 -19.5q29 -13 49 -19.5t48 -6.5q29 0 49.5 9.5t41.5 33.5h29l-318 -308q89 -6 143 -46.5zM546 820l5 -14q-72 -32 -135.5 -84.5t-103.5 -111.5h-18q-14 71 -41 116.5t-78 79.5l4 14q62 -13 104.5 -31t81.5 -43q85 47 181 74z" />
    <glyph glyph-name="uni01F4" unicode="&#x1f4;" horiz-adv-x="739" 
d="M381.5 12q20.5 6 35.5 15q16 11 24.5 26.5t16.5 46.5l23 88q9 33 9 52q0 25 -18 33.5t-66 10.5l5 20q62 -3 170 -3q94 0 141 3l-5 -20q-24 -2 -35.5 -8t-20 -22.5t-18.5 -55.5l-53 -198h-20q2 26 -5 41.5t-23 15.5q-15 0 -30 -6t-31 -14t-23 -12q-38 -20 -73 -29.5
t-72 -9.5q-131 0 -203 60t-72 169q0 116 62 234t172 195.5t246 77.5q60 0 95.5 -16.5t68.5 -48.5q9 -9 17 -9q10 0 19.5 14t20.5 46h22q-33 -86 -64 -230h-22q5 43 5 75q0 24 -3 40.5t-11 32.5q-20 38 -59.5 58t-94.5 20q-96 0 -167.5 -87t-109.5 -210t-38 -225
q0 -90 35.5 -133t107.5 -43q21 0 41.5 6zM569 843q30 28 36 33q31 29 48.5 43.5t36.5 25.5t43 11q35 0 48 -27q5 -9 5 -20q0 -17 -12 -31.5t-33 -25.5q-17 -9 -42.5 -18t-53.5 -17q-75 -20 -138 -45l-7 12q39 31 69 59z" />
    <glyph glyph-name="uni01F5" unicode="&#x1f5;" horiz-adv-x="472" 
d="M512 558q17 -17 17 -47q0 -27 -14 -42.5t-33 -15.5q-20 0 -35 15.5t-15 42.5q0 19 9 44q-39 -17 -60 -45q26 -13 40 -36.5t14 -56.5q0 -42 -23.5 -83.5t-66.5 -72t-100 -41.5q-56 -25 -80.5 -40t-24.5 -29q0 -9 11 -15.5t34 -13.5l84 -28q53 -18 83.5 -41.5t30.5 -66.5
q0 -48 -41.5 -88.5t-111.5 -64.5t-151 -24q-78 0 -130 21t-52 55q0 35 56 59.5t127 32.5l4 -15q-62 -34 -62 -79q0 -28 21 -42.5t58 -14.5t77.5 14.5t67.5 39t27 52.5q0 16 -11.5 23.5t-40.5 15.5l-142 41q-27 8 -43.5 24.5t-16.5 40.5q0 36 42.5 67t136.5 71h-10
q-67 0 -108.5 28t-41.5 84q0 46 28.5 93t84.5 78.5t133 31.5q42 0 78 -11q18 25 45.5 40.5t56.5 15.5q31 0 48 -17zM274 300.5q24 67.5 24 148.5q0 30 -6.5 46.5t-25.5 16.5q-29 0 -50.5 -35t-32 -86.5t-10.5 -98.5q0 -32 8 -45.5t24 -13.5q45 0 69 67.5zM333 726
q23 38 35.5 56.5t27.5 33.5q11 12 26 19t29 7q21 0 36 -15q14 -14 14 -30q0 -26 -29 -55q-24 -24 -83 -61q-70 -45 -120 -82l-10 10q41 59 74 117z" />
    <glyph glyph-name="Oslashacute" unicode="&#x1fe;" horiz-adv-x="777" 
d="M675.5 834q-25.5 -9 -53.5 -17q-75 -20 -138 -45l-7 12q39 31 69 59t36 33q31 29 48.5 43.5t36.5 25.5t43 11q35 0 48 -27q5 -9 5 -20q0 -17 -12 -31.5t-33 -25.5q-17 -9 -42.5 -18zM767 481q0 -113 -58 -228.5t-162 -191t-234 -75.5q-118 0 -189 54l-110 -113l-17 14
l110 114q-65 62 -65 171q0 113 57.5 229t161.5 191.5t234 75.5q121 0 192 -56l102 107l15 -13l-102 -108q65 -62 65 -171zM355 632q-63 -72 -102 -186t-39 -233q0 -38 4 -65l370 423q-10 63 -37 98t-65 35q-68 0 -131 -72zM453 76q63 72 102 186t39 233q0 19 -2 49
l-369 -424q12 -55 38 -85.5t61 -30.5q68 0 131 72z" />
    <glyph glyph-name="oslashacute" unicode="&#x1ff;" horiz-adv-x="529" 
d="M546 797q0 -26 -29 -55q-24 -24 -83 -61q-70 -45 -120 -82l-10 10q41 59 74 117q23 38 35.5 56.5t27.5 33.5q11 12 26 19t29 7q21 0 36 -15q14 -14 14 -30zM498 366q0 -82 -37.5 -171t-111 -149t-175.5 -60q-46 0 -79 15l-60 -83l-15 10l58 81q-66 40 -66 142
q0 82 37.5 171t111 149t175.5 60q49 0 82 -16l60 85l15 -9l-59 -85q64 -41 64 -140zM253 445q-42 -66 -72.5 -164t-34.5 -186l218 355q-1 34 -9 47.5t-24 13.5q-36 0 -78 -66zM256.5 69q41.5 63 72 159t34.5 187l-217 -356q2 -28 10.5 -40.5t23.5 -12.5q35 0 76.5 63z" />
    <glyph glyph-name="Scommaaccent" unicode="&#x218;" horiz-adv-x="587" 
d="M561 511h-20q6 29 6 56q0 60 -37 95.5t-106 35.5q-54 0 -87.5 -27t-33.5 -82q0 -46 27.5 -86.5t83.5 -100.5q42 -44 66 -74t41 -66t17 -76q0 -67 -43 -112t-106.5 -66.5t-126.5 -21.5q-64 0 -99 11t-74 35q-22 15 -35 15t-20.5 -10.5t-21.5 -43.5h-20q16 38 31.5 91.5
t36.5 148.5h20q-9 -38 -9 -71q0 -75 41.5 -114.5t121.5 -39.5q129 0 129 105q0 56 -26.5 100.5t-79.5 102.5q-36 41 -57 68.5t-35.5 62.5t-14.5 75q0 64 36.5 109.5t93.5 68t116 22.5q52 0 89 -12t69 -32q26 -16 33 -16q8 0 15.5 12.5t17.5 40.5h20q-38 -96 -59 -204z
M263 -69q20 -16 20 -45q0 -50 -36 -84t-102 -43l-2 19q39 4 66.5 19.5t32.5 38.5q-24 -17 -57 -17q-60 0 -60 49q0 33 25.5 56t64.5 23q28 0 48 -16z" />
    <glyph glyph-name="scommaaccent" unicode="&#x219;" horiz-adv-x="420" 
d="M113 7q38 0 61 23t23 63q0 32 -14 66t-42 77q-4 6 -23.5 36t-29 57.5t-9.5 54.5q0 65 48.5 106t133.5 41q65 0 108.5 -23.5t43.5 -80.5q0 -28 -16 -51t-45 -23q-25 0 -40 19t-15 48q0 25 9 46.5t22 36.5q-13 8 -35 8q-36 0 -56.5 -22.5t-21.5 -62.5q0 -27 10.5 -49
t35.5 -62l14 -21q32 -53 45.5 -87t13.5 -68q0 -44 -23 -78.5t-65.5 -54.5t-99.5 -20q-71 0 -118 27.5t-47 88.5q0 30 15 51t41 21t41.5 -22t15.5 -56q0 -22 -5 -39.5t-15 -42.5q15 -7 39 -7zM165 -69q20 -16 20 -45q0 -50 -36 -84t-102 -43l-2 19q39 4 66.5 19.5t32.5 38.5
q-24 -17 -57 -17q-60 0 -60 49q0 33 25.5 56t64.5 23q28 0 48 -16z" />
    <glyph glyph-name="uni021A" unicode="&#x21a;" horiz-adv-x="681" 
d="M837 837.5q21 -20.5 21 -49.5q0 -61 -69 -95q-61 -29 -167 -29q-18 0 -58 2l-147 -550q-8 -30 -8 -46q0 -26 18.5 -37t64.5 -13l-4 -20q-63 3 -185 3q-119 0 -176 -3l4 20q43 2 66.5 10.5t37 28t23.5 57.5l151 565q-75 7 -120 7q-83 0 -113 -17q26 -8 43 -29.5t17 -51.5
q0 -35 -22 -59.5t-56 -24.5q-33 0 -52.5 22.5t-19.5 56.5q0 28 15.5 54t49.5 43q49 24 134 24q66 0 186 -12q110 -10 160 -10q67 0 106 13q-15 14 -25 34.5t-10 44.5q0 36 21.5 59t57.5 23q35 0 56 -20.5zM338 -69q20 -16 20 -45q0 -50 -36 -84t-102 -43l-2 19
q39 4 66.5 19.5t32.5 38.5q-24 -17 -57 -17q-60 0 -60 49q0 33 25.5 56t64.5 23q28 0 48 -16z" />
    <glyph glyph-name="uni021B" unicode="&#x21b;" horiz-adv-x="353" 
d="M164 85q-3 -10 -3 -20q0 -15 8 -22.5t22 -7.5q22 0 42.5 21.5t36.5 64.5l15 41h19l-20 -58q-39 -118 -150 -118q-51 0 -76.5 26.5t-25.5 72.5q0 29 9 60l101 352h-90l5 20h91l43 149q85 1 145 14l-47 -163h113l-3 -20h-116zM142 -69q20 -16 20 -45q0 -50 -36 -84
t-102 -43l-2 19q39 4 66.5 19.5t32.5 38.5q-24 -17 -57 -17q-60 0 -60 49q0 33 25.5 56t64.5 23q28 0 48 -16z" />
    <glyph glyph-name="uni021E" unicode="&#x21e;" horiz-adv-x="810" 
d="M884 708l-5 -20q-37 -2 -54.5 -8t-28 -23t-20.5 -55l-132 -496q-9 -38 -9 -49q0 -21 14.5 -28t53.5 -9l-4 -20q-54 3 -164 3q-101 0 -157 -3l4 20q36 2 54 8t28.5 23t20.5 55l64 240h-261l-64 -240q-9 -38 -9 -49q0 -21 14.5 -28t53.5 -9l-4 -20q-55 3 -157 3
q-109 0 -163 -3l5 20q35 2 52.5 8t28 23.5t20.5 54.5l132 496q8 34 8 48q0 22 -14.5 29t-52.5 9l5 20q51 -3 163 -3q96 0 158 3l-5 -20q-37 -2 -54.5 -8t-28 -23t-20.5 -55l-63 -236h261l63 236q9 32 9 48q0 22 -15 29t-53 9l5 20q54 -3 156 -3q109 0 165 3zM799 937l5 -14
q-83 -26 -155 -67.5t-116 -87.5h-18q-23 56 -54.5 92.5t-84.5 62.5l4 14q65 -11 108 -24.5t94 -34.5q105 38 217 59z" />
    <glyph glyph-name="uni021F" unicode="&#x21f;" horiz-adv-x="570" 
d="M525 162l-25 -73q-36 -103 -134 -103q-91 0 -91 81q0 36 15 78l89 270q9 29 9 44q0 22 -19 22q-28 0 -66.5 -52t-78.5 -140t-73 -192l-24 -84q-1 -1 -1 -3v1l-3 -11h-141l198 667q5 18 5 28q0 20 -15.5 29t-52.5 9l6 21q70 1 125.5 11t107.5 30l-136 -465
q51 113 100.5 157t112.5 44q47 0 69 -21.5t22 -58.5q0 -32 -14 -71l-98 -295q-6 -18 -6 -29q0 -21 20 -21q33 0 62 79l18 48h19zM683 1075l5 -14q-72 -32 -135.5 -84.5t-103.5 -111.5h-18q-14 71 -41 116.5t-78 79.5l4 14q62 -13 104.5 -31t81.5 -43q85 47 181 74z" />
    <glyph glyph-name="uni0237" unicode="&#x237;" horiz-adv-x="301" 
d="M-134 -170q51 2 88.5 39.5t55.5 112.5l126 450q6 20 6 31q0 19 -18 19q-17 0 -32.5 -18.5t-30.5 -60.5l-19 -51h-19l27 76q19 55 56 79t83 24q86 0 86 -79q0 -28 -10 -61l-83 -297q-20 -84 -50 -138t-78 -90q-73 -54 -192 -54z" />
    <glyph glyph-name="uni0259" unicode="&#x259;" horiz-adv-x="469" 
d="M422 494q44 -37 44 -104q0 -89 -48 -184t-131 -157.5t-182 -62.5q-46 0 -75 20.5t-29 58.5q0 83 93 145t216 96q6 35 6 68q0 53 -19.5 75t-57.5 22q-31 0 -70 -19.5t-76 -62.5l-16 8q36 56 96.5 95t135.5 39q69 0 113 -37zM193 46q37 41 68 106.5t46 134.5
q-71 -31 -110 -67q-40 -36 -63 -82.5t-23 -99.5q0 -19 4 -26t12 -7q29 0 66 41z" />
    <glyph glyph-name="uni0292" unicode="&#x292;" horiz-adv-x="484" 
d="M353 161.5q54 -40.5 54 -114.5q0 -67 -44 -121.5t-113.5 -85.5t-142.5 -31q-68 0 -110 30q-20 16 -32 36.5t-12 43.5q0 34 25.5 61.5t68.5 27.5q31 0 49.5 -15.5t18.5 -43.5q0 -34 -24.5 -62.5t-61.5 -35.5q6 -7 20.5 -11.5t33.5 -4.5q46 0 86 25t64 74t24 116
q0 57 -17 95t-41 51q-30 -33 -56 -33q-20 0 -20 15q0 13 18 21t41 11l268 257q-33 -15 -80 -48q-38 -25 -60.5 -36.5t-44.5 -11.5q-15 0 -26.5 4t-30.5 13q-14 7 -24.5 11t-21.5 4q-18 0 -28 -9t-10 -26q0 -20 14.5 -34t43.5 -23l-6 -15q-106 25 -106 105q0 32 16 60.5
t48 46t78 17.5q29 0 50 -6.5t49 -19.5q29 -13 49 -19.5t48 -6.5q29 0 49.5 9.5t41.5 33.5h29l-318 -308q89 -6 143 -46.5z" />
    <glyph glyph-name="uni02BC" unicode="&#x2bc;" horiz-adv-x="253" 
d="M267 546q-40 -55 -109 -86l-5 16q46 23 75.5 58.5t32.5 76.5q-27 -29 -62 -29q-30 0 -46 14t-16 40q0 41 30.5 70.5t73.5 29.5q32 0 49 -18.5t17 -53.5q0 -63 -40 -118z" />
    <glyph glyph-name="circumflex" unicode="&#x2c6;" horiz-adv-x="476" 
d="M146 610l-5 14q72 31 135.5 84t103.5 112h18q14 -71 41 -116.5t78 -79.5l-4 -14q-62 13 -104.5 31t-81.5 43q-81 -46 -181 -74z" />
    <glyph glyph-name="caron" unicode="&#x2c7;" horiz-adv-x="476" 
d="M557 820l5 -14q-72 -32 -135.5 -84.5t-103.5 -111.5h-18q-14 71 -41 116.5t-78 79.5l4 14q62 -13 104.5 -31t81.5 -43q85 47 181 74z" />
    <glyph glyph-name="breve" unicode="&#x2d8;" horiz-adv-x="459" 
d="M432 737q53 18 96 51l11 -10q-38 -63 -104.5 -110t-130.5 -47q-53 0 -84 43t-41 113l16 7q24 -35 52.5 -50t77.5 -15q54 0 107 18z" />
    <glyph glyph-name="dotaccent" unicode="&#x2d9;" horiz-adv-x="274" 
d="M187 749q29 26 74 26q35 0 54.5 -16t19.5 -45q0 -39 -30 -66t-74 -27q-35 0 -54 15.5t-19 44.5q0 42 29 68z" />
    <glyph glyph-name="ring" unicode="&#x2da;" horiz-adv-x="319" 
d="M351.5 773.5q27.5 -23.5 27.5 -61.5q0 -30 -17.5 -55t-46 -40t-60.5 -15q-42 0 -68.5 23t-26.5 63q0 46 35 77.5t86 31.5q43 0 70.5 -23.5zM324.5 648.5q28.5 25.5 28.5 62.5q0 31 -22.5 48t-52.5 17q-37 0 -64 -26.5t-27 -61.5q0 -30 21.5 -47.5t50.5 -17.5
q37 0 65.5 25.5z" />
    <glyph glyph-name="ogonek" unicode="&#x2db;" horiz-adv-x="318" 
d="M98 -44q-30 -31 -30 -65q0 -14 7.5 -21.5t21.5 -7.5q15 0 32.5 8.5t30.5 21.5l13 -12q-56 -68 -134 -68q-39 0 -61.5 16t-22.5 44q0 44 56 77.5t136 53.5h26q-45 -16 -75 -47z" />
    <glyph glyph-name="tilde" unicode="&#x2dc;" horiz-adv-x="466" 
d="M349 775.5q19 -10.5 41 -30.5q18 -16 31.5 -24t31.5 -8q20 0 37 13.5t34 44.5l18 -5q-26 -70 -67 -104.5t-87 -34.5q-29 0 -48 10.5t-41 30.5q-18 16 -31.5 24t-31.5 8q-39 0 -71 -58l-18 5q26 70 67.5 104.5t86.5 34.5q29 0 48 -10.5z" />
    <glyph glyph-name="hungarumlaut" unicode="&#x2dd;" horiz-adv-x="423" 
d="M185 721q8 22 16.5 41.5t17.5 32.5q9 12 21.5 18.5t25.5 6.5q20 -2 36 -13q19 -17 19 -40q0 -20 -16 -39q-10 -13 -26.5 -26.5t-35.5 -27.5q-57 -41 -95 -76l-11 8q25 52 48 115zM364 723q10 28 16.5 43.5t16.5 28.5q20 25 48 25q21 -2 35 -13q19 -17 19 -40
q0 -20 -16 -39q-10 -13 -26.5 -26.5t-35.5 -27.5q-60 -46 -94 -76l-12 8q24 50 49 117z" />
    </font>
</defs>
</svg>
