<?xml version="1.0" standalone="no"?>
<!DOCTYPE svg PUBLIC "-//W3C//DTD SVG 1.1//EN" "http://www.w3.org/Graphics/SVG/1.1/DTD/svg11.dtd" >
<svg xmlns="http://www.w3.org/2000/svg" xmlns:xlink="http://www.w3.org/1999/xlink" version="1.1">
<metadata>
Created by FontForge 20170731 at Fri Nov  3 13:25:34 2017
 By Aleksey,,,
Copyright 2017 The Playfair Display Project Authors (https://github.com/clauseggers/Playfair-Display), with Reserved Font Name "Playfair Display".
</metadata>
<defs>
<font id="PlayfairDisplay-Italic" horiz-adv-x="0" >
  <font-face 
    font-family="Playfair Display"
    font-weight="400"
    font-style="italic"
    font-stretch="normal"
    units-per-em="1000"
    panose-1="0 0 5 0 0 0 0 0 0 0"
    ascent="800"
    descent="-200"
    x-height="520"
    cap-height="708"
    bbox="-749 -241 1101 1151"
    underline-thickness="20"
    underline-position="-120"
    slope="-14"
    unicode-range="U+000D-FB02"
  />
<missing-glyph horiz-adv-x="562" 
d="M502 772v-772h-442v772h442zM466 30v712h-370v-712h370z" />
    <glyph glyph-name="IJ" unicode="IJ" horiz-adv-x="798" 
d="M905 717q0 -23 -72 -51q-62 -52 -97.5 -121t-61.5 -179h108l-4 -20h-109l-1 -6l-61 -275q-24 -111 -81 -182t-146 -71q-48 0 -76 15t-28 44q0 21 15 38t38 17q19 0 31.5 -13t12.5 -30q0 -16 -10.5 -29t-27.5 -21q15 -5 35 -5q46 0 74.5 34.5t44 86.5t34.5 143q2 14 11 53
l32 150q7 33 13 51h-122l4 20h124q21 65 52 113t67 83t97 87l16 14q-115 -60 -196 -60q-49 0 -90 7t-98 21q-59 14 -99.5 21t-90.5 7q-43 0 -68 -16t-25 -47q0 -42 46.5 -60.5t104.5 -18.5q32 0 66.5 10t63.5 29l8 -15q-32 -22 -85 -36l-116 -399q-9 -30 -9 -49
q0 -20 15 -28t53 -9l-4 -20q-46 3 -127 3q-83 0 -127 -3l5 20q35 2 52 8.5t27.5 23t21.5 54.5l114 392q-63 5 -107 32t-44 82q0 54 41 90.5t103 36.5q54 0 98 -13.5t102 -40.5q61 -27 103 -40t94 -13q46 0 81.5 10t93.5 35q36 58 61 58q8 0 13 -5q7 -7 7 -13z" />
    <glyph glyph-name="ij" unicode="ij" horiz-adv-x="625" 
d="M226.5 735.5q21.5 24.5 52.5 24.5q23 0 37 -14.5t14 -36.5q0 -28 -22 -52.5t-53 -24.5q-22 0 -36 14.5t-14 36.5q0 28 21.5 52.5zM556.5 735.5q21.5 24.5 52.5 24.5q23 0 37 -14.5t14 -36.5q0 -28 -22 -52.5t-53 -24.5q-22 0 -36 14.5t-14 36.5q0 28 21.5 52.5z
M278 157.5q8 34.5 20 98.5q9 57 18.5 97.5t25.5 75.5q44 99 149 99q82 0 82 -77q0 -26 -10 -63l-77 -273q-69 -247 -195 -293q-29 -10 -59 -10q-23 0 -35 10.5t-12 28.5q0 22 18 41.5t41 19.5q15 0 24 -8.5t9 -22.5q0 -26 -28 -54q38 5 61 29t38 79l139 494q4 13 4 26
q0 36 -39 36q-32 0 -55.5 -18.5t-43.5 -69.5q-11 -27 -17.5 -57t-15.5 -84q-14 -73 -23 -111.5t-27 -77.5q-39 -87 -139 -87q-45 0 -68 22.5t-23 60.5q0 26 11 57l107 303q9 26 9 40q0 22 -23 22t-41 -24t-38 -78l-14 -37h-19l26 73q20 57 53.5 80t70.5 23q67 0 67 -62
q0 -30 -17 -78l-107 -303q-4 -11 -4 -23q0 -18 12 -28.5t35 -10.5q27 0 49 14.5t39 53.5q14 32 22 66.5z" />
    <glyph glyph-name="fi" unicode="fi" horiz-adv-x="579" 
d="M603 708q0 -30 -23 -53t-52 -23q-22 0 -36.5 14.5t-14.5 35.5q0 4 2 14q4 22 20.5 39.5t38.5 22.5q-23 9 -65 9q-55 0 -105 -32q-40 -26 -63.5 -75.5t-48.5 -144.5v-1h190q57 2 91 14l-135 -443q-7 -21 -7 -37q0 -25 23 -25q21 0 39 23t39 79l14 37h19l-26 -73
q-20 -55 -52.5 -79t-70.5 -24q-70 0 -70 61q0 29 18 79l112 368h-190l-190 -668q-54 -2 -90 -14l194 682h-97l6 20h96q20 72 44 119.5t59 77.5q42 36 96.5 53.5t112.5 17.5q36 0 66.5 -10.5t46.5 -32.5q9 -12 9 -31z" />
    <glyph glyph-name="fl" unicode="fl" horiz-adv-x="588" 
d="M518 162h19l-25 -73q-35 -103 -120 -103q-69 0 -69 65q0 25 14 75l163 541q5 18 5 30q0 21 -15 31.5t-51 10.5h-12q-34 0 -78 -26q-34 -19 -53.5 -64t-43.5 -134v-1h117l-6 -20h-117l-185 -668q-54 -2 -90 -14l189 682h-92l6 20h91q18 66 39.5 108.5t52.5 69.5
q34 30 78.5 46t89.5 16h19q53 1 95.5 11t82.5 30l-209 -710q-6 -21 -6 -35q0 -27 23 -27q20 0 37.5 23t37.5 79z" />
    <glyph glyph-name="f_f" unicode="ff" horiz-adv-x="610" 
d="M748.5 762q25.5 -20 25.5 -51q0 -26 -19.5 -47.5t-47.5 -21.5q-19 0 -30 9t-10 25q0 24 15.5 41.5t41.5 25.5q0 9 -13.5 16.5t-32.5 7.5q-30 0 -58 -26q-21 -19 -35 -60.5t-35 -122.5l-11 -43v-1h118l-6 -20h-118l-179 -668q-54 -2 -90 -14l182 682h-201l-180 -668
q-54 -2 -90 -14l184 682h-92l6 20h91q15 50 38.5 92.5t50.5 67.5q77 68 179 68q61 0 102 -32q6 8 20 22q23 23 56.5 36.5t68.5 13.5q44 0 69.5 -20zM452 515q16 62 33 105t38 74q-36 30 -89 30q-54 0 -88.5 -26.5t-55.5 -71t-39 -111.5v-1h201v1z" />
    <glyph glyph-name="f_f_i" unicode="ffi" horiz-adv-x="865" 
d="M889 708q0 -30 -23 -53t-52 -23q-22 0 -36.5 14.5t-14.5 35.5q0 4 2 14q4 22 20.5 39.5t38.5 22.5q-23 9 -65 9q-55 0 -105 -32q-40 -26 -63.5 -75.5t-48.5 -144.5v-1h190q57 2 91 14l-135 -443q-7 -21 -7 -37q0 -25 23 -25q21 0 39 23t39 79l14 37h19l-26 -73
q-20 -55 -52.5 -79t-70.5 -24q-70 0 -70 61q0 29 18 79l112 368h-190l-190 -668q-54 -2 -90 -14l194 682h-204l-185 -668q-54 -2 -90 -14l189 682h-92l6 20h91q15 50 38.5 92.5t50.5 67.5q77 68 179 68q69 0 113 -42l12 11q42 36 96.5 53.5t112.5 17.5q36 0 66.5 -10.5
t46.5 -32.5q9 -12 9 -31zM489.5 614.5q18.5 41.5 43.5 70.5q-39 39 -98 39q-48 0 -84 -24q-35 -23 -57 -65.5t-42 -119.5v-1h203q16 59 34.5 100.5z" />
    <glyph glyph-name="f_f_l" unicode="ffl" horiz-adv-x="879" 
d="M809 162h19l-25 -73q-35 -103 -120 -103q-69 0 -69 65q0 25 14 75l163 541q5 18 5 30q0 21 -15 31.5t-51 10.5h-12q-34 0 -78 -26q-34 -19 -53.5 -64t-43.5 -134v-1h117l-6 -20h-117l-185 -668q-54 -2 -90 -14l189 682h-205l-185 -668q-54 -2 -90 -14l189 682h-92l6 20
h91q15 50 38.5 92.5t50.5 67.5q77 68 179 68q75 0 118 -47q35 29 78 44t87 15h19q53 1 95.5 11t82.5 30l-209 -710q-6 -21 -6 -35q0 -27 23 -27q20 0 37.5 23t37.5 79zM491.5 615q18.5 40 44.5 66q-37 43 -101 43q-48 0 -84 -24q-35 -23 -57 -65.5t-42 -119.5v-1h204
q17 61 35.5 101z" />
    <glyph glyph-name="T_h.liga" unicode="Th" horiz-adv-x="1149" 
d="M1099 162l-25 -73q-36 -103 -121 -103q-70 0 -70 62q0 32 16 78l95 286q11 35 11 50q0 34 -33 34q-39 0 -84.5 -52t-90.5 -145t-82 -214l-24 -85h-87l189 675q-27 -12 -59.5 -16.5t-75.5 -4.5q-67 0 -153 14l-147 -552q-9 -31 -9 -51q0 -25 18.5 -34.5t65.5 -10.5l-4 -20
q-52 3 -149 3q-98 0 -146 -3l4 20q42 2 65.5 10.5t36.5 28t25 57.5l151 566q-75 12 -129 12q-87 0 -112 -17q8 -11 13 -27t5 -31q0 -23 -13 -40.5t-37 -17.5q-21 0 -32.5 13.5t-11.5 36.5q0 52 53 78q47 23 134 23q46 0 84.5 -4.5t107.5 -14.5q56 -9 98.5 -14t88.5 -5
q45 0 75.5 5t59.5 19l23 83q57 2 91 14l-147 -523q59 138 115 197t123 59q80 0 80 -75q0 -34 -14 -76l-97 -292q-8 -24 -8 -38q0 -24 24 -24q20 0 38.5 22.5t38.5 79.5l13 37h19z" />
    <glyph glyph-name="f_b.liga" unicode="fb" horiz-adv-x="828" 
d="M762.5 492.5q27.5 -35.5 27.5 -105.5q0 -81 -36 -175.5t-103 -160t-154 -65.5q-30 0 -52.5 17.5t-31.5 49.5l-85 -69l-15 7q12 25 19 58l165 618q4 13 4 28q0 22 -15 33t-50 11q-57 -1 -99 -37.5t-67 -123.5l-18 -64h117l-6 -20h-116l-186 -668q-54 -2 -90 -14l188 682
h-91l6 20h91l3 11q67 229 271 229q53 1 95 11t81 30l-129 -494q49 120 97.5 173.5t102.5 53.5q49 0 76.5 -35.5zM597 75.5q48 66.5 77.5 161.5t29.5 172q0 43 -12.5 65t-34.5 22q-28 0 -64.5 -44t-74 -119t-66.5 -164l-27 -105q12 -30 29.5 -42.5t41.5 -12.5q53 0 101 66.5z
" />
    <glyph glyph-name="f_f_b.liga" unicode="ffb" horiz-adv-x="1122" 
d="M1056.5 492.5q27.5 -35.5 27.5 -105.5q0 -81 -36 -175.5t-103 -160t-154 -65.5q-30 0 -52.5 17.5t-31.5 49.5l-85 -69l-15 7q12 25 19 58l165 618q4 13 4 28q0 22 -15 33t-50 11q-57 -1 -99 -37.5t-67 -123.5l-18 -64h117l-6 -20h-116l-186 -668q-54 -2 -90 -14l188 682
h-207l-185 -668q-54 -2 -90 -14l189 682h-92l6 20h91q15 50 38.5 92.5t50.5 67.5q74 68 179 68q37 0 70.5 -13.5t56.5 -34.5q68 60 173 60q53 1 95 11t81 30l-129 -494q49 120 97.5 173.5t102.5 53.5q49 0 76.5 -35.5zM462 525q30 100 84 156q-43 43 -111 43
q-54 0 -88.5 -26.5t-55 -70.5t-39.5 -112v-1h207zM891 75.5q48 66.5 77.5 161.5t29.5 172q0 43 -12.5 65t-34.5 22q-28 0 -64.5 -44t-74 -119t-66.5 -164l-27 -105q12 -30 29.5 -42.5t41.5 -12.5q53 0 101 66.5z" />
    <glyph glyph-name="f_f_h.liga" unicode="ffh" horiz-adv-x="1146" 
d="M1096 162l-25 -73q-36 -103 -121 -103q-70 0 -70 62q0 30 16 78l95 286q10 28 10 50q0 34 -32 34q-39 0 -84.5 -52t-90.5 -145t-82 -214l-24 -85h-87l188 667q5 17 5 28q0 22 -16.5 33t-52.5 11q-57 0 -99.5 -36.5t-67.5 -124.5l-18 -64h117l-6 -20h-116l-186 -668
q-54 -2 -90 -14l188 682h-201l-185 -668q-54 -2 -90 -14l189 682h-92l6 20h91q15 49 38 92t51 68q72 68 179 68q75 0 119 -48q69 60 175 60q108 1 184 41l-146 -520q58 136 114 194.5t123 58.5q81 0 81 -76q0 -32 -15 -75l-97 -292q-8 -24 -8 -38q0 -24 24 -24
q20 0 38.5 22.5t38.5 79.5l13 37h19zM456 525q29 100 82 155q-18 21 -44.5 32.5t-58.5 11.5q-54 0 -88.5 -26t-55 -70t-39.5 -113v-1h201z" />
    <glyph glyph-name="f_f_j.liga" unicode="ffj" horiz-adv-x="860" 
d="M884.5 737q7.5 -12 7.5 -28q0 -31 -23 -54t-52 -23q-22 0 -36.5 14.5t-14.5 35.5q0 4 2 14q4 21 18.5 37.5t33.5 23.5q-29 9 -58 9q-61 0 -101.5 -31t-66.5 -84.5t-49 -135.5v-1h215q57 2 91 14l-116 -413q-69 -247 -195 -293q-29 -10 -59 -10q-23 0 -35 10.5t-12 28.5
q0 22 18 41.5t41 19.5q15 0 24 -8.5t9 -22.5q0 -26 -28 -54q38 5 61 29t38 79l157 559h-215l-139 -494h-86l139 494h-207l-185 -668q-54 -2 -90 -14l189 682h-92l6 20h91q15 48 38.5 91t50.5 69q71 68 179 68q74 0 117 -47l16 16q39 36 93 53t111 17q56 0 94 -26
q13 -6 20.5 -18zM537 680q-18 21 -44 32.5t-58 11.5q-54 0 -88.5 -26t-55 -70t-39.5 -113v-1h206q29 106 79 166z" />
    <glyph glyph-name="f_f_k.liga" unicode="ffk" horiz-adv-x="1125" 
d="M1086.5 513q14.5 -15 14.5 -39q0 -22 -14.5 -45.5t-43.5 -23.5q-20 0 -29.5 11.5t-9.5 28.5q0 14 9 31.5t23 30.5h-2q-11 0 -19 -3.5t-18 -10.5q-14 -11 -24.5 -28.5t-23.5 -47.5q-25 -53 -50.5 -84t-73.5 -42q63 -3 103.5 -26.5t40.5 -73.5q0 -12 -3 -27l-20 -100
q-2 -8 -2 -20q0 -11 5 -16t17 -5q20 0 37.5 23.5t36.5 78.5l12 37h19l-24 -73q-33 -103 -119 -103q-29 0 -47 16t-18 49q0 15 4 30l18 86q4 19 4 37q0 39 -27.5 58t-93.5 24l-80 -286h-87l188 667q5 17 5 28q0 22 -16.5 33t-52.5 11q-57 0 -99.5 -36.5t-67.5 -124.5l-18 -64
h117l-6 -20h-116l-186 -668q-54 -2 -90 -14l188 682h-201l-185 -668q-54 -2 -90 -14l189 682h-92l6 20h91q15 49 38 92t51 68q72 68 179 68q75 0 119 -48q69 60 175 60q108 1 184 41l-140 -498q48 3 78 21.5t46 42.5t34 63q13 30 24.5 49t28.5 32q31 23 60 23q30 0 44.5 -15
zM456 525q29 100 82 155q-18 21 -44.5 32.5t-58.5 11.5q-54 0 -88.5 -26t-55 -70t-39.5 -113v-1h201z" />
    <glyph glyph-name="f_h.liga" unicode="fh" horiz-adv-x="858" 
d="M808 162l-25 -73q-36 -103 -121 -103q-70 0 -70 62q0 30 16 78l95 286q10 28 10 50q0 34 -32 34q-39 0 -84.5 -52t-90.5 -145t-82 -214l-24 -85h-87l188 667q5 17 5 28q0 22 -16.5 33t-52.5 11q-57 0 -99.5 -36.5t-67.5 -124.5l-18 -64h117l-6 -20h-116l-186 -668
q-54 -2 -90 -14l188 682h-91l6 20h91l3 11q63 229 271 229q108 1 184 41l-146 -520q58 136 114 194.5t123 58.5q81 0 81 -76q0 -32 -15 -75l-97 -292q-8 -24 -8 -38q0 -24 24 -24q20 0 38.5 22.5t38.5 79.5l13 37h19z" />
    <glyph glyph-name="f_idieresis.liga" unicode="f&#xef;" horiz-adv-x="569" 
d="M394 85q-7 -21 -7 -37q0 -25 21 -25q22 0 40.5 23.5t37.5 78.5l13 37h19l-25 -73q-36 -103 -121 -103q-58 0 -58 61q0 29 15 79l112 368h-195l-185 -668q-54 -2 -90 -14l189 682h-92l6 20h91q18 70 36.5 115t51.5 78q54 54 131 54q52 0 85 -29l5 -4l2 -2v0q12 -15 12 -33
q0 -25 -20 -45.5t-47 -20.5q-22 0 -36 14.5t-14 36.5q0 19 14 37t34 25q-15 6 -33 6q-20 0 -38 -10t-32 -27q-16 -19 -25.5 -47.5t-24.5 -88.5l-14 -58v-1h195q57 2 91 14zM685.5 728.5q14.5 -14.5 14.5 -35.5q0 -25 -20 -45.5t-47 -20.5q-22 0 -36 14.5t-14 36.5
q0 24 20.5 44.5t46.5 20.5q21 0 35.5 -14.5z" />
    <glyph glyph-name="f_igrave.liga" unicode="f&#xec;" horiz-adv-x="569" 
d="M499 162h19l-25 -73q-36 -103 -121 -103q-58 0 -58 61q0 29 15 79l112 368h-195l-185 -668q-54 -2 -90 -14l189 682h-92l6 20h91q22 77 43.5 123.5t56 73.5t88.5 27q31 0 54 -12q-35 45 -43 58q-10 17 -10 32q0 20 16 28q8 3 16 3q25 0 43 -31q10 -17 33 -75
q26 -69 58 -136l-13 -6q-24 34 -60 80q-19 20 -36 28.5t-42 8.5q-30 0 -49.5 -20.5t-31 -52.5t-26.5 -91l-10 -37v-1h195q57 2 91 14l-144 -443q-7 -21 -7 -38q0 -24 21 -24q22 0 40.5 23.5t37.5 78.5z" />
    <glyph glyph-name="f_j.liga" unicode="fj" horiz-adv-x="571" 
d="M595.5 737q7.5 -12 7.5 -28q0 -31 -23 -54t-52 -23q-22 0 -36.5 14.5t-14.5 35.5q0 4 2 14q4 21 18.5 37.5t33.5 23.5q-29 9 -58 9q-61 0 -101.5 -31t-66.5 -84.5t-49 -135.5v-1h215q57 2 91 14l-116 -413q-69 -247 -195 -293q-29 -10 -59 -10q-23 0 -35 10.5t-12 28.5
q0 22 18 41.5t41 19.5q15 0 24 -8.5t9 -22.5q0 -26 -28 -54q38 5 61 29t38 79l157 559h-215l-139 -494h-86l139 494h-97l6 20h96q19 68 45.5 115.5t62.5 81.5q39 36 93 53t111 17q56 0 94 -26q13 -6 20.5 -18z" />
    <glyph glyph-name="f_k.liga" unicode="fk" horiz-adv-x="837" 
d="M798.5 513q14.5 -15 14.5 -39q0 -22 -14.5 -45.5t-43.5 -23.5q-20 0 -29.5 11.5t-9.5 28.5q0 14 9 31.5t23 30.5h-2q-11 0 -19 -3.5t-18 -10.5q-14 -11 -24.5 -28.5t-23.5 -47.5q-25 -53 -50.5 -84t-73.5 -42q63 -3 103.5 -26.5t40.5 -73.5q0 -12 -3 -27l-20 -100
q-2 -8 -2 -20q0 -11 5 -16t17 -5q20 0 37.5 23.5t36.5 78.5l12 37h19l-24 -73q-33 -103 -119 -103q-29 0 -47 16t-18 49q0 15 4 30l18 86q4 19 4 37q0 39 -27.5 58t-93.5 24l-80 -286h-87l188 667q5 17 5 28q0 22 -16.5 33t-52.5 11q-57 0 -99.5 -36.5t-67.5 -124.5l-18 -64
h117l-6 -20h-116l-186 -668q-54 -2 -90 -14l188 682h-91l6 20h91l3 11q63 229 271 229q108 1 184 41l-140 -498q48 3 78 21.5t46 42.5t34 63q13 30 24.5 49t28.5 32q31 23 60 23q30 0 44.5 -15z" />
    <glyph glyph-name=".notdef" horiz-adv-x="562" 
d="M502 772v-772h-442v772h442zM466 30v712h-370v-712h370z" />
    <glyph glyph-name=".null" 
 />
    <glyph glyph-name="nonmarkingreturn" unicode="&#xd;" horiz-adv-x="253" 
 />
    <glyph glyph-name="NULL" 
 />
    <glyph glyph-name="NULL" 
 />
    <glyph glyph-name="space" unicode=" " horiz-adv-x="253" 
 />
    <glyph glyph-name="exclam" unicode="!" horiz-adv-x="263" 
d="M130 357.5q15 79.5 32 185.5q3 20 15 89t24 111q5 19 17 29t28 10q22 0 34 -11.5t12 -28.5q0 -13 -4 -22q-13 -45 -56 -161q-39 -103 -68 -189t-52 -174l-18 3q21 79 36 158.5zM29.5 90.5q22.5 23.5 51.5 23.5q23 0 37 -15t14 -37q0 -30 -23 -53t-52 -23q-22 0 -36 14.5
t-14 36.5q0 30 22.5 53.5z" />
    <glyph glyph-name="quotedbl" unicode="&#x22;" horiz-adv-x="296" 
d="M225.5 661q-7.5 -18 -25.5 -51q-26 -45 -46 -92h-14q7 53 11 100q3 43 9 70q5 21 16.5 31.5t25.5 10.5q16 0 23.5 -9t7.5 -24q0 -18 -7.5 -36zM334.5 661q-7.5 -18 -25.5 -51q-26 -45 -46 -92h-14q7 53 11 100q3 43 9 70q5 21 16.5 31.5t25.5 10.5q16 0 23.5 -9t7.5 -24
q0 -18 -7.5 -36z" />
    <glyph glyph-name="numbersign" unicode="#" horiz-adv-x="639" 
d="M481 434l-77 -167h143l-10 -20h-142l-68 -146h-24l68 146h-163l-68 -146h-24l68 146h-147l9 20h147l77 167h-146l8 20h147l69 148h24l-69 -148h163l69 148h24l-69 -148h143l-8 -20h-144zM457 434h-163l-77 -167h163z" />
    <glyph glyph-name="dollar" unicode="$" horiz-adv-x="551" 
d="M553.5 620q16.5 -29 16.5 -61t-16.5 -55.5t-43.5 -23.5q-25 0 -38 19t-13 46q0 29 10.5 53.5t28.5 52.5q-22 22 -57 37l-87 -314q55 -51 85 -95t30 -97q0 -60 -32 -102t-82.5 -65t-108.5 -28l-33 -119h-22l33 118h-8q-42 0 -72 9l-35 -127h-22l37 133q-29 11 -48.5 26
t-22.5 17q-22 17 -37 45t-15 60t16.5 55.5t43.5 23.5q25 0 38 -19t13 -46q0 -29 -10.5 -53t-28.5 -53q23 -23 57 -36l91 330q-41 42 -63.5 82.5t-22.5 93.5q0 83 55 133.5t134 59.5l33 120h22l-33 -118h9q39 0 71 -8l35 126h22l-37 -133q20 -7 34.5 -16.5t24.5 -17t13 -9.5
q19 -15 35.5 -44zM421 694q-30 9 -65 9h-15l-69 -249q24 -26 64 -63zM255 474l63 226q-47 -9 -74.5 -40t-27.5 -84q0 -49 39 -102zM229 6l74 265q-15 17 -48 47l-17 16l-88 -319q30 -9 69 -9h10zM320 251l-68 -243q54 7 84 37.5t30 85.5q0 62 -46 120z" />
    <glyph glyph-name="percent" unicode="%" horiz-adv-x="766" 
d="M839 811l-833 -866l-15 13l833 866zM139.5 640q27.5 53 75 87t104.5 34q53 0 82 -27.5t29 -76.5q0 -53 -27 -106t-74.5 -87t-104.5 -34q-53 0 -82.5 27t-29.5 77q0 53 27.5 106zM241 703q-30 -40 -46 -94t-16 -94q0 -67 52 -67q40 0 70 40t46 94.5t16 94.5
q0 33 -13.5 49.5t-38.5 16.5q-40 0 -70 -40zM403.5 196q27.5 53 75 87t104.5 34q53 0 82 -27.5t29 -76.5q0 -53 -27 -106t-74.5 -87t-104.5 -34q-53 0 -82.5 27t-29.5 77q0 53 27.5 106zM505 259q-30 -40 -46 -94t-16 -94q0 -67 52 -67q40 0 70 40t46 94.5t16 94.5
q0 33 -13.5 49.5t-38.5 16.5q-40 0 -70 -40z" />
    <glyph glyph-name="ampersand" unicode="&#x26;" horiz-adv-x="817" 
d="M834.5 694q33.5 -28 33.5 -86q0 -51 -29 -90t-93 -71q-44 -22 -160 -64q73 -61 73 -150q0 -67 -40 -123.5t-115.5 -90t-177.5 -33.5q-133 0 -210.5 56.5t-77.5 154.5q0 88 60.5 156.5t154.5 94.5q-34 18 -52 48t-18 64q0 44 29.5 76t75.5 49t93 17q56 0 89.5 -24
t33.5 -63q0 -36 -26 -55.5t-59 -19.5l2 18q28 0 45 14.5t17 40.5q0 33 -27.5 53t-69.5 20q-61 0 -101 -42t-40 -107q0 -46 22 -83q36 6 63 6q36 0 36 -21q0 -10 -9 -15.5t-22 -5.5q-25 0 -69 22q-68 -20 -110.5 -74.5t-42.5 -122.5q0 -87 69.5 -135t181.5 -48q77 0 140 23
t99 65.5t36 97.5q0 36 -17 71.5t-50 59.5l-127 -47q-45 -17 -75 -40t-30 -59q0 -31 24.5 -49t60.5 -18q39 0 64 19t38 40l13 -9q-40 -66 -119 -66q-46 0 -77 23t-31 75q0 58 41.5 96t124.5 69l49 18q51 18 112.5 40.5t97.5 40.5q49 23 76 49.5t27 61.5q0 37 -28.5 61.5
t-70.5 24.5q-26 0 -32 -9q10 -6 15.5 -16t5.5 -22q0 -23 -20 -40t-46 -17q-20 0 -32.5 11t-12.5 31q0 21 14 37t36 26q32 14 73 14q58 0 91.5 -28z" />
    <glyph glyph-name="quotesingle" unicode="'" horiz-adv-x="187" 
d="M225.5 661q-7.5 -18 -25.5 -51q-26 -45 -46 -92h-14q7 53 11 100q3 43 9 70q5 21 16.5 31.5t25.5 10.5q16 0 23.5 -9t7.5 -24q0 -18 -7.5 -36z" />
    <glyph glyph-name="parenleft" unicode="(" horiz-adv-x="361" 
d="M80.5 6q-42.5 93 -42.5 217q0 108 56 216.5t154 202.5t223 164l10 -13q-176 -118 -271 -259.5t-95 -321.5q0 -226 110 -381l-18 -13q-84 95 -126.5 188z" />
    <glyph glyph-name="parenright" unicode=")" horiz-adv-x="361" 
d="M289.5 618q42.5 -93 42.5 -217q0 -108 -56 -216.5t-154 -202.5t-223 -164l-10 13q176 118 271 259.5t95 321.5q0 226 -110 381l18 13q84 -95 126.5 -188z" />
    <glyph glyph-name="asterisk" unicode="*" horiz-adv-x="495" 
d="M512 614q0 -12 -10.5 -25t-32.5 -24q-19 -9 -46 -17t-58 -15l-55 -14q45 -13 55 -16q26 -8 49 -15.5t35 -15.5q24 -15 24 -36q0 -13 -9 -24q-11 -16 -31 -16q-15 0 -33 12q-13 8 -24 20t-30 36q-21 27 -38 46l3 -64q2 -38 2 -52q0 -13 -2 -33q-7 -28 -21 -41t-30 -13
q-11 0 -18.5 7.5t-7.5 24.5q0 10 3 22q3 20 14 44.5t33 68.5l20 41h-1q-16 -13 -29 -24t-23 -19q-25 -21 -47.5 -38.5t-38.5 -26.5q-22 -11 -39 -11q-20 0 -27 17q-2 6 -2 9q0 25 43 49q18 9 45 16.5t57 15.5q40 9 56 14q-9 3 -56 17q-33 9 -51.5 15.5t-30.5 14.5
q-24 15 -24 36q0 14 9 24q11 16 31 16q15 0 33 -12q13 -8 24 -20t31 -37q27 -34 40 -49q-2 20 -2 28q-6 70 -6 89q0 20 3 36q6 28 20 41t29 13q12 0 19.5 -8t7.5 -24q0 -10 -3 -22q-3 -18 -11.5 -38.5t-26.5 -58.5q-7 -14 -25 -54q11 9 24 19.5t26 21.5q24 20 46.5 37.5
t38.5 26.5q22 11 39 11q20 0 27 -17q2 -6 2 -9z" />
    <glyph glyph-name="plus" unicode="+" horiz-adv-x="585" 
d="M296 370l67 236h36l-67 -236h232l-9 -30h-232l-67 -235h-36l67 235h-233l9 30h233z" />
    <glyph glyph-name="comma" unicode="," horiz-adv-x="252" 
d="M89.5 -49.5q-39.5 -51.5 -107.5 -84.5l-5 14q47 29 75 63t31 68q-29 -25 -52 -25q-18 0 -28 9.5t-10 25.5q0 21 13.5 43t35 36t43.5 14t33 -17t11 -42q0 -53 -39.5 -104.5z" />
    <glyph glyph-name="hyphen" unicode="-" horiz-adv-x="504" 
d="M429 283l-15 -58h-361l15 58h361z" />
    <glyph glyph-name="period" unicode="." horiz-adv-x="244" 
d="M21.5 90.5q22.5 23.5 51.5 23.5q23 0 37 -15t14 -37q0 -30 -23 -53t-52 -23q-22 0 -36 14.5t-14 36.5q0 30 22.5 53.5z" />
    <glyph glyph-name="slash" unicode="/" horiz-adv-x="468" 
d="M508 722h33l-548 -736h-33z" />
    <glyph glyph-name="zero" unicode="0" horiz-adv-x="565" 
d="M472.5 482.5q40.5 -46.5 40.5 -130.5q0 -89 -43.5 -174t-117 -138.5t-157.5 -53.5q-77 0 -120.5 46t-43.5 132q0 89 45.5 174t120.5 138t159 53q76 0 116.5 -46.5zM233.5 460.5q-49.5 -50.5 -80 -133t-30.5 -172.5q0 -151 91 -151q56 0 103.5 53t75.5 137.5t28 172.5
q0 77 -22 110.5t-62 33.5q-54 0 -103.5 -50.5z" />
    <glyph glyph-name="one" unicode="1" horiz-adv-x="342" 
d="M159 0h-87l128 433q-58 -33 -150 -61l3 21q83 25 133.5 56t107.5 77h20z" />
    <glyph glyph-name="two" unicode="2" horiz-adv-x="503" 
d="M402.5 502q36.5 -26 36.5 -73q0 -49 -39.5 -99.5t-92.5 -92.5t-129 -95q-56 -39 -75 -55q27 0 103 -14q78 -14 109 -14q69 0 69 48q0 37 -44 57l13 13q55 -26 55 -79q0 -43 -31.5 -73.5t-93.5 -30.5q-21 0 -41 3.5t-49 10.5q-31 8 -55.5 12t-51.5 4q-29 0 -52.5 -5.5
t-54.5 -18.5l5 21q11 9 32 23.5t33 23.5q86 61 146.5 110.5t106.5 112.5t46 127q0 41 -20 64.5t-57 23.5q-36 0 -76.5 -24t-67.5 -61.5t-27 -75.5q0 -25 13.5 -36.5t44.5 -11.5q26 0 46.5 9.5t45.5 31.5l12 -14q-26 -25 -55 -36.5t-56 -11.5q-31 0 -53 15t-22 53
q0 44 31.5 87t84 70t112.5 27q62 0 98.5 -26z" />
    <glyph glyph-name="three" unicode="3" horiz-adv-x="485" 
d="M401.5 505q36.5 -26 36.5 -73q0 -43 -31.5 -80t-79.5 -63.5t-96 -38.5q70 -2 115 -31.5t45 -82.5q0 -86 -75.5 -151t-186 -99.5t-209.5 -36.5l5 18q86 5 172 38.5t143.5 94.5t57.5 143q0 40 -22.5 64.5t-62.5 26.5q-16 -7 -31.5 -12t-26.5 -5q-22 0 -17 15q4 19 48 19
l19 -1q62 24 104.5 69.5t42.5 99.5q0 42 -22 66t-60 24q-34 0 -72 -19.5t-63.5 -50t-25.5 -61.5q0 -25 13.5 -36.5t44.5 -11.5q33 0 62 15l11 -15q-39 -21 -80 -21q-31 0 -53 15t-22 53q0 36 30 72t80 59t108 23q62 0 98.5 -26z" />
    <glyph glyph-name="four" unicode="4" horiz-adv-x="515" 
d="M418 34h-133l-47 -175h-87l47 175h-249l6 21l436 474h26l-117 -438h134zM213 91l82 307l-281 -307h199z" />
    <glyph glyph-name="five" unicode="5" horiz-adv-x="459" 
d="M439 531q-51 -110 -137 -110q-22 0 -56 19q-3 2 -15.5 7.5t-22.5 7.5t-17 1l-112 -229q32 17 65.5 25.5t74.5 8.5q77 0 115 -31t38 -83q0 -92 -73 -157.5t-179 -100t-201 -37.5l5 18q81 1 163 33.5t136 95t54 146.5q0 40 -26 63t-79 23q-52 0 -111 -27l-10 5l150 309
q30 1 65 -11q40 -14 78 -14q57 0 83 45z" />
    <glyph glyph-name="six" unicode="6" horiz-adv-x="527" 
d="M530 702q-96 -23 -189.5 -105t-153.5 -203.5t-60 -256.5q0 -73 18 -102t54 -29q53 0 94 49t63.5 120t22.5 133q0 101 -65 101q-33 0 -64 -28.5t-54 -93.5l-16 6q25 78 70.5 111.5t96.5 33.5q57 0 91.5 -39.5t34.5 -110.5q0 -77 -40 -147t-107 -112.5t-143 -42.5
q-75 0 -111 45t-36 134q0 142 80.5 263t195.5 198.5t212 95.5z" />
    <glyph glyph-name="seven" unicode="7" horiz-adv-x="487" 
d="M541 514q-23 -32 -94 -113q-66 -76 -110.5 -133.5t-84.5 -130.5t-62 -155q-4 -14 -12 -53l-5 -26q-6 -22 -22.5 -36.5t-39.5 -14.5q-31 0 -31 34q0 6 2 22q11 64 58.5 141.5t106 149t142.5 165.5q63 70 90 104q-63 -42 -146 -42q-28 0 -50.5 4t-49.5 12q-45 13 -74 13
q-39 0 -62.5 -17t-23.5 -50q0 -42 34 -70t105 -45l-6 -15q-157 30 -157 141q0 30 15.5 58t47 45.5t78.5 17.5q30 0 54.5 -6t63.5 -19q35 -13 59.5 -19t53.5 -6q31 0 53.5 9.5t40.5 34.5h26z" />
    <glyph glyph-name="eight" unicode="8" horiz-adv-x="544" 
d="M339 396q40 -38 63 -64.5t39.5 -61.5t16.5 -77q0 -62 -36 -109t-98 -72.5t-137 -25.5q-81 0 -129 32t-48 97q0 82 70 147t169 108q-45 44 -68.5 81.5t-23.5 86.5q0 54 34.5 96t89.5 65t115 23q63 0 102 -26.5t39 -79.5q0 -114 -198 -220zM419 500.5q37 57.5 37 118.5
q0 85 -78 85q-37 0 -69 -18.5t-50.5 -51.5t-18.5 -74q0 -42 22.5 -77t65.5 -76q54 36 91 93.5zM354.5 243q-14.5 32 -36 56.5t-57.5 59.5q-72 -40 -117.5 -109t-45.5 -144q0 -48 22.5 -75t75.5 -27q45 0 85 20t64 58.5t24 89.5q0 39 -14.5 71z" />
    <glyph glyph-name="nine" unicode="9" horiz-adv-x="513" 
d="M430 483q36 -45 36 -134q0 -137 -78.5 -254t-191.5 -191.5t-208 -91.5l-6 20q94 22 185 101t149.5 196.5t58.5 247.5q0 73 -18 102t-54 29q-53 0 -94 -49t-63.5 -120t-22.5 -133q0 -101 65 -101q33 0 64 28.5t54 93.5l16 -6q-25 -78 -70.5 -111.5t-96.5 -33.5
q-57 0 -91.5 39.5t-34.5 110.5q0 77 40 147t107 112.5t143 42.5q75 0 111 -45z" />
    <glyph glyph-name="colon" unicode=":" horiz-adv-x="278" 
d="M138.5 504.5q22.5 23.5 51.5 23.5q23 0 37 -15t14 -37q0 -30 -23 -53t-52 -23q-22 0 -36 14.5t-14 36.5q0 30 22.5 53.5zM38.5 90.5q22.5 23.5 51.5 23.5q23 0 37 -15t14 -37q0 -30 -23 -53t-52 -23q-22 0 -36 14.5t-14 36.5q0 30 22.5 53.5z" />
    <glyph glyph-name="semicolon" unicode=";" horiz-adv-x="287" 
d="M139.5 504.5q22.5 23.5 51.5 23.5q23 0 37 -15t14 -37q0 -30 -23 -53t-52 -23q-22 0 -36 14.5t-14 36.5q0 30 22.5 53.5zM109.5 -49.5q-39.5 -51.5 -107.5 -84.5l-5 14q47 29 75 63t31 68q-29 -25 -52 -25q-18 0 -28 9.5t-10 25.5q0 21 13.5 43t35 36t43.5 14t33 -17
t11 -42q0 -53 -39.5 -104.5z" />
    <glyph glyph-name="less" unicode="&#x3c;" horiz-adv-x="602" 
d="M613 553l-487 -202l331 -174l-16 -32l-390 210l552 227z" />
    <glyph glyph-name="equal" unicode="=" horiz-adv-x="663" 
d="M119 440h501l-9 -30h-501zM79 300h501l-9 -30h-501z" />
    <glyph glyph-name="greater" unicode="&#x3e;" horiz-adv-x="602" 
d="M52 184l460 192l-370 198l16 29l429 -231l-525 -217z" />
    <glyph glyph-name="question" unicode="?" horiz-adv-x="438" 
d="M246.5 752q-31.5 -13 -39.5 -36q9 -2 17 -13.5t8 -26.5q0 -21 -15.5 -35t-37.5 -14q-20 0 -30 11.5t-10 30.5q0 32 27 58t71 40.5t90 14.5q67 0 107.5 -31t40.5 -87q0 -48 -36.5 -97.5t-128.5 -120.5q-6 -5 -53 -40q-62 -45 -85 -70.5t-23 -61.5q0 -30 17 -49.5t54 -19.5
q30 0 58 12t38 32q-10 1 -18.5 11.5t-7.5 23.5q0 16 13 28.5t32 12.5q15 0 24.5 -8.5t9.5 -26.5q0 -30 -26 -53t-65 -36t-77 -13q-52 0 -83.5 25t-31.5 72q0 36 19.5 67.5t50 57.5t85.5 67l31 23q74 56 102 91t28 80q0 43 -23 68.5t-68 25.5q-33 0 -64.5 -13zM129.5 90.5
q22.5 23.5 51.5 23.5q23 0 37 -15t14 -37q0 -30 -23 -53t-52 -23q-22 0 -36 14.5t-14 36.5q0 30 22.5 53.5z" />
    <glyph glyph-name="at" unicode="@" horiz-adv-x="848" 
d="M462 91q0 21 9 55q-30 -62 -65 -91t-83 -29q-54 0 -78.5 33t-24.5 88q0 74 39 152t100 128.5t121 50.5t66 -64l14 50q57 0 90 14l-106 -367q-6 -21 -6 -34q0 -14 7 -20t22 -6q38 0 95 42.5t99.5 120.5t42.5 180q0 131 -81.5 193.5t-209.5 62.5q-120 0 -227.5 -69.5
t-172 -186t-64.5 -249.5q0 -147 81.5 -217.5t218.5 -70.5q116 0 206 54l7 -13q-39 -27 -94 -43t-120 -16q-146 0 -232.5 75.5t-86.5 228.5q0 134 65 255t176 195.5t242 74.5q140 0 226 -68t86 -207q0 -106 -46.5 -190t-114.5 -130.5t-129 -46.5q-72 0 -72 65zM429 107
q35 51 75 157l34 121q-1 37 -14.5 53.5t-39.5 16.5q-47 0 -88 -45.5t-66 -116t-25 -140.5q0 -97 52 -97q37 0 72 51z" />
    <glyph glyph-name="A" unicode="A" horiz-adv-x="629" 
d="M521 36q14 -15 32 -16l-4 -20q-40 3 -109 3q-81 0 -120 -3l4 20q34 2 52.5 8.5t26.5 24t7 51.5l-9 164h-246l-75 -106q-47 -66 -47 -99q0 -41 74 -43l-5 -20q-55 3 -114 3q-43 0 -75 -3l5 20q46 10 100 87l431 606h15l40 -629q3 -33 17 -48zM400 288l-17 303l-214 -303
h231z" />
    <glyph glyph-name="B" unicode="B" horiz-adv-x="632" 
d="M520.5 317q38.5 -43 38.5 -106q0 -68 -43 -115.5t-111.5 -71.5t-143.5 -24l-73 1q-60 2 -99 2q-80 0 -122 -3l4 20q36 2 54 8t28.5 23t20.5 55l132 496q8 30 8 48q0 19 -14.5 28t-52.5 10l5 20q40 -3 119 -3q45 0 68 1l73 1q93 0 140.5 -34t47.5 -94q0 -72 -59.5 -125
t-145.5 -80q87 -14 125.5 -57zM238 376h66q59 0 103.5 27t69 72t24.5 97q0 59 -26 87.5t-82 28.5q-44 0 -62 -14t-29 -57zM402 74.5q57 51.5 57 151.5q0 133 -143 133h-82l-67 -253q-9 -36 -9 -49q0 -18 13.5 -26t46.5 -8q127 0 184 51.5z" />
    <glyph glyph-name="C" unicode="C" horiz-adv-x="670" 
d="M648 478h-22q6 39 6 69q0 48 -16 79q-18 37 -53.5 57.5t-77.5 20.5q-83 0 -160.5 -78t-125.5 -196.5t-48 -229.5q0 -96 38 -146t105 -50q44 0 93 20.5t85 57.5q26 26 45 60.5t45 97.5h22q-47 -173 -59 -240h-22q3 21 3 34q0 26 -12 26q-7 0 -21 -9q-52 -34 -91 -49.5
t-98 -15.5q-111 0 -172 60t-61 175t57.5 232t158 193t220.5 76q58 0 88.5 -16.5t60.5 -48.5q7 -9 15 -9q9 0 18.5 14.5t21.5 45.5h21q-33 -86 -64 -230z" />
    <glyph glyph-name="D" unicode="D" horiz-adv-x="725" 
d="M642 249.5q-62 -112.5 -170.5 -181t-241.5 -68.5l-58 1q-56 2 -82 2q-81 0 -120 -3l3 20q34 2 51.5 8t28 23.5t20.5 54.5l131 496q9 38 9 49q0 20 -14.5 28t-52.5 9l3 20q34 -3 97 -3l85 1q68 2 91 2q141 0 211.5 -56t70.5 -165q0 -125 -62 -237.5zM430 85.5
q88 67.5 133 180.5t45 246q0 91 -51 134.5t-163 43.5q-31 0 -48.5 -7t-28.5 -25t-20 -54l-131 -500q-9 -36 -9 -49q0 -19 13.5 -28t47.5 -9q124 0 212 67.5z" />
    <glyph glyph-name="E" unicode="E" horiz-adv-x="610" 
d="M642 708q-26 -72 -38 -118q-11 -36 -14 -62h-23q9 58 9 80q0 43 -22 60t-79 17h-73q-36 0 -53.5 -5.5t-28.5 -22.5t-21 -55l-63 -236h66q35 0 58 16.5t36 38.5t26 56q3 10 8 21h23q-21 -66 -35 -119l-6 -23q-14 -53 -32 -142h-23l3 20q1 7 3 22t2 26q0 30 -15.5 47
t-53.5 17h-66l-64 -240q-9 -31 -9 -49q0 -21 15 -27.5t53 -6.5h73q62 0 99 16.5t61.5 53t50.5 107.5h23q-11 -29 -22 -72q-16 -56 -27 -128q-68 3 -229 3q-192 0 -289 -3l5 20q36 2 53.5 8t28.5 23t21 55l133 496q9 32 9 49q0 21 -14.5 28t-52.5 9l5 20q98 -3 290 -3
q140 0 199 3z" />
    <glyph glyph-name="F" unicode="F" horiz-adv-x="566" 
d="M642 708q-25 -71 -41 -128q-10 -37 -19 -82h-23q11 64 11 100q0 48 -25 67.5t-90 19.5h-53q-36 0 -53.5 -5.5t-28.5 -22.5t-21 -55l-66 -246h73q51 0 76 30.5t36.5 61.5t15.5 40h23q-21 -66 -35 -119l-6 -23q-16 -66 -32 -142h-23l3 22q5 27 5 47q0 30 -15 46.5t-53 16.5
h-73l-62 -230q-8 -30 -8 -44q0 -24 18.5 -32t67.5 -10l-5 -20q-52 3 -147 3q-85 0 -127 -3l5 20q36 2 53.5 8t28.5 23t21 55l133 496q9 32 9 49q0 21 -14.5 28t-52.5 9l5 20q98 -3 290 -3q140 0 199 3z" />
    <glyph glyph-name="G" unicode="G" horiz-adv-x="705" 
d="M378.5 15q29.5 9 51.5 22q20 12 30 27t16 36l23 88q9 33 9 52q0 25 -18 33.5t-66 10.5l5 20q53 -3 140 -3q69 0 105 3l-5 -20q-24 -2 -35.5 -8t-20 -22.5t-18.5 -55.5l-53 -198h-20q3 12 3 26q0 31 -15 31q-6 0 -13.5 -3t-24.5 -14q-42 -26 -83 -40t-87 -14
q-122 0 -187 59.5t-65 169.5q0 116 56.5 234t157 195.5t224.5 77.5q60 0 95.5 -16.5t68.5 -48.5q9 -9 17 -9q10 0 19.5 14t20.5 46h22q-33 -86 -64 -230h-22q5 43 5 75q0 46 -14 73q-21 37 -62 57.5t-92 20.5q-103 0 -180.5 -87t-118 -210t-40.5 -225q0 -90 42.5 -133
t130.5 -43q33 0 62.5 9z" />
    <glyph glyph-name="H" unicode="H" horiz-adv-x="755" 
d="M820 708l-5 -20q-37 -2 -54.5 -8t-28 -23t-20.5 -55l-132 -496q-9 -38 -9 -49q0 -21 14.5 -28t53.5 -9l-4 -20q-42 3 -128 3q-80 0 -127 -3l4 20q36 2 54 8t28.5 23t20.5 55l64 240h-321l-64 -240q-9 -38 -9 -49q0 -21 14.5 -28t53.5 -9l-4 -20q-46 3 -127 3
q-84 0 -127 -3l5 20q35 2 52.5 8t28 23.5t20.5 54.5l132 496q8 34 8 48q0 22 -14.5 29t-52.5 9l5 20q41 -3 127 -3q80 0 128 3l-5 -20q-37 -2 -54.5 -8t-28 -23t-20.5 -55l-63 -236h321l63 236q9 32 9 48q0 22 -15 29t-53 9l5 20q45 -3 126 -3q86 0 129 3z" />
    <glyph glyph-name="I" unicode="I" horiz-adv-x="341" 
d="M157 57q0 -21 14.5 -28t53.5 -9l-4 -20q-46 3 -127 3q-84 0 -127 -3l5 20q35 2 52.5 8t28 23.5t20.5 54.5l132 496q8 34 8 48q0 22 -14.5 29t-52.5 9l5 20q41 -3 127 -3q80 0 128 3l-5 -20q-37 -2 -54.5 -8t-28 -23t-20.5 -55l-132 -496q-9 -38 -9 -49z" />
    <glyph glyph-name="J" unicode="J" horiz-adv-x="636" 
d="M743 718q0 -24 -73 -52q-140 -93 -208 -300h99l-3 -20h-102q-8 -26 -11 -39l-62 -242q-29 -112 -88 -182.5t-148 -70.5q-47 0 -74.5 14.5t-27.5 42.5q0 22 16 39.5t39 17.5q18 0 30 -12t12 -30q0 -16 -11.5 -29.5t-28.5 -21.5q15 -5 35 -5q45 0 74.5 34t47 85t39.5 141
q4 19 14 57l30 117q13 48 28 84h-133l3 20h138q42 91 107 157t168 140q-116 -60 -198 -60q-32 0 -58.5 7t-63.5 21q-39 14 -65 21t-59 7q-32 0 -48.5 -16t-16.5 -45q0 -64 74 -78l-3 -20q-47 8 -78.5 37.5t-31.5 85.5q0 51 31 83.5t85 32.5q37 0 66.5 -14t66.5 -40
q38 -27 66.5 -40t63.5 -13q46 0 82 10t95 35q38 58 63 58q8 0 13 -5q6 -6 6 -12z" />
    <glyph glyph-name="K" unicode="K" horiz-adv-x="675" 
d="M692.5 707q14.5 -15 14.5 -39q0 -22 -14.5 -45.5t-43.5 -23.5q-20 0 -29.5 11.5t-9.5 28.5q0 14 9 31.5t23 30.5h-3q-20 -1 -36 -14q-17 -15 -28.5 -40.5t-29.5 -75.5q-21 -59 -40 -97.5t-52 -68t-83 -36.5q37 -8 59 -21.5t34 -47t10 -95.5l-4 -113q-1 -26 4.5 -38.5
t25.5 -12.5q25 0 42.5 18.5t31.5 59.5l17 51h20l-26 -77q-19 -55 -49 -81t-73 -26q-92 0 -84 116l7 113q1 13 1 36q0 46 -9 69t-28 38q-37 -9 -57 -9q-31 0 -31 20t30 20q22 0 61 -10q51 6 83.5 34.5t50 65.5t38.5 96q18 52 31 79.5t33 44.5q29 23 60 23q30 0 44.5 -15z
M157 57q0 -21 14.5 -28t53.5 -9l-4 -20q-46 3 -127 3q-84 0 -127 -3l5 20q35 2 52.5 8t28 23.5t20.5 54.5l132 496q8 34 8 48q0 22 -14.5 29t-52.5 9l5 20q41 -3 127 -3q80 0 128 3l-5 -20q-37 -2 -54.5 -8t-28 -23t-20.5 -55l-132 -496q-9 -38 -9 -49z" />
    <glyph glyph-name="L" unicode="L" horiz-adv-x="586" 
d="M510 128q-16 -56 -27 -128q-68 3 -229 3q-192 0 -289 -3l5 20q36 2 53.5 8t28.5 23t21 55l133 496q9 32 9 49q0 21 -14.5 28t-52.5 9l5 20q42 -3 128 -3q81 0 127 3l-5 -20q-37 -2 -54.5 -8t-28.5 -23t-21 -55l-133 -496q-9 -31 -9 -49q0 -21 15 -27.5t53 -6.5h73
q62 0 99.5 17.5t62.5 56.5t52 113h23q-7 -19 -25 -82z" />
    <glyph glyph-name="M" unicode="M" horiz-adv-x="868" 
d="M808 705q77 0 125 3l-5 -20q-37 -2 -54.5 -8t-28 -23t-20.5 -55l-132 -496q-8 -34 -8 -48q0 -22 14.5 -29t52.5 -9l-4 -20q-46 3 -124 3q-88 0 -130 -3l4 20q37 2 54.5 8t28 23t20.5 55l145 539l-415 -650h-22l-68 658l-142 -537q-8 -34 -8 -50q0 -25 16.5 -34.5
t58.5 -11.5l-5 -20q-34 3 -101 3q-59 0 -94 -3l5 20q35 2 54 10.5t30 27.5t21 58l130 486q8 34 8 48q0 22 -14.5 29t-52.5 9l5 20q32 -3 89 -3q53 0 88 3l55 -593l376 590h48z" />
    <glyph glyph-name="N" unicode="N" horiz-adv-x="770" 
d="M858 740q14 -14 14 -37q0 -27 -16 -49.5t-43 -22.5q-20 0 -29 11.5t-9 27.5t9 33t23 30h-3q-49 -1 -82 -51q-44 -66 -92 -232.5t-109 -454.5h-22l-228 644q-49 -251 -92.5 -424t-83.5 -226q-22 -29 -46.5 -46t-60.5 -17q-60 0 -60 52q0 27 16 49t43 22q20 0 29 -11.5
t9 -27.5t-9 -33t-23 -30h3q51 1 83 52q37 59 77 211t87 392q6 29 6 45q0 24 -16 31.5t-61 9.5l5 20q32 -3 89 -3q46 0 81 3l189 -553q43 192 84 332.5t84 202.5q44 64 108 64q32 0 46 -14z" />
    <glyph glyph-name="O" unicode="O" horiz-adv-x="729" 
d="M107 455q53 116 148.5 191.5t215.5 75.5q112 0 174 -63t62 -178q0 -113 -53.5 -228.5t-149.5 -191t-215 -75.5q-111 0 -173 63t-62 177q0 113 53 229zM316.5 632q-70.5 -72 -113.5 -186.5t-43 -232.5q0 -97 38 -153t100 -56q75 0 145.5 72t113.5 186.5t43 232.5
q0 97 -38 153t-100 56q-75 0 -145.5 -72z" />
    <glyph glyph-name="P" unicode="P" horiz-adv-x="589" 
d="M569.5 666.5q50.5 -40.5 50.5 -110.5q0 -78 -47.5 -140t-133.5 -97t-196 -35h-30l-47 -178q-2 -7 -6 -23.5t-4 -26.5q0 -19 15 -27t54 -9l-4 -20q-46 3 -124 3q-88 0 -130 -3l4 20q36 2 54 8t28.5 23t20.5 55l132 496q9 36 9 48q0 20 -15 28.5t-53 9.5l5 20q40 -3 123 -3
q48 0 72 1l74 1q98 0 148.5 -40.5zM456 377q63 73 63 195q0 59 -30 87.5t-97 28.5q-30 0 -47 -7.5t-27.5 -25.5t-19.5 -53l-79 -298h34q140 0 203 73z" />
    <glyph glyph-name="Q" unicode="Q" horiz-adv-x="781" 
d="M683 34.5q14 -15.5 14 -41.5q0 -44 -39 -86t-98.5 -68.5t-118.5 -26.5q-70 0 -124 35.5t-116 100.5q-84 -30 -142 -30q-49 0 -76.5 19.5t-27.5 54.5q0 39 34.5 64t87.5 25q51 0 90 -21.5t97 -67.5q99 51 187 135t142.5 184.5t54.5 197.5q0 89 -44.5 142t-126.5 53
q-74 0 -132 -43t-90 -111t-32 -141q0 -72 31 -107.5t83 -35.5q44 0 80 24t56.5 61t20.5 73q0 27 -7 40q-10 -21 -31 -33t-43 -12t-34.5 13t-12.5 34q0 26 19.5 43.5t49.5 17.5q36 0 57.5 -27t21.5 -71q0 -49 -27.5 -92t-76.5 -68.5t-111 -25.5q-84 0 -131 48t-47 127
q0 85 53.5 155t139.5 109.5t180 39.5q120 0 189 -55t69 -152q0 -101 -69.5 -204.5t-178.5 -189.5t-225 -141q62 -48 116.5 -74t128.5 -26q50 0 85.5 15.5t58.5 52.5q-15 -6 -31 -6q-23 0 -36 13.5t-13 34.5q0 24 17 42t42 18q22 0 36 -15.5zM190 -40q-49 52 -79.5 75.5
t-63.5 23.5q-29 0 -51 -18t-22 -47q0 -59 96 -59q50 0 120 25z" />
    <glyph glyph-name="R" unicode="R" horiz-adv-x="664" 
d="M592 121h23l-4 -13q-18 -63 -45.5 -92.5t-73.5 -29.5q-47 0 -70 28t-20 68l8 112q1 12 1 32q0 42 -15 65t-54.5 33.5t-114.5 11.5l-61 -230q-9 -30 -9 -49q0 -20 14.5 -28t53.5 -9l-4 -20q-46 3 -124 3q-88 0 -130 -3l4 20q36 2 54 8t28.5 23t20.5 55l132 496q9 34 9 47
q0 21 -15 29.5t-53 9.5l5 20q40 -3 123 -3q48 0 72 1l74 1q98 0 148.5 -37.5t50.5 -103.5q0 -82 -71 -142t-190 -80q13 -1 35 -5q59 -11 85 -35t26 -77q0 -13 -1 -20l-8 -102q-1 -7 -1 -21q0 -61 32 -61q17 0 31 20.5t29 63.5zM233 356h30q135 0 195.5 59t60.5 157
q0 59 -30 87.5t-97 28.5q-30 0 -47 -7.5t-27.5 -25.5t-19.5 -53z" />
    <glyph glyph-name="S" unicode="S" horiz-adv-x="554" 
d="M517 511h-20q6 29 6 57q0 59 -35 97t-107 38q-63 0 -101.5 -32t-38.5 -95q0 -49 30.5 -90t91.5 -97q43 -39 69 -68t44 -64t18 -75q0 -65 -37.5 -109.5t-95.5 -65.5t-120 -21q-53 0 -84.5 13t-57.5 33q-19 15 -36 15q-12 0 -20 -12t-21 -42h-20q16 38 31.5 91.5
t36.5 148.5h20q-9 -47 -9 -74q0 -73 40 -113t123 -40q68 0 107.5 31t39.5 94q0 38 -15 70t-36.5 56.5t-59.5 61.5q-40 38 -63.5 65t-40 63t-16.5 80q0 62 31.5 106t82 66.5t106.5 22.5q41 0 71 -10t59 -32q24 -18 33 -18q8 0 15.5 12.5t17.5 40.5h20q-36 -91 -59 -204z" />
    <glyph glyph-name="T" unicode="T" horiz-adv-x="659" 
d="M801.5 803.5q11.5 -13.5 11.5 -34.5q0 -22 -13 -40.5t-34 -31.5q-53 -33 -158 -33q-44 0 -102 7l-148 -555q-9 -31 -9 -51q0 -25 18.5 -34.5t65.5 -10.5l-4 -20q-52 3 -149 3q-98 0 -146 -3l4 20q42 2 65.5 10.5t36.5 28t25 57.5l151 567q-81 11 -129 11q-87 0 -112 -17
q8 -11 13 -27t5 -31q0 -23 -13 -40.5t-37 -17.5q-21 0 -32.5 13.5t-11.5 36.5q0 52 53 78q47 23 134 23q40 0 76 -3.5t91 -10.5q52 -7 87.5 -10.5t74.5 -3.5q45 0 75 5t54 17q-25 25 -25 56q0 22 12.5 38.5t36.5 16.5q22 0 33.5 -13.5z" />
    <glyph glyph-name="U" unicode="U" horiz-adv-x="682" 
d="M638 636q0 28 -17 39t-57 13l5 20q35 -3 101 -3q59 0 94 3l-5 -20q-35 -2 -54.5 -10.5t-31 -28t-20.5 -57.5l-78 -301q-36 -138 -98 -212q-37 -43 -90.5 -68t-114.5 -25q-107 0 -154 54q-18 21 -26.5 45.5t-8.5 56.5q0 54 25 146l83 314q8 34 8 48q0 22 -14.5 29t-52.5 9
l6 20q40 -3 129 -3q77 0 125 3l-6 -20q-37 -2 -54.5 -8t-28 -23t-20.5 -55l-88 -331q-22 -85 -22 -135q0 -55 27.5 -85t90.5 -30q105 0 165.5 68t92.5 191l82 312q7 25 7 44z" />
    <glyph glyph-name="V" unicode="V" horiz-adv-x="632" 
d="M742 708l-5 -20q-53 -11 -101 -87l-394 -606h-15l-79 629q-4 33 -19.5 48t-32.5 16l5 20q39 -3 108 -3q77 0 120 3l-5 -20q-32 -2 -48.5 -6t-25 -16t-8.5 -37q0 -7 2 -25l57 -483l277 425q43 67 43 99q0 22 -18.5 32t-55.5 11l5 20q55 -3 114 -3q44 0 76 3z" />
    <glyph glyph-name="W" unicode="W" horiz-adv-x="902" 
d="M994 708l-5 -20q-59 -13 -95 -87l-299 -606h-16l-72 456l-271 -456h-16l-79 629q-8 62 -55 64l4 20q40 -3 99 -3q72 0 108 3l-4 -20q-31 -2 -44.5 -14t-13.5 -44q0 -6 2 -26l56 -477l209 355l-22 142q-10 62 -45 64l4 20q36 -3 89 -3q86 0 128 3l-4 -20q-45 -2 -62 -12
t-17 -40q0 -14 3 -32l72 -455l195 397q33 68 33 97q0 25 -18.5 34.5t-58.5 10.5l5 20q56 -3 114 -3q44 0 76 3z" />
    <glyph glyph-name="X" unicode="X" horiz-adv-x="699" 
d="M735 708q14 -14 14 -37q0 -25 -15 -48.5t-44 -23.5q-19 0 -28.5 11t-9.5 27q0 15 9 33.5t23 30.5h-3q-35 0 -64 -21q-45 -33 -100.5 -110.5t-106.5 -187.5l26 -227q6 -53 24 -83.5t55 -30.5q29 0 47 18t33 60l17 51h20l-26 -77q-19 -55 -49 -81t-73 -26q-65 0 -94 43.5
t-37 112.5l-18 157q-39 -83 -100.5 -161t-116.5 -117q-46 -35 -92 -35q-31 0 -45 14t-14 37q0 25 15 48.5t44 23.5q20 0 29 -11t9 -27q0 -15 -9 -33.5t-23 -30.5h4q34 1 63 21q52 34 114.5 112.5t117.5 191.5l-26 221q-6 53 -24 83.5t-55 30.5q-29 0 -47 -18t-33 -60
l-17 -51h-20l26 77q19 55 49 81t73 26q65 0 94 -43.5t37 -112.5l18 -155q39 85 92 161.5t100 114.5q46 35 92 35q31 0 45 -14z" />
    <glyph glyph-name="Y" unicode="Y" horiz-adv-x="670" 
d="M742.5 707q13.5 -15 13.5 -38q0 -25 -15 -47.5t-44 -22.5q-20 0 -29 11.5t-9 28.5q0 16 9 32.5t23 29.5h-3q-27 -1 -55 -22q-52 -38 -112.5 -122.5t-116.5 -218.5l-58 -232q-8 -34 -8 -48q0 -22 14.5 -29t52.5 -9l-5 -20q-45 3 -124 3q-87 0 -131 -3l5 20q36 2 54 8
t29 23.5t20 54.5l59 233q-16 142 -43 235t-74 93q-17 0 -28.5 -11t-19.5 -36l-28 -82h-22l33 97q16 47 36.5 67t61.5 20q53 0 85.5 -43t50.5 -120t31 -199q37 93 85 168t102 129q65 65 118 65q29 0 42.5 -15z" />
    <glyph glyph-name="Z" unicode="Z" horiz-adv-x="652" 
d="M719 700q0 -14 -18.5 -30.5t-56.5 -31.5l-277 -272h152l-8 -20h-164l-283 -278q92 54 173 54q28 0 51 -7t55 -21q34 -14 56.5 -21t51.5 -7q33 0 50.5 17.5t17.5 48.5q0 59 -72 73l4 20q45 -8 75.5 -35.5t30.5 -80.5q0 -54 -33 -88.5t-88 -34.5q-33 0 -58 13.5t-58 40.5
q-32 26 -57 39.5t-56 13.5q-38 0 -69 -10.5t-79 -34.5q-18 -26 -38.5 -42t-35.5 -16q-9 0 -14 5q-6 4 -6 13q0 14 18.5 30.5t56.5 31.5l281 276h-162l7 20h175l279 274q-92 -54 -173 -54q-28 0 -51 7t-55 21q-34 14 -56.5 21t-51.5 7q-33 0 -50.5 -17.5t-17.5 -48.5
q0 -59 72 -73l-4 -20q-45 8 -75.5 35.5t-30.5 80.5q0 54 33 88.5t88 34.5q33 0 58 -13.5t58 -40.5q32 -26 57 -39.5t56 -13.5q38 0 69 10.5t79 34.5q18 26 38.5 42t35.5 16q9 0 14 -5q6 -4 6 -13z" />
    <glyph glyph-name="bracketleft" unicode="[" horiz-adv-x="300" 
d="M213 772h170l-4 -19h-81l-229 -915h81l-4 -19h-170z" />
    <glyph glyph-name="backslash" unicode="\" horiz-adv-x="492" 
d="M391 -14h-33l-226 736h31z" />
    <glyph glyph-name="bracketright" unicode="]" horiz-adv-x="300" 
d="M87 -181h-170l4 19h81l229 915h-81l4 19h170z" />
    <glyph glyph-name="asciicircum" unicode="^" horiz-adv-x="535" 
d="M197 376.5q-54 -32.5 -108 -54.5l-4 14q72 31 135.5 82.5t102.5 109.5h18q8 -58 44 -109.5t92 -82.5l-12 -14q-54 22 -102.5 54.5t-73.5 65.5q-38 -33 -92 -65.5z" />
    <glyph glyph-name="underscore" unicode="_" horiz-adv-x="744" 
d="M561 -120l-11 -40h-600l10 40h601z" />
    <glyph glyph-name="grave" unicode="`" horiz-adv-x="320" 
d="M252 717q-5 6 -22.5 27.5t-28.5 39.5q-10 17 -10 32q0 20 16 28q7 3 16 3q25 0 43 -31q10 -17 33 -75q26 -69 58 -136l-13 -6q-37 51 -92 118z" />
    <glyph glyph-name="a" unicode="a" horiz-adv-x="523" 
d="M455 163h19l-25 -73q-20 -55 -51 -79.5t-64 -24.5q-19 0 -33 7t-22 19q-9 15 -9 35q0 21 7 47t9 33l18 72q-48 -112 -97.5 -162.5t-103.5 -50.5q-46 0 -70 33t-24 88q0 81 43 181t112 170t140 70q27 0 44 -20t20 -56l16 62q55 2 92 14l-125 -442q-1 -4 -4 -15.5t-3 -21.5
q0 -25 22 -25q44 0 77 102zM199 61q39 43 76.5 114.5t61.5 152.5l18 71q1 8 1 22q0 41 -14.5 64.5t-40.5 23.5q-43 0 -91 -66.5t-80.5 -164t-32.5 -183.5q0 -41 9 -59t26 -18q28 0 67 43z" />
    <glyph glyph-name="b" unicode="b" horiz-adv-x="504" 
d="M438.5 492.5q27.5 -35.5 27.5 -105.5q0 -81 -36 -175.5t-103 -160t-154 -65.5q-30 0 -52.5 17.5t-31.5 49.5l-85 -69l-15 7q12 25 19 58l175 618q4 13 4 27q0 20 -15 29.5t-52 9.5l5 21q53 1 95 11t81 30l-129 -472q47 108 92.5 156.5t97.5 48.5q49 0 76.5 -35.5z
M273 75.5q48 66.5 77.5 161.5t29.5 172q0 43 -12.5 65t-34.5 22q-40 0 -96.5 -88t-101.5 -217l-34 -127q12 -30 29.5 -42.5t41.5 -12.5q53 0 101 66.5z" />
    <glyph glyph-name="c" unicode="c" horiz-adv-x="432" 
d="M223.5 454q-49.5 -54 -81 -143t-31.5 -187q0 -49 18.5 -72.5t51.5 -23.5q82 0 150 100l20 -8q-32 -55 -86.5 -94.5t-114.5 -39.5q-61 0 -96.5 37.5t-35.5 109.5q0 81 38 174t107 157t157 64q46 0 77 -23t31 -62q0 -31 -20 -55.5t-51 -24.5q-20 0 -30.5 11t-10.5 28
q0 28 22 48.5t53 26.5q-21 31 -68 31q-50 0 -99.5 -54z" />
    <glyph glyph-name="d" unicode="d" horiz-adv-x="542" 
d="M472 162h19l-23 -73q-17 -55 -49 -79t-67 -24q-31 0 -47 16t-16 46q0 28 13 78l14 51q-47 -101 -96 -146t-104 -45q-49 0 -76.5 33t-27.5 99q0 83 43.5 180t118 163.5t161.5 66.5q20 0 37 -13t24 -35l50 187q4 13 4 27q0 20 -15.5 29.5t-52.5 9.5l6 21q53 1 95.5 11
t81.5 30l-196 -710q-6 -24 -6 -34q0 -28 24 -28q20 0 37 23t36 79zM214 60q39 42 77 112.5t63 150.5l35 131q-6 26 -20.5 38.5t-32.5 12.5q-61 0 -115 -64.5t-87 -159.5t-33 -176q0 -87 44 -87q30 0 69 42z" />
    <glyph glyph-name="e" unicode="e" horiz-adv-x="429" 
d="M325 320q-91 -61 -208 -99q-11 -50 -11 -97q0 -96 69 -96q86 0 154 100l16 -8q-32 -55 -86.5 -94.5t-114.5 -39.5q-62 0 -97 36t-35 105q0 76 44.5 171.5t120.5 162.5t165 67q32 0 53 -17t21 -49q0 -81 -91 -142zM248.5 471.5q-39.5 -37.5 -74 -99.5t-52.5 -132
q95 33 136 64q37 29 57.5 70.5t20.5 89.5q0 27 -4 36t-12 9q-32 0 -71.5 -37.5z" />
    <glyph glyph-name="f" unicode="f" horiz-adv-x="321" 
d="M459.5 762q25.5 -20 25.5 -51q0 -26 -19.5 -47.5t-47.5 -21.5q-19 0 -30 9t-10 25q0 24 15.5 41.5t41.5 25.5q0 9 -13.5 16.5t-32.5 7.5q-30 0 -58 -26q-21 -19 -35 -60.5t-35 -122.5l-11 -43v-1h118l-6 -20h-118l-179 -668q-54 -2 -90 -14l182 682h-90l6 20h90v1
q22 82 45.5 133.5t56.5 83.5q23 23 56.5 36.5t68.5 13.5q44 0 69.5 -20z" />
    <glyph glyph-name="g" unicode="g" horiz-adv-x="449" 
d="M485.5 554q15.5 -15 15.5 -45q0 -26 -13 -40t-31 -14q-19 0 -33.5 13t-14.5 38q0 18 9 42q-39 -17 -57 -42q42 -29 42 -90q0 -44 -21.5 -86t-61 -72.5t-91.5 -40.5l-33 -18q-47 -25 -68.5 -40t-21.5 -29q0 -11 14 -19t46 -16l73 -19q57 -15 85 -33t28 -54
q0 -38 -31.5 -81t-97 -73t-161.5 -30q-77 0 -117.5 20t-40.5 55q0 34 37 68.5t105 54.5l7 -15q-65 -34 -65 -91q0 -38 26.5 -56.5t70.5 -18.5t91 18t77.5 47.5t30.5 61.5q0 14 -8 19t-33 11l-153 39q-54 14 -54 60q0 31 32.5 61.5t122.5 73.5h-7q-58 0 -94 27.5t-36 81.5
q0 42 22 90t71 82t124 34q43 0 72 -13q19 24 46 39t54 15t42.5 -15zM267 266.5q27 35.5 37 82.5t10 87q0 37 -10 55.5t-37 18.5q-48 0 -76.5 -42.5t-39 -93.5t-10.5 -83q0 -60 53 -60q46 0 73 35.5z" />
    <glyph glyph-name="h" unicode="h" horiz-adv-x="536" 
d="M486 162l-25 -73q-36 -103 -121 -103q-70 0 -70 62q0 30 16 78l95 286q10 28 10 50q0 34 -32 34q-37 0 -79.5 -46.5t-85.5 -130.5t-80 -195l-36 -124h-87l198 667q5 17 5 27q0 20 -16 29.5t-53 9.5l6 21q104 1 180 41l-145 -496q54 122 108 175.5t118 53.5q81 0 81 -76
q0 -32 -15 -75l-97 -292q-8 -24 -8 -38q0 -24 24 -24q20 0 38.5 22.5t38.5 79.5l13 37h19z" />
    <glyph glyph-name="i" unicode="i" horiz-adv-x="302" 
d="M210.5 736.5q22.5 23.5 51.5 23.5q23 0 37 -15t14 -37q0 -30 -23 -53t-52 -23q-22 0 -36 14.5t-14 36.5q0 30 22.5 53.5zM166 466q0 25 -22 25q-23 0 -41 -24t-38 -78l-14 -37h-19l26 73q20 57 53.5 80t70.5 23q66 0 66 -63q0 -33 -16 -77l-107 -303q-8 -24 -8 -37
q0 -25 24 -25q21 0 39 23t39 79l14 37h19l-26 -73q-20 -55 -52.5 -79t-70.5 -24q-70 0 -70 61q0 29 18 79l107 303q8 24 8 37z" />
    <glyph glyph-name="j" unicode="j" horiz-adv-x="276" 
d="M-133 -173q62 3 106 53t66 139l115 410q7 24 7 39q0 23 -22 23q-20 0 -38 -23.5t-38 -78.5l-13 -37h-19l24 73q34 103 123 103q67 0 67 -61q0 -26 -15 -79l-77 -273q-41 -166 -133 -242q-34 -28 -74.5 -44.5t-82.5 -16.5zM208.5 740.5q21.5 24.5 52.5 24.5q23 0 37 -14.5
t14 -36.5q0 -28 -22 -52.5t-53 -24.5q-22 0 -36 14.5t-14 36.5q0 28 21.5 52.5z" />
    <glyph glyph-name="k" unicode="k" horiz-adv-x="515" 
d="M476.5 513q14.5 -15 14.5 -39q0 -22 -14.5 -45.5t-43.5 -23.5q-20 0 -29.5 11.5t-9.5 28.5q0 14 9 31.5t23 30.5h-2q-11 0 -19 -3.5t-18 -10.5q-14 -11 -24.5 -28.5t-23.5 -47.5q-25 -53 -50.5 -84t-73.5 -42q63 -3 103.5 -26.5t40.5 -73.5q0 -12 -3 -27l-20 -100
q-2 -8 -2 -20q0 -11 5 -16t17 -5q20 0 37.5 23.5t36.5 78.5l12 37h19l-24 -73q-33 -103 -119 -103q-29 0 -47 16t-18 49q0 15 4 30l18 86q5 23 5 37q0 38 -27 57t-91 24l-84 -285h-87l198 667q5 17 5 27q0 20 -16 29.5t-53 9.5l6 21q104 1 180 41l-146 -498q47 4 76 22
t44.5 42t33.5 63q13 30 24.5 49t28.5 32q31 23 60 23q30 0 44.5 -15z" />
    <glyph glyph-name="l" unicode="l" horiz-adv-x="277" 
d="M96 50q0 -27 23 -27q20 0 37.5 23t37.5 79l13 37h19l-25 -73q-35 -103 -120 -103q-69 0 -69 65q0 25 14 75l163 541q5 18 5 28q0 20 -15.5 29t-52.5 9l7 21q53 1 95.5 11t82.5 30l-209 -710q-6 -21 -6 -35z" />
    <glyph glyph-name="m" unicode="m" horiz-adv-x="809" 
d="M759 162l-25 -73q-36 -103 -121 -103q-45 0 -62 27q-9 15 -9 35q0 27 17 78l95 286q10 30 10 53q0 31 -22 31q-57 0 -128.5 -130.5t-138.5 -345.5l1 6l-7 -26h-90l125 412q10 30 10 51q0 33 -28 33q-37 0 -83 -58.5t-90.5 -159.5t-77.5 -223l-14 -55h-87l120 429
q7 28 7 37q0 25 -21 25q-22 0 -40.5 -23.5t-37.5 -78.5l-13 -37h-19l25 73q36 103 121 103q58 0 58 -60q0 -26 -15 -80l-32 -127q60 146 113 206.5t119 60.5t66 -70q0 -31 -14 -81l-36 -134q42 105 79 166.5t75.5 90t85.5 28.5q70 0 70 -75q0 -32 -14 -76l-97 -292
q-8 -26 -8 -38q0 -24 24 -24q20 0 38.5 22.5t38.5 79.5l13 37h19z" />
    <glyph glyph-name="n" unicode="n" horiz-adv-x="580" 
d="M530 162l-25 -73q-36 -103 -121 -103q-45 0 -63 29q-8 12 -8 33q0 27 17 78l95 286q10 33 10 49q0 35 -32 35q-38 0 -86.5 -55.5t-95.5 -152.5t-81 -215l-18 -73h-87l120 429q7 26 7 37q0 25 -22 25t-39 -22t-38 -80l-13 -37h-19l25 73q36 103 119 103q32 0 45.5 -15.5
t13.5 -43.5q0 -27 -14 -81l-35 -137q64 151 122.5 214t128.5 63q81 0 81 -75q0 -33 -15 -76l-97 -292q-8 -24 -8 -38q0 -24 24 -24q20 0 38.5 22.5t38.5 79.5l13 37h19z" />
    <glyph glyph-name="o" unicode="o" horiz-adv-x="488" 
d="M56 312.5q35 90.5 101 153t153 62.5q64 0 100.5 -39.5t36.5 -117.5q0 -79 -35 -169.5t-101 -153t-153 -62.5q-64 0 -100.5 39.5t-36.5 117.5q0 79 35 169.5zM207.5 443q-45.5 -65 -73 -162.5t-27.5 -187.5q0 -45 14 -66t43 -21q51 0 96.5 65t73 162.5t27.5 187.5
q0 45 -14 66t-43 21q-51 0 -96.5 -65z" />
    <glyph glyph-name="p" unicode="p" horiz-adv-x="551" 
d="M485.5 492.5q27.5 -35.5 27.5 -105.5q0 -81 -36 -175.5t-103 -160t-154 -65.5q-27 0 -49 15.5t-32 42.5l-38 -132q-4 -12 -4 -24q0 -26 22 -37t63 -11l-6 -21l-21 1q-87 3 -113 3q-27 0 -111 -4l6 21q36 0 52 13t26 49l187 667q-30 -67 -70 -118t-99 -107l-11 13
q47 46 78.5 82t63 87.5t62.5 126.5l4 14q54 2 91 14l-104 -364q47 111 93.5 161t98.5 50q49 0 76.5 -35.5zM320 75.5q48 66.5 77.5 161.5t29.5 172q0 43 -12.5 65t-34.5 22q-28 0 -65.5 -45.5t-75.5 -122.5t-67 -168l-26 -91q12 -32 30 -46t43 -14q53 0 101 66.5z" />
    <glyph glyph-name="q" unicode="q" horiz-adv-x="507" 
d="M326 -88q-4 -13 -4 -26q0 -46 65 -46l-6 -21l-21 1q-87 3 -113 3q-27 0 -111 -4l6 21q46 0 67 13t31 49l69 264q-45 -96 -90.5 -138t-96.5 -42q-49 0 -76.5 35.5t-27.5 105.5q0 81 36 175.5t103 160t154 65.5q30 0 52.5 -17.5t31.5 -49.5l85 69l16 -7q-13 -26 -21 -58z
M215 55.5q36 37.5 70.5 100.5t56.5 135l41 159q-12 30 -29.5 42.5t-41.5 12.5q-53 0 -101 -66.5t-77.5 -161.5t-29.5 -172q0 -43 12.5 -65t34.5 -22q28 0 64 37.5z" />
    <glyph glyph-name="r" unicode="r" horiz-adv-x="426" 
d="M438 512q16 -16 16 -41q0 -30 -21 -51t-49 -21q-18 0 -29 9.5t-11 26.5q0 23 12 39t33 25q-4 4 -11 4q-54 0 -117.5 -116.5t-119.5 -307.5l-20 -79h-87l120 429q7 22 7 39q0 23 -21 23q-22 0 -40.5 -23.5t-37.5 -78.5l-13 -37h-19l25 73q36 103 121 103q57 0 57 -58
q0 -28 -14 -82l-32 -126q54 145 101.5 205.5t106.5 60.5q27 0 43 -16z" />
    <glyph glyph-name="s" unicode="s" horiz-adv-x="381" 
d="M78.5 8q9.5 -2 26.5 -2q45 0 73 27t28 76q0 32 -12 62.5t-40 69.5q-34 46 -49.5 75.5t-15.5 69.5q0 41 21 73.5t56.5 50.5t77.5 18q52 0 87 -19.5t35 -67.5q0 -18 -11.5 -35t-34.5 -17q-17 0 -28.5 12t-11.5 30q0 32 28 67q-19 12 -50 12q-38 0 -62.5 -25.5t-24.5 -69.5
q0 -26 9 -44.5t33 -54.5l18 -26q30 -46 44.5 -79t14.5 -68q0 -45 -23.5 -81t-63 -56t-85.5 -20q-57 0 -96 24.5t-39 74.5q0 17 9.5 31t29.5 14q22 0 33 -18t11 -45q0 -17 -7 -52q10 -5 19.5 -7z" />
    <glyph glyph-name="t" unicode="t" horiz-adv-x="336" 
d="M121 85q-3 -12 -3 -22q0 -20 12 -30t31 -10q25 0 46.5 21.5t42.5 78.5l14 39h19l-21 -63q-21 -62 -54.5 -87.5t-82.5 -25.5q-45 0 -67 22t-22 61q0 26 9 57l106 368h-90l5 20h90l44 152q54 2 90 14l-47 -166h132l-3 -20h-135z" />
    <glyph glyph-name="u" unicode="u" horiz-adv-x="567" 
d="M499 162h19l-25 -73q-36 -103 -121 -103q-16 0 -30 7t-21 20q-6 14 -6 31q0 26 14 82l31 125q-58 -143 -113 -204t-120 -61q-84 0 -84 77q0 32 14 74l97 292q8 24 8 37q0 25 -24 25q-20 0 -38.5 -22.5t-38.5 -79.5l-13 -37h-19l25 73q36 103 121 103q70 0 70 -62
q0 -30 -16 -78l-95 -286q-10 -30 -10 -50q0 -34 32 -34q39 0 86 57.5t93 159.5t80 230l12 49q57 2 91 14l-124 -443q-7 -26 -7 -39q0 -23 21 -23q22 0 40.5 23.5t37.5 78.5z" />
    <glyph glyph-name="v" unicode="v" horiz-adv-x="533" 
d="M422 420q-21 26 -21 60q0 25 13.5 37t30.5 12q28 0 42 -27t14 -74q0 -26 -2 -40q-12 -103 -52.5 -195t-108 -149.5t-155.5 -57.5q-63 0 -90 36t-24 88q6 82 68.5 183t163.5 197q-25 -10 -57 -30q-25 -16 -43 -24.5t-32 -8.5q-11 0 -21 6t-13 7q-18 12 -29 12
q-16 0 -26.5 -13.5t-22.5 -48.5l-11 -37h-19l22 73q28 102 94 102q13 0 22 -4.5t23 -14.5q13 -10 23 -15t23 -5q50 0 84 31l10 19l21 -10q-81 -100 -126 -199t-54 -203q-1 -9 -1 -24q0 -84 44 -84q73 0 132 61t93 146.5t37 152.5q-31 15 -52 41z" />
    <glyph glyph-name="w" unicode="w" horiz-adv-x="685" 
d="M627 326q0 -81 -26.5 -159t-82 -129.5t-137.5 -51.5q-79 0 -106 61q-68 -61 -138 -61q-64 0 -94 32.5t-30 81.5q0 85 84 184.5t203 188.5q-3 -1 -23 -14q-28 -17 -44 -24.5t-30 -7.5q-12 0 -21.5 6t-11.5 7q-18 12 -30 12q-16 0 -27 -13.5t-22 -48.5l-12 -37h-19l23 73
q18 56 41.5 79t51.5 23q13 0 22 -4.5t23 -14.5q15 -10 24.5 -15t22.5 -5q24 0 43 7.5t37 23.5l14 19l21 -10q-122 -103 -197 -208t-75 -215q0 -48 14 -69t41 -21q25 0 51.5 12t51.5 36q-7 28 -7 59q0 56 24.5 111t59 90t62.5 35q20 0 27.5 -21t7.5 -49q0 -54 -29 -109
t-86 -99q23 -66 80 -66q64 0 108.5 49t66.5 121t22 140q0 41 -7 66q-36 7 -65.5 29.5t-29.5 59.5q0 24 12.5 36t29.5 12q28 0 46 -32t28 -86q8 -33 8 -84zM364 311q-20 -26 -34 -66.5t-14 -81.5q0 -36 7 -64q45 37 71 88.5t26 102.5q0 47 -19 47q-17 0 -37 -26z" />
    <glyph glyph-name="x" unicode="x" horiz-adv-x="526" 
d="M509.5 518q12.5 -10 12.5 -27q0 -19 -15 -33.5t-38 -14.5q-34 0 -63 24q-63 -57 -108 -175l24 -214q4 -25 12 -35.5t22 -10.5q17 0 32.5 19.5t34.5 72.5l13 37h19l-25 -73q-37 -102 -114 -102q-72 0 -83 92l-15 130q-40 -89 -106 -160q-31 -32 -54.5 -47t-46.5 -15
q-22 0 -33.5 9.5t-11.5 27.5q0 19 15 33.5t37 14.5q32 0 63 -24q41 38 76 91t57 106l-21 192q-4 25 -12 35.5t-22 10.5q-17 0 -32.5 -19.5t-34.5 -72.5l-13 -37h-19l25 73q37 102 114 102q37 0 57 -20.5t26 -71.5l12 -103q33 76 84 134q28 33 51.5 47t48.5 14q19 0 31.5 -10
z" />
    <glyph glyph-name="y" unicode="y" horiz-adv-x="481" 
d="M458 447q0 -95 -59 -220t-138 -224q-93 -116 -197 -166q-53 -25 -87 -25q-21 0 -35.5 11t-14.5 30q0 21 16 33t38 12q21 0 40.5 -10.5t42.5 -28.5q78 42 150 120l-74 448q-5 31 -12 43t-20 12t-26.5 -19.5t-32.5 -72.5l-13 -37h-19l25 73q35 102 115 102q32 0 48.5 -20
t23.5 -72l51 -376q55 76 95 159.5t56 165.5q-30 16 -53 39.5t-23 52.5q0 23 14.5 37t36.5 14q52 0 52 -81z" />
    <glyph glyph-name="z" unicode="z" horiz-adv-x="445" 
d="M97.5 79.5q27.5 11.5 54.5 11.5q16 0 29.5 -4t35.5 -12t37.5 -12t32.5 -4q26 0 40.5 12.5t14.5 37.5q0 26 -22 45.5t-57 26.5l6 15q47 -11 72 -35t25 -62q0 -44 -28.5 -74.5t-87.5 -30.5q-23 0 -41.5 5.5t-40.5 15.5q-25 11 -44.5 16.5t-45.5 5.5q-28 0 -49 -8t-41 -29
h-27l451 475q-45 -29 -72.5 -40.5t-54.5 -11.5q-16 0 -29.5 4t-35.5 12t-37.5 12t-32.5 4q-26 0 -40.5 -12.5t-14.5 -37.5q0 -26 22 -45.5t57 -26.5l-6 -15q-47 11 -72 35t-25 62q0 44 28.5 74.5t87.5 30.5q23 0 41.5 -5.5t40.5 -15.5q25 -11 44.5 -16.5t45.5 -5.5
q28 0 49 8t41 29h27l-451 -475q45 29 72.5 40.5z" />
    <glyph glyph-name="braceleft" unicode="{" horiz-adv-x="306" 
d="M55.5 -160q-30.5 28 -30.5 80q0 24 5.5 52.5t15.5 70.5q33 133 33 184q-1 30 -12 43.5t-35 15.5h-5l3 18h5q32 3 53.5 24.5t40.5 71.5t43 147q24 93 52.5 143.5t69.5 71t105 20.5l-5 -19q-35 -1 -54 -14.5t-36.5 -57.5t-41.5 -144q-30 -122 -82 -177t-123 -75
q96 -28 96 -137q0 -45 -17 -115q-29 -118 -29 -158q0 -31 13 -42t44 -12l-5 -19q-73 0 -103.5 28z" />
    <glyph glyph-name="bar" unicode="|" horiz-adv-x="318" 
d="M189 -195h-40v1053h40v-1053z" />
    <glyph glyph-name="braceright" unicode="}" horiz-adv-x="306" 
d="M251.5 754q30.5 -28 30.5 -80q0 -24 -5.5 -52.5t-15.5 -70.5q-33 -133 -33 -184q1 -30 12 -43.5t35 -15.5h5l-3 -18h-5q-32 -3 -53.5 -24.5t-40.5 -71.5t-43 -147q-24 -93 -52.5 -143.5t-69.5 -71t-105 -20.5l5 19q35 1 54 14.5t36.5 57.5t41.5 144q30 122 82 177t123 75
q-96 28 -96 137q0 45 17 115q29 118 29 158q0 31 -13 42t-44 12l5 19q73 0 103.5 -28z" />
    <glyph glyph-name="asciitilde" unicode="~" horiz-adv-x="649" 
d="M358.5 247q-26.5 10 -62.5 30q-35 19 -58.5 28.5t-54.5 9.5q-65 0 -101 -58l-14 5q23 50 66.5 78.5t98.5 28.5q35 0 61.5 -10t62.5 -30q35 -19 58.5 -28.5t54.5 -9.5q65 0 101 58l14 -5q-23 -50 -66.5 -78.5t-98.5 -28.5q-35 0 -61.5 10z" />
    <glyph glyph-name="uni00A0" unicode="&#xa0;" horiz-adv-x="253" 
 />
    <glyph glyph-name="exclamdown" unicode="&#xa1;" horiz-adv-x="249" 
d="M128.5 504.5q22.5 23.5 51.5 23.5q23 0 37 -15t14 -37q0 -30 -23 -53t-52 -23q-22 0 -36 14.5t-14 36.5q0 30 22.5 53.5zM113 181q-12 -67 -27 -162q-2 -13 -11.5 -72t-19.5 -96q-4 -19 -16.5 -29t-28.5 -10q-23 0 -34.5 11t-11.5 30q0 7 4 21q11 37 51 140q35 90 60 161
t45 144l18 -3q-17 -68 -29 -135z" />
    <glyph glyph-name="cent" unicode="&#xa2;" horiz-adv-x="433" 
d="M394 505q31 -23 31 -62q0 -31 -20 -55.5t-51 -24.5q-20 0 -30.5 11t-10.5 28q0 28 22 48.5t53 26.5q-21 31 -68 31q-7 0 -19 -2l-129 -478h6q82 0 150 100l20 -8q-30 -52 -80.5 -90.5t-106.5 -42.5l-45 -168h-22l45 167q-58 2 -91 39.5t-33 107.5q0 76 33.5 163t95 152
t140.5 77l49 183h22l-48 -180h10q46 0 77 -23zM276 498q-44 -21 -82.5 -77t-62 -134.5t-23.5 -162.5q0 -74 43 -91z" />
    <glyph glyph-name="sterling" unicode="&#xa3;" horiz-adv-x="624" 
d="M515.5 675q13.5 16 34.5 22q0 10 -17.5 17t-38.5 7q-60 0 -97.5 -34.5t-58.5 -86t-44 -135.5l-13 -48h136l-6 -20h-135l-21 -80h135l-6 -20h-135q-20 -62 -55.5 -109.5t-99.5 -111.5q69 32 126 32q22 0 41 -5t51 -17q34 -12 54.5 -17.5t46.5 -5.5q34 0 60 20.5t26 53.5
q0 56 -65 69l6 17q43 -7 72 -33.5t29 -68.5q0 -33 -20 -64t-53 -51t-70 -20q-31 0 -55.5 12t-56.5 35q-34 24 -58 35.5t-56 11.5q-41 0 -87 -20q-25 -35 -50.5 -54.5t-45.5 -19.5q-7 0 -10 2t-3 8q0 16 27.5 38t71.5 35q21 40 37 82t34 107l10 39h-97l6 20h97l21 80h-97
l6 20h96l6 22q36 136 109.5 216.5t192.5 80.5q51 0 77.5 -19.5t26.5 -48.5q0 -25 -18 -44t-44 -19q-15 0 -25.5 9.5t-10.5 24.5q0 20 13.5 36z" />
    <glyph glyph-name="currency" unicode="&#xa4;" horiz-adv-x="569" 
d="M139 181q-42 52 -42 119t43 120l-44 44l28 28l44 -44q24 20 55 31t64 11q66 0 119 -43l45 45l28 -28l-45 -45q42 -53 42 -119q0 -67 -42 -119l44 -43l-28 -29l-44 44q-53 -42 -119 -42q-69 0 -119 41l-43 -43l-29 29zM158.5 224q20.5 -35 54.5 -55.5t74 -20.5t74 20.5
t54 55.5t20 76q0 40 -20 75.5t-54 56.5t-74 21t-74.5 -21t-54.5 -56t-20 -76t20.5 -76z" />
    <glyph glyph-name="yen" unicode="&#xa5;" horiz-adv-x="703" 
d="M750.5 707q13.5 -15 13.5 -38q0 -25 -15 -47.5t-44 -22.5q-20 0 -29 11.5t-9 28.5q0 16 9 32.5t23 29.5h-3q-27 -1 -55 -22q-52 -38 -112.5 -122.5t-116.5 -218.5l-10 -41h141l-5 -20h-141l-15 -60h139l-5 -20h-139l-23 -91q-8 -34 -8 -48q0 -22 14.5 -29t52.5 -9l-5 -20
q-45 3 -124 3q-87 0 -131 -3l5 20q36 2 54 8t29 23.5t20 54.5l23 91h-141l5 20h141l15 60h-139l5 20h139l11 42q-16 142 -43 235t-74 93q-17 0 -28.5 -11t-19.5 -36l-28 -82h-22l33 97q16 47 36.5 67t61.5 20q53 0 85.5 -43t50.5 -120t31 -199q37 93 85 168t102 129
q65 65 118 65q29 0 42.5 -15z" />
    <glyph glyph-name="brokenbar" unicode="&#xa6;" horiz-adv-x="322" 
d="M191 384h-40v474h40v-474zM151 326h40v-521h-40v521z" />
    <glyph glyph-name="section" unicode="&#xa7;" horiz-adv-x="508" 
d="M427.5 703q16.5 17 41.5 24q-6 20 -32.5 28t-55.5 8q-58 0 -100 -32t-42 -101q0 -31 17 -58t38 -46.5t67 -58.5q54 -46 79 -79.5t25 -75.5q0 -64 -44.5 -114.5t-116.5 -86.5q43 -48 43 -102t-30.5 -99.5t-81.5 -71.5t-108 -26q-53 0 -96.5 23t-43.5 70q0 26 19.5 47
t47.5 21q20 0 31.5 -10.5t11.5 -29.5q0 -24 -16.5 -41.5t-41.5 -24.5q6 -19 33.5 -27.5t54.5 -8.5q59 0 100.5 32.5t41.5 102.5q0 30 -17 57t-37 45t-68 59q-54 46 -79 79.5t-25 75.5q0 64 44.5 114.5t116.5 86.5q-43 48 -43 102t30.5 99.5t81.5 71.5t108 26q52 0 96.5 -23
t44.5 -67q0 -28 -19.5 -49.5t-48.5 -21.5q-20 0 -31.5 11.5t-11.5 30.5q0 23 16.5 40zM279 414q-44 35 -64 56q-107 -57 -107 -132q0 -36 26.5 -68t78.5 -76l16 -14q44 -35 64 -56q107 57 107 132q0 37 -26 68.5t-79 75.5z" />
    <glyph glyph-name="dieresis" unicode="&#xa8;" horiz-adv-x="428" 
d="M176.5 722.5q20.5 20.5 46.5 20.5q21 0 35.5 -14.5t14.5 -35.5q0 -25 -20 -45.5t-47 -20.5q-22 0 -36 14.5t-14 36.5q0 24 20.5 44.5zM388.5 722.5q20.5 20.5 46.5 20.5q21 0 35.5 -14.5t14.5 -35.5q0 -25 -20 -45.5t-47 -20.5q-22 0 -36 14.5t-14 36.5q0 24 20.5 44.5z
" />
    <glyph glyph-name="copyright" unicode="&#xa9;" horiz-adv-x="924" 
d="M141.5 583.5q53.5 91.5 145 145t199.5 53.5t199.5 -53.5t145 -145t53.5 -199.5t-53.5 -199.5t-145 -145t-199.5 -53.5t-199.5 53.5t-145 145t-53.5 199.5t53.5 199.5zM176 201q48 -84 130.5 -133.5t179.5 -49.5t179.5 49.5t130.5 133.5t48 183t-48 183t-130.5 133.5
t-179.5 49.5t-179.5 -49.5t-130.5 -133.5t-48 -183t48 -183zM591.5 181q38.5 25 63.5 78l19 -7q-17 -57 -63.5 -98t-119.5 -41q-63 0 -113.5 32t-79.5 92t-29 141t29.5 144.5t82.5 98.5t122 35q65 0 113.5 -30.5t48.5 -78.5q0 -26 -15 -41t-38 -15t-39 14.5t-16 39.5
q0 21 11.5 34t30.5 17q-10 18 -35.5 30t-54.5 12q-59 0 -101 -58t-42 -190q0 -121 40 -177.5t103 -56.5q44 0 82.5 25z" />
    <glyph glyph-name="ordfeminine" unicode="&#xaa;" horiz-adv-x="454" 
d="M436 478h19l-18 -49q-14 -39 -35.5 -54t-54.5 -15q-22 0 -32.5 9.5t-10.5 31.5q0 20 9 53l12 43q-66 -137 -150 -137q-36 0 -57 22t-21 58q0 58 38.5 124.5t96 112t110.5 45.5q14 0 25 -8.5t13 -26.5l7 26q40 0 70 9l-94 -292q-5 -17 -5 -25q0 -16 16 -16t28.5 14
t24.5 50zM246 414q30 29 58.5 76t47.5 100l20 70q-1 38 -25 38q-34 0 -76 -39t-71.5 -101t-29.5 -126q0 -47 25 -47q21 0 51 29z" />
    <glyph glyph-name="guillemotleft" unicode="&#xab;" horiz-adv-x="517" 
d="M219 371q-66 -88 -120 -127q41 -34 83.5 -114.5t57.5 -143.5h-18q-87 171 -198 257v2q77 54 144 124t132 159h18q-33 -69 -99 -157zM386 372.5q-67 -88.5 -122 -128.5q41 -34 83.5 -114.5t57.5 -143.5h-18q-87 171 -198 257v2q77 54 144 124t132 159h18
q-30 -67 -97 -155.5z" />
    <glyph glyph-name="logicalnot" unicode="&#xac;" horiz-adv-x="661" 
d="M103 370h501l-59 -205h-36l50 175h-465z" />
    <glyph glyph-name="uni00AD" unicode="&#xad;" horiz-adv-x="504" 
 />
    <glyph glyph-name="registered" unicode="&#xae;" horiz-adv-x="699" 
d="M545 744.5q64 -37.5 101.5 -101.5t37.5 -140t-37.5 -140t-101.5 -101.5t-140 -37.5t-140 37.5t-101.5 101.5t-37.5 140t37.5 140t101.5 101.5t140 37.5t140 -37.5zM524.5 289.5q54.5 33.5 86 90t31.5 123.5t-31.5 123.5t-86 90t-119.5 33.5t-119.5 -33.5t-86 -90
t-31.5 -123.5t31.5 -123.5t86 -90t119.5 -33.5t119.5 33.5zM554 372l10 -7q-6 -12 -16.5 -16.5t-27.5 -4.5q-25 0 -37.5 9.5t-17.5 31.5l-17 74q-4 20 -11 29t-24 12.5t-53 4.5v-101q0 -23 4 -29t19 -8v-15l-51 1l-52 -1v15q15 2 19 8t4 29v219q0 23 -4 29.5t-19 8.5v15
q12 -1 48 -1l86 1q57 0 86.5 -20.5t29.5 -58.5q0 -68 -98 -85q40 -4 57 -17.5t23 -40.5l12 -57q1 -4 3 -14t5.5 -14.5t9.5 -4.5q8 0 12 8zM367 654.5q-7 -6.5 -7 -26.5v-107h24q49 0 66.5 17t17.5 49q0 38 -16 56t-54 18q-24 0 -31 -6.5z" />
    <glyph glyph-name="macron" unicode="&#xaf;" horiz-adv-x="412" 
d="M469 687h-312l6 25h312z" />
    <glyph glyph-name="degree" unicode="&#xb0;" horiz-adv-x="335" 
d="M347.5 787q35.5 -33 35.5 -87t-35.5 -87.5t-86.5 -33.5q-50 0 -85.5 33.5t-35.5 87.5t35.5 87t85.5 33q51 0 86.5 -33zM328.5 623q29.5 27 29.5 76q0 48 -30 76t-67 28t-66.5 -28t-29.5 -76q0 -49 29 -76t67 -27t67.5 27z" />
    <glyph glyph-name="plusminus" unicode="&#xb1;" horiz-adv-x="635" 
d="M0 30h501l-9 -30h-501zM317 370l67 236h36l-67 -236h232l-9 -30h-232l-67 -235h-36l67 235h-233l9 30h233z" />
    <glyph glyph-name="uni00B2" unicode="&#xb2;" horiz-adv-x="341" 
d="M352 740q21 -14 21 -43q0 -44 -39.5 -82.5t-110.5 -87.5q-36 -25 -51 -37q22 0 63 -9q6 -1 28 -5t35 -4q21 0 34 9.5t13 25.5q0 11 -4 19l17 7q10 -15 10 -32q0 -29 -24 -48.5t-66 -19.5q-19 0 -57 8q-42 10 -75 10q-19 0 -32 -3t-33 -11l4 18l36 23q84 53 138.5 101
t54.5 98q0 43 -54 43q-62 0 -107 -52l-14 11q26 32 66 53.5t89 21.5q37 0 58 -14z" />
    <glyph glyph-name="uni00B3" unicode="&#xb3;" horiz-adv-x="326" 
d="M357 740.5q22 -13.5 22 -40.5q0 -39 -44.5 -70.5t-94.5 -43.5q47 -2 78 -19.5t31 -54.5q0 -47 -48 -83t-119 -57t-139 -26v18q60 5 117 25t93 53.5t36 77.5q0 50 -55 52q-19 -10 -32 -10q-7 0 -12.5 3t-5.5 10q0 19 44 17q43 16 68 40t25 54q0 18 -12.5 27.5t-34.5 9.5
q-60 0 -116 -56l-14 12q25 29 66.5 52t88.5 23q36 0 58 -13.5z" />
    <glyph glyph-name="acute" unicode="&#xb4;" horiz-adv-x="276" 
d="M230 726q38 52 58 72q19 22 41 22q14 0 22 -7q8 -8 8 -19q0 -20 -23 -43q-22 -23 -68 -55q-7 -5 -42 -32.5t-78 -64.5l-10 9q39 47 92 118z" />
    <glyph glyph-name="paragraph" unicode="&#xb6;" horiz-adv-x="640" 
d="M112 51q-76 64 -76 178q0 131 62.5 241t170.5 174.5t238 64.5q29 0 81 -2l69 -1q40 0 60 2l-5 -19q-46 -2 -65.5 -17.5t-29.5 -50.5l-139 -528q-35 -131 -95 -206t-150 -75q-46 0 -73.5 14t-28.5 41q0 22 18 41.5t41 19.5q15 0 24 -8.5t9 -22.5q0 -33 -35 -64
q15 -5 35 -5q50 0 79 40.5t52 118.5q-166 0 -242 64zM382 168.5q-12 -77.5 -12 -109.5q0 -11 2 -11q25 94 80.5 302.5t82.5 305.5q-3 0 -22 -42.5t-43 -109t-44 -138.5q-102 0 -192.5 -6t-91.5 -9q-1 -4 85 -9t191 -5q-24 -91 -36 -168.5z" />
    <glyph glyph-name="periodcentered" unicode="&#xb7;" horiz-adv-x="258" 
d="M77.5 291.5q22.5 23.5 51.5 23.5q23 0 37 -15t14 -37q0 -30 -23 -53t-52 -23q-22 0 -36 14.5t-14 36.5q0 30 22.5 53.5z" />
    <glyph glyph-name="cedilla" unicode="&#xb8;" horiz-adv-x="290" 
d="M64 -72q19 7 41 7q20 0 31.5 -10.5t11.5 -29.5q0 -40 -38.5 -61.5t-84.5 -21.5q-26 0 -47.5 6.5t-32.5 15.5l7 15q29 -13 60 -13q23 0 47.5 12.5t24.5 38.5q0 24 -28 24q-16 0 -31 -7l46 96h27z" />
    <glyph glyph-name="uni00B9" unicode="&#xb9;" horiz-adv-x="253" 
d="M215 437h-59l81 251q-31 -18 -58.5 -30.5t-67.5 -23.5l5 19q63 19 99.5 41.5t81.5 58.5h19z" />
    <glyph glyph-name="ordmasculine" unicode="&#xba;" horiz-adv-x="411" 
d="M132.5 578q25.5 60 74 102t112.5 42q54 0 84.5 -26.5t30.5 -78.5q0 -53 -25.5 -113t-74 -101.5t-112.5 -41.5q-54 0 -84.5 26.5t-30.5 77.5q0 53 25.5 113zM247.5 663q-31.5 -41 -50 -103.5t-18.5 -122.5q0 -58 48 -58q35 0 66.5 41t50 103.5t18.5 122.5q0 58 -48 58
q-35 0 -66.5 -41z" />
    <glyph glyph-name="guillemotright" unicode="&#xbb;" horiz-adv-x="516" 
d="M309 270v-1q-77 -54 -144 -124t-132 -159h-18q33 69 99 157t120 127q-41 34 -83.5 114.5t-57.5 143.5h18q88 -173 198 -258zM474 270v-1q-77 -54 -144 -124t-132 -159h-18q33 69 99 157t120 127q-41 34 -83.5 114.5t-57.5 143.5h18q88 -173 198 -258z" />
    <glyph glyph-name="onequarter" unicode="&#xbc;" horiz-adv-x="606" 
d="M734 811l-833 -866l-15 13l833 866zM215 437h-59l81 251q-31 -18 -58.5 -30.5t-67.5 -23.5l5 19q63 19 99.5 41.5t81.5 58.5h19zM402 73h56l-11 -41h-57l-34 -117h-52l34 117h-189l5 18l300 267h19zM350 73l49 170l-192 -170h143z" />
    <glyph glyph-name="onehalf" unicode="&#xbd;" horiz-adv-x="606" 
d="M734 811l-833 -866l-15 13l833 866zM215 437h-59l81 251q-31 -18 -58.5 -30.5t-67.5 -23.5l5 19q63 19 99.5 41.5t81.5 58.5h19zM519 303q21 -14 21 -43q0 -44 -39.5 -82.5t-110.5 -87.5q-36 -25 -51 -37q22 0 63 -9q6 -1 28 -5t35 -4q21 0 34 9.5t13 25.5q0 11 -4 19
l17 7q10 -15 10 -32q0 -29 -24 -48.5t-66 -19.5q-19 0 -57 8q-42 10 -75 10q-19 0 -32 -3t-33 -11l4 18l36 23q84 53 138.5 101t54.5 98q0 43 -54 43q-62 0 -107 -52l-14 11q26 32 66 53.5t89 21.5q37 0 58 -14z" />
    <glyph glyph-name="threequarters" unicode="&#xbe;" horiz-adv-x="706" 
d="M834 811l-833 -866l-15 13l833 866zM357 740.5q22 -13.5 22 -40.5q0 -39 -44.5 -70.5t-94.5 -43.5q47 -2 78 -19.5t31 -54.5q0 -47 -48 -83t-119 -57t-139 -26v18q60 5 117 25t93 53.5t36 77.5q0 50 -55 52q-19 -10 -32 -10q-7 0 -12.5 3t-5.5 10q0 19 44 17q43 16 68 40
t25 54q0 18 -12.5 27.5t-34.5 9.5q-60 0 -116 -56l-14 12q25 29 66.5 52t88.5 23q36 0 58 -13.5zM502 73h56l-11 -41h-57l-34 -117h-52l34 117h-189l5 18l300 267h19zM450 73l49 170l-192 -170h143z" />
    <glyph glyph-name="questiondown" unicode="&#xbf;" horiz-adv-x="446" 
d="M222.5 504.5q22.5 23.5 51.5 23.5q23 0 37 -15t14 -37q0 -30 -23 -53t-52 -23q-22 0 -36 14.5t-14 36.5q0 30 22.5 53.5zM199.5 -158q37.5 13 46.5 36q-9 2 -17 13.5t-8 26.5q0 21 15.5 35t37.5 14q20 0 30 -11.5t10 -30.5q0 -32 -30 -58t-78.5 -40.5t-101.5 -14.5
q-66 0 -106 25.5t-40 72.5q0 30 15.5 55t49 52t100.5 71l34 24q59 41 81 64t22 55q0 28 -19 48t-49 20q-32 0 -62.5 -12t-42.5 -32q10 -1 18.5 -11.5t7.5 -23.5q0 -16 -13 -28.5t-32 -12.5q-34 0 -34 35q0 30 27.5 53t69 36t81.5 13q52 0 83.5 -25t31.5 -71
q0 -33 -17.5 -60.5t-45.5 -50.5t-80 -60l-23 -16q-71 -47 -98 -74.5t-27 -61.5q0 -29 23 -48.5t64 -19.5q39 0 76.5 13z" />
    <glyph glyph-name="Agrave" unicode="&#xc0;" horiz-adv-x="629" 
d="M521 36q14 -15 32 -16l-4 -20q-40 3 -109 3q-81 0 -120 -3l4 20q34 2 52.5 8.5t26.5 24t7 51.5l-9 164h-246l-75 -106q-47 -66 -47 -99q0 -41 74 -43l-5 -20q-55 3 -114 3q-43 0 -75 -3l5 20q46 10 100 87l431 606h15l40 -629q3 -33 17 -48zM400 288l-17 303l-214 -303
h231zM389 843q-40 27 -60 46q-19 19 -19 39q0 12 7 20q9 10 23 10q11 0 23 -6t20 -15q16 -17 42 -58q49 -70 72 -100l-10 -10q-41 33 -98 74z" />
    <glyph glyph-name="Aacute" unicode="&#xc1;" horiz-adv-x="629" 
d="M521 36q14 -15 32 -16l-4 -20q-40 3 -109 3q-81 0 -120 -3l4 20q34 2 52.5 8.5t26.5 24t7 51.5l-9 164h-246l-75 -106q-47 -66 -47 -99q0 -41 74 -43l-5 -20q-55 3 -114 3q-43 0 -75 -3l5 20q46 10 100 87l431 606h15l40 -629q3 -33 17 -48zM400 288l-17 303l-214 -303
h231zM520.5 838.5q35.5 26.5 46.5 34.5q49 38 72 52q18 11 38 11q21 0 28 -16q2 -6 2 -10q0 -13 -10.5 -24.5t-24.5 -19.5q-19 -11 -46.5 -21.5t-32.5 -12.5q-87 -33 -143 -60l-7 11q42 29 77.5 55.5z" />
    <glyph glyph-name="Acircumflex" unicode="&#xc2;" horiz-adv-x="629" 
d="M521 36q14 -15 32 -16l-4 -20q-40 3 -109 3q-81 0 -120 -3l4 20q34 2 52.5 8.5t26.5 24t7 51.5l-9 164h-246l-75 -106q-47 -66 -47 -99q0 -41 74 -43l-5 -20q-55 3 -114 3q-43 0 -75 -3l5 20q46 10 100 87l431 606h15l40 -629q3 -33 17 -48zM400 288l-17 303l-214 -303
h231zM263 772l-5 14q72 22 134 56.5t101 73.5h18q28 -48 59.5 -79.5t79.5 -50.5l-4 -14q-54 10 -87.5 23.5t-57.5 27t-32 17.5q-111 -47 -206 -68z" />
    <glyph glyph-name="Atilde" unicode="&#xc3;" horiz-adv-x="629" 
d="M521 36q14 -15 32 -16l-4 -20q-40 3 -109 3q-81 0 -120 -3l4 20q34 2 52.5 8.5t26.5 24t7 51.5l-9 164h-246l-75 -106q-47 -66 -47 -99q0 -41 74 -43l-5 -20q-55 3 -114 3q-43 0 -75 -3l5 20q46 10 100 87l431 606h15l40 -629q3 -33 17 -48zM400 288l-17 303l-214 -303
h231zM473 885q21 -10 47 -30q21 -17 36.5 -25t36.5 -8q38 0 70 58l18 -5q-22 -52 -57 -77.5t-73 -25.5q-32 0 -53 10t-47 30q-21 17 -36.5 25t-36.5 8q-38 0 -70 -58l-18 5q22 52 57 77.5t73 25.5q32 0 53 -10z" />
    <glyph glyph-name="Adieresis" unicode="&#xc4;" horiz-adv-x="629" 
d="M521 36q14 -15 32 -16l-4 -20q-40 3 -109 3q-81 0 -120 -3l4 20q34 2 52.5 8.5t26.5 24t7 51.5l-9 164h-246l-75 -106q-47 -66 -47 -99q0 -41 74 -43l-5 -20q-55 3 -114 3q-43 0 -75 -3l5 20q46 10 100 87l431 606h15l40 -629q3 -33 17 -48zM400 288l-17 303l-214 -303
h231zM338.5 867.5q20.5 20.5 46.5 20.5q21 0 35.5 -14.5t14.5 -35.5q0 -25 -20 -45.5t-47 -20.5q-22 0 -36 14.5t-14 36.5q0 24 20.5 44.5zM550.5 867.5q20.5 20.5 46.5 20.5q21 0 35.5 -14.5t14.5 -35.5q0 -25 -20 -45.5t-47 -20.5q-22 0 -36 14.5t-14 36.5q0 24 20.5 44.5
z" />
    <glyph glyph-name="Aring" unicode="&#xc5;" horiz-adv-x="629" 
d="M521 36q14 -15 32 -16l-4 -20q-40 3 -109 3q-81 0 -120 -3l4 20q34 2 52.5 8.5t26.5 24t7 51.5l-9 164h-246l-75 -106q-47 -66 -47 -99q0 -41 74 -43l-5 -20q-55 3 -114 3q-43 0 -75 -3l5 20q46 10 100 87l431 606h15l40 -629q3 -33 17 -48zM400 288l-17 303l-214 -303
h231zM548.5 903q24.5 -22 24.5 -58q0 -42 -33.5 -72.5t-78.5 -30.5q-36 0 -59.5 21.5t-23.5 58.5q0 43 32 73t77 30q37 0 61.5 -22zM522 787q25 24 25 59q0 27 -19.5 42.5t-44.5 15.5q-31 0 -55 -24.5t-24 -56.5q0 -28 18 -44t43 -16q32 0 57 24z" />
    <glyph glyph-name="AE" unicode="&#xc6;" horiz-adv-x="897" 
d="M934 708q-13 -36 -38 -118q-9 -30 -13 -62h-22q7 39 7 71q0 47 -21 66.5t-67 19.5h-93q-35 0 -52.5 -5.5t-27.5 -22.5t-20 -55l-63 -236h108q28 0 47 15t30.5 37t25.5 60h22q-16 -49 -27 -95l-7 -27q-11 -41 -26 -122h-22q0 16 3 31q2 22 2 31q0 22 -11 35t-41 15h-109
l-64 -240q-9 -38 -9 -49q0 -21 14.5 -27.5t51.5 -6.5h103q48 0 79 16.5t54 54t46 106.5h22q-8 -22 -21 -72q-17 -59 -26 -128q-68 3 -226 3q-190 0 -288 -3l4 20q36 2 54 8t28.5 23t20.5 55l64 240h-163l-223 -252q-15 -18 -22 -28.5t-7 -18.5q0 -23 62 -27v-20q-27 3 -86 3
q-43 0 -67 -3v20q31 2 86 64l496 561q1 25 -13 33t-54 10l5 20q72 -2 116 -2l59 67h26l-60 -67q59 -1 146 -1q144 0 207 3zM431 366l63 236l2 7l-215 -243h150z" />
    <glyph glyph-name="Ccedilla" unicode="&#xc7;" horiz-adv-x="670" 
d="M648 478h-22q6 39 6 69q0 48 -16 79q-18 37 -53.5 57.5t-77.5 20.5q-83 0 -160.5 -78t-125.5 -196.5t-48 -229.5q0 -96 38 -146t105 -50q44 0 93 20.5t85 57.5q26 26 45 60.5t45 97.5h22q-47 -173 -59 -240h-22q3 21 3 34q0 26 -12 26q-7 0 -21 -9q-52 -34 -91 -49.5
t-98 -15.5q-111 0 -172 60t-61 175t57.5 232t158 193t220.5 76q58 0 88.5 -16.5t60.5 -48.5q7 -9 15 -9q9 0 18.5 14.5t21.5 45.5h21q-33 -86 -64 -230zM266 -72q24 7 51 7q25 0 39 -10.5t14 -29.5q0 -40 -48.5 -61.5t-104.5 -21.5q-33 0 -59.5 6.5t-40.5 15.5l7 15
q32 -13 80 -13q33 0 67.5 12.5t34.5 38.5q0 24 -38 24q-20 0 -41 -7l48 100h27z" />
    <glyph glyph-name="Egrave" unicode="&#xc8;" horiz-adv-x="610" 
d="M642 708q-26 -72 -38 -118q-11 -36 -14 -62h-23q9 58 9 80q0 43 -22 60t-79 17h-73q-36 0 -53.5 -5.5t-28.5 -22.5t-21 -55l-63 -236h66q35 0 58 16.5t36 38.5t26 56q3 10 8 21h23q-21 -66 -35 -119l-6 -23q-14 -53 -32 -142h-23l3 20q1 7 3 22t2 26q0 30 -15.5 47
t-53.5 17h-66l-64 -240q-9 -31 -9 -49q0 -21 15 -27.5t53 -6.5h73q62 0 99 16.5t61.5 53t50.5 107.5h23q-11 -29 -22 -72q-16 -56 -27 -128q-68 3 -229 3q-192 0 -289 -3l5 20q36 2 53.5 8t28.5 23t21 55l133 496q9 32 9 49q0 21 -14.5 28t-52.5 9l5 20q98 -3 290 -3
q140 0 199 3zM354 843q-40 27 -60 46q-19 19 -19 39q0 12 7 20q9 10 23 10q11 0 23 -6t20 -15q16 -17 42 -58q49 -70 72 -100l-10 -10q-41 33 -98 74z" />
    <glyph glyph-name="Eacute" unicode="&#xc9;" horiz-adv-x="610" 
d="M642 708q-26 -72 -38 -118q-11 -36 -14 -62h-23q9 58 9 80q0 43 -22 60t-79 17h-73q-36 0 -53.5 -5.5t-28.5 -22.5t-21 -55l-63 -236h66q35 0 58 16.5t36 38.5t26 56q3 10 8 21h23q-21 -66 -35 -119l-6 -23q-14 -53 -32 -142h-23l3 20q1 7 3 22t2 26q0 30 -15.5 47
t-53.5 17h-66l-64 -240q-9 -31 -9 -49q0 -21 15 -27.5t53 -6.5h73q62 0 99 16.5t61.5 53t50.5 107.5h23q-11 -29 -22 -72q-16 -56 -27 -128q-68 3 -229 3q-192 0 -289 -3l5 20q36 2 53.5 8t28.5 23t21 55l133 496q9 32 9 49q0 21 -14.5 28t-52.5 9l5 20q98 -3 290 -3
q140 0 199 3zM485.5 838.5q35.5 26.5 46.5 34.5q49 38 72 52q18 11 38 11q21 0 28 -16q2 -6 2 -10q0 -13 -10.5 -24.5t-24.5 -19.5q-19 -11 -46.5 -21.5t-32.5 -12.5q-87 -33 -143 -60l-7 11q42 29 77.5 55.5z" />
    <glyph glyph-name="Ecircumflex" unicode="&#xca;" horiz-adv-x="610" 
d="M642 708q-26 -72 -38 -118q-11 -36 -14 -62h-23q9 58 9 80q0 43 -22 60t-79 17h-73q-36 0 -53.5 -5.5t-28.5 -22.5t-21 -55l-63 -236h66q35 0 58 16.5t36 38.5t26 56q3 10 8 21h23q-21 -66 -35 -119l-6 -23q-14 -53 -32 -142h-23l3 20q1 7 3 22t2 26q0 30 -15.5 47
t-53.5 17h-66l-64 -240q-9 -31 -9 -49q0 -21 15 -27.5t53 -6.5h73q62 0 99 16.5t61.5 53t50.5 107.5h23q-11 -29 -22 -72q-16 -56 -27 -128q-68 3 -229 3q-192 0 -289 -3l5 20q36 2 53.5 8t28.5 23t21 55l133 496q9 32 9 49q0 21 -14.5 28t-52.5 9l5 20q98 -3 290 -3
q140 0 199 3zM228 772l-5 14q72 22 134 56.5t101 73.5h18q28 -48 59.5 -79.5t79.5 -50.5l-4 -14q-54 10 -87.5 23.5t-57.5 27t-32 17.5q-111 -47 -206 -68z" />
    <glyph glyph-name="Edieresis" unicode="&#xcb;" horiz-adv-x="610" 
d="M642 708q-26 -72 -38 -118q-11 -36 -14 -62h-23q9 58 9 80q0 43 -22 60t-79 17h-73q-36 0 -53.5 -5.5t-28.5 -22.5t-21 -55l-63 -236h66q35 0 58 16.5t36 38.5t26 56q3 10 8 21h23q-21 -66 -35 -119l-6 -23q-14 -53 -32 -142h-23l3 20q1 7 3 22t2 26q0 30 -15.5 47
t-53.5 17h-66l-64 -240q-9 -31 -9 -49q0 -21 15 -27.5t53 -6.5h73q62 0 99 16.5t61.5 53t50.5 107.5h23q-11 -29 -22 -72q-16 -56 -27 -128q-68 3 -229 3q-192 0 -289 -3l5 20q36 2 53.5 8t28.5 23t21 55l133 496q9 32 9 49q0 21 -14.5 28t-52.5 9l5 20q98 -3 290 -3
q140 0 199 3zM303.5 867.5q20.5 20.5 46.5 20.5q21 0 35.5 -14.5t14.5 -35.5q0 -25 -20 -45.5t-47 -20.5q-22 0 -36 14.5t-14 36.5q0 24 20.5 44.5zM515.5 867.5q20.5 20.5 46.5 20.5q21 0 35.5 -14.5t14.5 -35.5q0 -25 -20 -45.5t-47 -20.5q-22 0 -36 14.5t-14 36.5
q0 24 20.5 44.5z" />
    <glyph glyph-name="Igrave" unicode="&#xcc;" horiz-adv-x="341" 
d="M157 57q0 -21 14.5 -28t53.5 -9l-4 -20q-46 3 -127 3q-84 0 -127 -3l5 20q35 2 52.5 8t28 23.5t20.5 54.5l132 496q8 34 8 48q0 22 -14.5 29t-52.5 9l5 20q41 -3 127 -3q80 0 128 3l-5 -20q-37 -2 -54.5 -8t-28 -23t-20.5 -55l-132 -496q-9 -38 -9 -49zM216 843
q-40 27 -60 46q-19 19 -19 39q0 12 7 20q9 10 23 10q11 0 23 -6t20 -15q16 -17 42 -58q49 -70 72 -100l-10 -10q-41 33 -98 74z" />
    <glyph glyph-name="Iacute" unicode="&#xcd;" horiz-adv-x="341" 
d="M157 57q0 -21 14.5 -28t53.5 -9l-4 -20q-46 3 -127 3q-84 0 -127 -3l5 20q35 2 52.5 8t28 23.5t20.5 54.5l132 496q8 34 8 48q0 22 -14.5 29t-52.5 9l5 20q41 -3 127 -3q80 0 128 3l-5 -20q-37 -2 -54.5 -8t-28 -23t-20.5 -55l-132 -496q-9 -38 -9 -49zM347.5 838.5
q35.5 26.5 46.5 34.5q49 38 72 52q18 11 38 11q21 0 28 -16q2 -6 2 -10q0 -13 -10.5 -24.5t-24.5 -19.5q-19 -11 -46.5 -21.5t-32.5 -12.5q-87 -33 -143 -60l-7 11q42 29 77.5 55.5z" />
    <glyph glyph-name="Icircumflex" unicode="&#xce;" horiz-adv-x="341" 
d="M157 57q0 -21 14.5 -28t53.5 -9l-4 -20q-46 3 -127 3q-84 0 -127 -3l5 20q35 2 52.5 8t28 23.5t20.5 54.5l132 496q8 34 8 48q0 22 -14.5 29t-52.5 9l5 20q41 -3 127 -3q80 0 128 3l-5 -20q-37 -2 -54.5 -8t-28 -23t-20.5 -55l-132 -496q-9 -38 -9 -49zM90 772l-5 14
q72 22 134 56.5t101 73.5h18q28 -48 59.5 -79.5t79.5 -50.5l-4 -14q-54 10 -87.5 23.5t-57.5 27t-32 17.5q-111 -47 -206 -68z" />
    <glyph glyph-name="Idieresis" unicode="&#xcf;" horiz-adv-x="341" 
d="M157 57q0 -21 14.5 -28t53.5 -9l-4 -20q-46 3 -127 3q-84 0 -127 -3l5 20q35 2 52.5 8t28 23.5t20.5 54.5l132 496q8 34 8 48q0 22 -14.5 29t-52.5 9l5 20q41 -3 127 -3q80 0 128 3l-5 -20q-37 -2 -54.5 -8t-28 -23t-20.5 -55l-132 -496q-9 -38 -9 -49zM165.5 867.5
q20.5 20.5 46.5 20.5q21 0 35.5 -14.5t14.5 -35.5q0 -25 -20 -45.5t-47 -20.5q-22 0 -36 14.5t-14 36.5q0 24 20.5 44.5zM377.5 867.5q20.5 20.5 46.5 20.5q21 0 35.5 -14.5t14.5 -35.5q0 -25 -20 -45.5t-47 -20.5q-22 0 -36 14.5t-14 36.5q0 24 20.5 44.5z" />
    <glyph glyph-name="Eth" unicode="&#xd0;" horiz-adv-x="725" 
d="M642 249.5q-62 -112.5 -170.5 -181t-241.5 -68.5l-58 1q-56 2 -82 2q-81 0 -120 -3l3 20q34 2 51.5 8t28 23.5t20.5 54.5l131 496q9 38 9 49q0 20 -14.5 28t-52.5 9l3 20q34 -3 97 -3l85 1q68 2 91 2q141 0 211.5 -56t70.5 -165q0 -125 -62 -237.5zM430 85.5
q88 67.5 133 180.5t45 246q0 91 -51 134.5t-163 43.5q-31 0 -48.5 -7t-28.5 -25t-20 -54l-131 -500q-9 -36 -9 -49q0 -19 13.5 -28t47.5 -9q124 0 212 67.5zM432 341h-412l6 25h412z" />
    <glyph glyph-name="Ntilde" unicode="&#xd1;" horiz-adv-x="770" 
d="M858 740q14 -14 14 -37q0 -27 -16 -49.5t-43 -22.5q-20 0 -29 11.5t-9 27.5t9 33t23 30h-3q-49 -1 -82 -51q-44 -66 -92 -232.5t-109 -454.5h-22l-228 644q-49 -251 -92.5 -424t-83.5 -226q-22 -29 -46.5 -46t-60.5 -17q-60 0 -60 52q0 27 16 49t43 22q20 0 29 -11.5
t9 -27.5t-9 -33t-23 -30h3q51 1 83 52q37 59 77 211t87 392q6 29 6 45q0 24 -16 31.5t-61 9.5l5 20q32 -3 89 -3q46 0 81 3l189 -553q43 192 84 332.5t84 202.5q44 64 108 64q32 0 46 -14zM526 885q21 -10 47 -30q21 -17 36.5 -25t36.5 -8q38 0 70 58l18 -5
q-22 -52 -57 -77.5t-73 -25.5q-32 0 -53 10t-47 30q-21 17 -36.5 25t-36.5 8q-38 0 -70 -58l-18 5q22 52 57 77.5t73 25.5q32 0 53 -10z" />
    <glyph glyph-name="Ograve" unicode="&#xd2;" horiz-adv-x="729" 
d="M107 455q53 116 148.5 191.5t215.5 75.5q112 0 174 -63t62 -178q0 -113 -53.5 -228.5t-149.5 -191t-215 -75.5q-111 0 -173 63t-62 177q0 113 53 229zM316.5 632q-70.5 -72 -113.5 -186.5t-43 -232.5q0 -97 38 -153t100 -56q75 0 145.5 72t113.5 186.5t43 232.5
q0 97 -38 153t-100 56q-75 0 -145.5 -72zM397 843q-40 27 -60 46q-19 19 -19 39q0 12 7 20q9 10 23 10q11 0 23 -6t20 -15q16 -17 42 -58q49 -70 72 -100l-10 -10q-41 33 -98 74z" />
    <glyph glyph-name="Oacute" unicode="&#xd3;" horiz-adv-x="729" 
d="M107 455q53 116 148.5 191.5t215.5 75.5q112 0 174 -63t62 -178q0 -113 -53.5 -228.5t-149.5 -191t-215 -75.5q-111 0 -173 63t-62 177q0 113 53 229zM316.5 632q-70.5 -72 -113.5 -186.5t-43 -232.5q0 -97 38 -153t100 -56q75 0 145.5 72t113.5 186.5t43 232.5
q0 97 -38 153t-100 56q-75 0 -145.5 -72zM528.5 838.5q35.5 26.5 46.5 34.5q49 38 72 52q18 11 38 11q21 0 28 -16q2 -6 2 -10q0 -13 -10.5 -24.5t-24.5 -19.5q-19 -11 -46.5 -21.5t-32.5 -12.5q-87 -33 -143 -60l-7 11q42 29 77.5 55.5z" />
    <glyph glyph-name="Ocircumflex" unicode="&#xd4;" horiz-adv-x="729" 
d="M107 455q53 116 148.5 191.5t215.5 75.5q112 0 174 -63t62 -178q0 -113 -53.5 -228.5t-149.5 -191t-215 -75.5q-111 0 -173 63t-62 177q0 113 53 229zM316.5 632q-70.5 -72 -113.5 -186.5t-43 -232.5q0 -97 38 -153t100 -56q75 0 145.5 72t113.5 186.5t43 232.5
q0 97 -38 153t-100 56q-75 0 -145.5 -72zM271 772l-5 14q72 22 134 56.5t101 73.5h18q28 -48 59.5 -79.5t79.5 -50.5l-4 -14q-54 10 -87.5 23.5t-57.5 27t-32 17.5q-111 -47 -206 -68z" />
    <glyph glyph-name="Otilde" unicode="&#xd5;" horiz-adv-x="729" 
d="M107 455q53 116 148.5 191.5t215.5 75.5q112 0 174 -63t62 -178q0 -113 -53.5 -228.5t-149.5 -191t-215 -75.5q-111 0 -173 63t-62 177q0 113 53 229zM316.5 632q-70.5 -72 -113.5 -186.5t-43 -232.5q0 -97 38 -153t100 -56q75 0 145.5 72t113.5 186.5t43 232.5
q0 97 -38 153t-100 56q-75 0 -145.5 -72zM481 885q21 -10 47 -30q21 -17 36.5 -25t36.5 -8q38 0 70 58l18 -5q-22 -52 -57 -77.5t-73 -25.5q-32 0 -53 10t-47 30q-21 17 -36.5 25t-36.5 8q-38 0 -70 -58l-18 5q22 52 57 77.5t73 25.5q32 0 53 -10z" />
    <glyph glyph-name="Odieresis" unicode="&#xd6;" horiz-adv-x="729" 
d="M107 455q53 116 148.5 191.5t215.5 75.5q112 0 174 -63t62 -178q0 -113 -53.5 -228.5t-149.5 -191t-215 -75.5q-111 0 -173 63t-62 177q0 113 53 229zM316.5 632q-70.5 -72 -113.5 -186.5t-43 -232.5q0 -97 38 -153t100 -56q75 0 145.5 72t113.5 186.5t43 232.5
q0 97 -38 153t-100 56q-75 0 -145.5 -72zM346.5 867.5q20.5 20.5 46.5 20.5q21 0 35.5 -14.5t14.5 -35.5q0 -25 -20 -45.5t-47 -20.5q-22 0 -36 14.5t-14 36.5q0 24 20.5 44.5zM558.5 867.5q20.5 20.5 46.5 20.5q21 0 35.5 -14.5t14.5 -35.5q0 -25 -20 -45.5t-47 -20.5
q-22 0 -36 14.5t-14 36.5q0 24 20.5 44.5z" />
    <glyph glyph-name="multiply" unicode="&#xd7;" horiz-adv-x="513" 
d="M250 355l-125 175l26 18l123 -175l227 177l16 -22l-227 -176l125 -173l-25 -18l-124 173l-224 -174l-15 22z" />
    <glyph glyph-name="Oslash" unicode="&#xd8;" horiz-adv-x="729" 
d="M666 633q41 -59 41 -152q0 -113 -53.5 -228.5t-149.5 -191t-215 -75.5q-113 0 -175 65l-117 -124l-17 14l119 127q-45 61 -45 158q0 113 53 229t148.5 191.5t215.5 75.5q121 0 183 -73l118 124l15 -13zM316.5 632q-70.5 -72 -113.5 -186.5t-43 -232.5q0 -42 8 -80
l421 454q-16 56 -49 86.5t-78 30.5q-75 0 -145.5 -72zM443.5 76q70.5 72 113.5 186.5t43 232.5q0 37 -6 67l-419 -454q16 -49 48.5 -76.5t74.5 -27.5q75 0 145.5 72z" />
    <glyph glyph-name="Ugrave" unicode="&#xd9;" horiz-adv-x="682" 
d="M638 636q0 28 -17 39t-57 13l5 20q35 -3 101 -3q59 0 94 3l-5 -20q-35 -2 -54.5 -10.5t-31 -28t-20.5 -57.5l-78 -301q-36 -138 -98 -212q-37 -43 -90.5 -68t-114.5 -25q-107 0 -154 54q-18 21 -26.5 45.5t-8.5 56.5q0 54 25 146l83 314q8 34 8 48q0 22 -14.5 29t-52.5 9
l6 20q40 -3 129 -3q77 0 125 3l-6 -20q-37 -2 -54.5 -8t-28 -23t-20.5 -55l-88 -331q-22 -85 -22 -135q0 -55 27.5 -85t90.5 -30q105 0 165.5 68t92.5 191l82 312q7 25 7 44zM407 843q-40 27 -60 46q-19 19 -19 39q0 12 7 20q9 10 23 10q11 0 23 -6t20 -15q16 -17 42 -58
q49 -70 72 -100l-10 -10q-41 33 -98 74z" />
    <glyph glyph-name="Uacute" unicode="&#xda;" horiz-adv-x="682" 
d="M638 636q0 28 -17 39t-57 13l5 20q35 -3 101 -3q59 0 94 3l-5 -20q-35 -2 -54.5 -10.5t-31 -28t-20.5 -57.5l-78 -301q-36 -138 -98 -212q-37 -43 -90.5 -68t-114.5 -25q-107 0 -154 54q-18 21 -26.5 45.5t-8.5 56.5q0 54 25 146l83 314q8 34 8 48q0 22 -14.5 29t-52.5 9
l6 20q40 -3 129 -3q77 0 125 3l-6 -20q-37 -2 -54.5 -8t-28 -23t-20.5 -55l-88 -331q-22 -85 -22 -135q0 -55 27.5 -85t90.5 -30q105 0 165.5 68t92.5 191l82 312q7 25 7 44zM538.5 838.5q35.5 26.5 46.5 34.5q49 38 72 52q18 11 38 11q21 0 28 -16q2 -6 2 -10
q0 -13 -10.5 -24.5t-24.5 -19.5q-19 -11 -46.5 -21.5t-32.5 -12.5q-87 -33 -143 -60l-7 11q42 29 77.5 55.5z" />
    <glyph glyph-name="Ucircumflex" unicode="&#xdb;" horiz-adv-x="682" 
d="M638 636q0 28 -17 39t-57 13l5 20q35 -3 101 -3q59 0 94 3l-5 -20q-35 -2 -54.5 -10.5t-31 -28t-20.5 -57.5l-78 -301q-36 -138 -98 -212q-37 -43 -90.5 -68t-114.5 -25q-107 0 -154 54q-18 21 -26.5 45.5t-8.5 56.5q0 54 25 146l83 314q8 34 8 48q0 22 -14.5 29t-52.5 9
l6 20q40 -3 129 -3q77 0 125 3l-6 -20q-37 -2 -54.5 -8t-28 -23t-20.5 -55l-88 -331q-22 -85 -22 -135q0 -55 27.5 -85t90.5 -30q105 0 165.5 68t92.5 191l82 312q7 25 7 44zM281 772l-5 14q72 22 134 56.5t101 73.5h18q28 -48 59.5 -79.5t79.5 -50.5l-4 -14
q-54 10 -87.5 23.5t-57.5 27t-32 17.5q-111 -47 -206 -68z" />
    <glyph glyph-name="Udieresis" unicode="&#xdc;" horiz-adv-x="682" 
d="M638 636q0 28 -17 39t-57 13l5 20q35 -3 101 -3q59 0 94 3l-5 -20q-35 -2 -54.5 -10.5t-31 -28t-20.5 -57.5l-78 -301q-36 -138 -98 -212q-37 -43 -90.5 -68t-114.5 -25q-107 0 -154 54q-18 21 -26.5 45.5t-8.5 56.5q0 54 25 146l83 314q8 34 8 48q0 22 -14.5 29t-52.5 9
l6 20q40 -3 129 -3q77 0 125 3l-6 -20q-37 -2 -54.5 -8t-28 -23t-20.5 -55l-88 -331q-22 -85 -22 -135q0 -55 27.5 -85t90.5 -30q105 0 165.5 68t92.5 191l82 312q7 25 7 44zM356.5 867.5q20.5 20.5 46.5 20.5q21 0 35.5 -14.5t14.5 -35.5q0 -25 -20 -45.5t-47 -20.5
q-22 0 -36 14.5t-14 36.5q0 24 20.5 44.5zM568.5 867.5q20.5 20.5 46.5 20.5q21 0 35.5 -14.5t14.5 -35.5q0 -25 -20 -45.5t-47 -20.5q-22 0 -36 14.5t-14 36.5q0 24 20.5 44.5z" />
    <glyph glyph-name="Yacute" unicode="&#xdd;" horiz-adv-x="670" 
d="M742.5 707q13.5 -15 13.5 -38q0 -25 -15 -47.5t-44 -22.5q-20 0 -29 11.5t-9 28.5q0 16 9 32.5t23 29.5h-3q-27 -1 -55 -22q-52 -38 -112.5 -122.5t-116.5 -218.5l-58 -232q-8 -34 -8 -48q0 -22 14.5 -29t52.5 -9l-5 -20q-45 3 -124 3q-87 0 -131 -3l5 20q36 2 54 8
t29 23.5t20 54.5l59 233q-16 142 -43 235t-74 93q-17 0 -28.5 -11t-19.5 -36l-28 -82h-22l33 97q16 47 36.5 67t61.5 20q53 0 85.5 -43t50.5 -120t31 -199q37 93 85 168t102 129q65 65 118 65q29 0 42.5 -15zM534.5 838.5q35.5 26.5 46.5 34.5q49 38 72 52q18 11 38 11
q21 0 28 -16q2 -6 2 -10q0 -13 -10.5 -24.5t-24.5 -19.5q-19 -11 -46.5 -21.5t-32.5 -12.5q-87 -33 -143 -60l-7 11q42 29 77.5 55.5z" />
    <glyph glyph-name="Thorn" unicode="&#xde;" horiz-adv-x="605" 
d="M166 106q-9 -38 -9 -49q0 -21 14.5 -28t53.5 -9l-4 -20q-46 3 -127 3q-84 0 -127 -3l5 20q35 2 52.5 8t28 23.5t20.5 54.5l132 496q8 34 8 48q0 22 -14.5 29t-52.5 9l5 20q41 -3 127 -3q80 0 128 3l-5 -20q-37 -2 -54.5 -8t-28 -23t-20.5 -55l-8 -29q70 2 106 2
q98 0 148.5 -40.5t50.5 -110.5q0 -78 -47.5 -140t-133.5 -97t-196 -35h-40zM184 172h44q140 0 203 73t63 195q0 59 -30 87.5t-97 28.5q-49 0 -82 -3z" />
    <glyph glyph-name="germandbls" unicode="&#xdf;" horiz-adv-x="547" 
d="M295.5 726.5q-27.5 -40.5 -53.5 -137.5l-201 -763q-54 -2 -90 -14l182 695q25 96 55 155t76 89.5t117 30.5q70 0 103 -29t33 -72t-27.5 -79t-80.5 -84l-24 -23q-34 -31 -34 -75q0 -30 12.5 -53.5t37.5 -55.5l16 -21q28 -38 43.5 -73t15.5 -72q0 -47 -24 -83t-65 -56
t-90 -20q-52 0 -90 22t-38 64q0 22 11 35t28 13q24 0 33.5 -21.5t9.5 -46.5q0 -14 -6 -38q22 -8 42 -8q46 0 75.5 28t29.5 76q0 65 -52 131q-5 7 -24 30t-30 47.5t-11 50.5q0 32 15 53t48 49q31 28 38 36q64 67 64 154q0 53 -20 79.5t-54 26.5q-43 0 -70.5 -40.5z" />
    <glyph glyph-name="agrave" unicode="&#xe0;" horiz-adv-x="523" 
d="M455 163h19l-25 -73q-20 -55 -51 -79.5t-64 -24.5q-19 0 -33 7t-22 19q-9 15 -9 35q0 21 7 47t9 33l18 72q-48 -112 -97.5 -162.5t-103.5 -50.5q-46 0 -70 33t-24 88q0 81 43 181t112 170t140 70q27 0 44 -20t20 -56l16 62q55 2 92 14l-125 -442q-1 -4 -4 -15.5t-3 -21.5
q0 -25 22 -25q44 0 77 102zM199 61q39 43 76.5 114.5t61.5 152.5l18 71q1 8 1 22q0 41 -14.5 64.5t-40.5 23.5q-43 0 -91 -66.5t-80.5 -164t-32.5 -183.5q0 -41 9 -59t26 -18q28 0 67 43zM261 717q-5 6 -22.5 27.5t-28.5 39.5q-10 17 -10 32q0 20 16 28q7 3 16 3
q25 0 43 -31q10 -17 33 -75q26 -69 58 -136l-13 -6q-37 51 -92 118z" />
    <glyph glyph-name="aacute" unicode="&#xe1;" horiz-adv-x="523" 
d="M455 163h19l-25 -73q-20 -55 -51 -79.5t-64 -24.5q-19 0 -33 7t-22 19q-9 15 -9 35q0 21 7 47t9 33l18 72q-48 -112 -97.5 -162.5t-103.5 -50.5q-46 0 -70 33t-24 88q0 81 43 181t112 170t140 70q27 0 44 -20t20 -56l16 62q55 2 92 14l-125 -442q-1 -4 -4 -15.5t-3 -21.5
q0 -25 22 -25q44 0 77 102zM199 61q39 43 76.5 114.5t61.5 152.5l18 71q1 8 1 22q0 41 -14.5 64.5t-40.5 23.5q-43 0 -91 -66.5t-80.5 -164t-32.5 -183.5q0 -41 9 -59t26 -18q28 0 67 43zM386 726q38 52 58 72q19 22 41 22q14 0 22 -7q8 -8 8 -19q0 -20 -23 -43
q-22 -23 -68 -55q-7 -5 -42 -32.5t-78 -64.5l-10 9q39 47 92 118z" />
    <glyph glyph-name="acircumflex" unicode="&#xe2;" horiz-adv-x="523" 
d="M455 163h19l-25 -73q-20 -55 -51 -79.5t-64 -24.5q-19 0 -33 7t-22 19q-9 15 -9 35q0 21 7 47t9 33l18 72q-48 -112 -97.5 -162.5t-103.5 -50.5q-46 0 -70 33t-24 88q0 81 43 181t112 170t140 70q27 0 44 -20t20 -56l16 62q55 2 92 14l-125 -442q-1 -4 -4 -15.5t-3 -21.5
q0 -25 22 -25q44 0 77 102zM199 61q39 43 76.5 114.5t61.5 152.5l18 71q1 8 1 22q0 41 -14.5 64.5t-40.5 23.5q-43 0 -91 -66.5t-80.5 -164t-32.5 -183.5q0 -41 9 -59t26 -18q28 0 67 43zM262 662q-46 -28 -91 -46l-5 14q65 28 122 74t93 98h18q11 -63 38 -103t81 -69
l-4 -14q-58 16 -95.5 41t-72.5 63q-38 -30 -84 -58z" />
    <glyph glyph-name="atilde" unicode="&#xe3;" horiz-adv-x="523" 
d="M455 163h19l-25 -73q-20 -55 -51 -79.5t-64 -24.5q-19 0 -33 7t-22 19q-9 15 -9 35q0 21 7 47t9 33l18 72q-48 -112 -97.5 -162.5t-103.5 -50.5q-46 0 -70 33t-24 88q0 81 43 181t112 170t140 70q27 0 44 -20t20 -56l16 62q55 2 92 14l-125 -442q-1 -4 -4 -15.5t-3 -21.5
q0 -25 22 -25q44 0 77 102zM199 61q39 43 76.5 114.5t61.5 152.5l18 71q1 8 1 22q0 41 -14.5 64.5t-40.5 23.5q-43 0 -91 -66.5t-80.5 -164t-32.5 -183.5q0 -41 9 -59t26 -18q28 0 67 43zM357 757.5q19 -10.5 40 -29.5q19 -17 32.5 -25t32.5 -8q38 0 70 58l18 -5
q-22 -52 -57 -77.5t-73 -25.5q-29 0 -48 10.5t-40 29.5q-19 17 -32.5 25t-32.5 8q-38 0 -70 -58l-18 5q22 52 57 77.5t73 25.5q29 0 48 -10.5z" />
    <glyph glyph-name="adieresis" unicode="&#xe4;" horiz-adv-x="523" 
d="M455 163h19l-25 -73q-20 -55 -51 -79.5t-64 -24.5q-19 0 -33 7t-22 19q-9 15 -9 35q0 21 7 47t9 33l18 72q-48 -112 -97.5 -162.5t-103.5 -50.5q-46 0 -70 33t-24 88q0 81 43 181t112 170t140 70q27 0 44 -20t20 -56l16 62q55 2 92 14l-125 -442q-1 -4 -4 -15.5t-3 -21.5
q0 -25 22 -25q44 0 77 102zM199 61q39 43 76.5 114.5t61.5 152.5l18 71q1 8 1 22q0 41 -14.5 64.5t-40.5 23.5q-43 0 -91 -66.5t-80.5 -164t-32.5 -183.5q0 -41 9 -59t26 -18q28 0 67 43zM229.5 722.5q20.5 20.5 46.5 20.5q21 0 35.5 -14.5t14.5 -35.5q0 -25 -20 -45.5
t-47 -20.5q-22 0 -36 14.5t-14 36.5q0 24 20.5 44.5zM441.5 722.5q20.5 20.5 46.5 20.5q21 0 35.5 -14.5t14.5 -35.5q0 -25 -20 -45.5t-47 -20.5q-22 0 -36 14.5t-14 36.5q0 24 20.5 44.5z" />
    <glyph glyph-name="aring" unicode="&#xe5;" horiz-adv-x="523" 
d="M455 163h19l-25 -73q-20 -55 -51 -79.5t-64 -24.5q-19 0 -33 7t-22 19q-9 15 -9 35q0 21 7 47t9 33l18 72q-48 -112 -97.5 -162.5t-103.5 -50.5q-46 0 -70 33t-24 88q0 81 43 181t112 170t140 70q27 0 44 -20t20 -56l16 62q55 2 92 14l-125 -442q-1 -4 -4 -15.5t-3 -21.5
q0 -25 22 -25q44 0 77 102zM199 61q39 43 76.5 114.5t61.5 152.5l18 71q1 8 1 22q0 41 -14.5 64.5t-40.5 23.5q-43 0 -91 -66.5t-80.5 -164t-32.5 -183.5q0 -41 9 -59t26 -18q28 0 67 43zM452.5 769q24.5 -22 24.5 -58q0 -42 -33.5 -72.5t-78.5 -30.5q-36 0 -59.5 21.5
t-23.5 58.5q0 43 32 73t77 30q37 0 61.5 -22zM426 653q25 24 25 59q0 27 -19.5 42.5t-44.5 15.5q-31 0 -55 -24.5t-24 -56.5q0 -28 18.5 -44t42.5 -16q32 0 57 24z" />
    <glyph glyph-name="ae" unicode="&#xe6;" horiz-adv-x="659" 
d="M554.5 316q-90.5 -58 -209.5 -96q-10 -53 -10 -96q0 -96 69 -96q82 0 150 100l20 -8q-32 -55 -86.5 -94.5t-114.5 -39.5q-49 0 -81.5 22.5t-44.5 66.5q-57 -89 -144 -89q-50 0 -75 30t-25 81q0 86 54.5 185.5t138 167.5t162.5 68q19 0 36.5 -8t29.5 -27q61 45 127 45
q42 0 68 -19.5t26 -56.5q0 -78 -90.5 -136zM464 471.5q-36 -37.5 -67 -100t-48 -132.5q99 35 138 65q37 29 57.5 70.5t20.5 89.5q0 21 -9.5 33t-26.5 12q-29 0 -65 -37.5zM188.5 37q28.5 19 54.5 60q-2 20 -2 30q0 52 21.5 117.5t60.5 127t88 101.5q-17 24 -46 24
q-53 0 -118.5 -60.5t-110.5 -156t-45 -195.5q0 -31 11 -49t33 -18q25 0 53.5 19z" />
    <glyph glyph-name="ccedilla" unicode="&#xe7;" horiz-adv-x="432" 
d="M223.5 454q-49.5 -54 -81 -143t-31.5 -187q0 -49 18.5 -72.5t51.5 -23.5q82 0 150 100l20 -8q-32 -55 -86.5 -94.5t-114.5 -39.5q-61 0 -96.5 37.5t-35.5 109.5q0 81 38 174t107 157t157 64q46 0 77 -23t31 -62q0 -31 -20 -55.5t-51 -24.5q-20 0 -30.5 11t-10.5 28
q0 28 22 48.5t53 26.5q-21 31 -68 31q-50 0 -99.5 -54zM123 -72q19 7 41 7q20 0 31.5 -10.5t11.5 -29.5q0 -40 -38.5 -61.5t-84.5 -21.5q-26 0 -47.5 6.5t-32.5 15.5l7 15q29 -13 60 -13q23 0 47.5 12.5t24.5 38.5q0 24 -28 24q-16 0 -31 -7l46 96h27z" />
    <glyph glyph-name="egrave" unicode="&#xe8;" horiz-adv-x="429" 
d="M325 320q-91 -61 -208 -99q-11 -50 -11 -97q0 -96 69 -96q86 0 154 100l16 -8q-32 -55 -86.5 -94.5t-114.5 -39.5q-62 0 -97 36t-35 105q0 76 44.5 171.5t120.5 162.5t165 67q32 0 53 -17t21 -49q0 -81 -91 -142zM248.5 471.5q-39.5 -37.5 -74 -99.5t-52.5 -132
q95 33 136 64q37 29 57.5 70.5t20.5 89.5q0 27 -4 36t-12 9q-32 0 -71.5 -37.5zM236 717q-5 6 -22.5 27.5t-28.5 39.5q-10 17 -10 32q0 20 16 28q7 3 16 3q25 0 43 -31q10 -17 33 -75q26 -69 58 -136l-13 -6q-37 51 -92 118z" />
    <glyph glyph-name="eacute" unicode="&#xe9;" horiz-adv-x="429" 
d="M325 320q-91 -61 -208 -99q-11 -50 -11 -97q0 -96 69 -96q86 0 154 100l16 -8q-32 -55 -86.5 -94.5t-114.5 -39.5q-62 0 -97 36t-35 105q0 76 44.5 171.5t120.5 162.5t165 67q32 0 53 -17t21 -49q0 -81 -91 -142zM248.5 471.5q-39.5 -37.5 -74 -99.5t-52.5 -132
q95 33 136 64q37 29 57.5 70.5t20.5 89.5q0 27 -4 36t-12 9q-32 0 -71.5 -37.5zM361 726q38 52 58 72q19 22 41 22q14 0 22 -7q8 -8 8 -19q0 -20 -23 -43q-22 -23 -68 -55q-7 -5 -42 -32.5t-78 -64.5l-10 9q39 47 92 118z" />
    <glyph glyph-name="ecircumflex" unicode="&#xea;" horiz-adv-x="429" 
d="M325 320q-91 -61 -208 -99q-11 -50 -11 -97q0 -96 69 -96q86 0 154 100l16 -8q-32 -55 -86.5 -94.5t-114.5 -39.5q-62 0 -97 36t-35 105q0 76 44.5 171.5t120.5 162.5t165 67q32 0 53 -17t21 -49q0 -81 -91 -142zM248.5 471.5q-39.5 -37.5 -74 -99.5t-52.5 -132
q95 33 136 64q37 29 57.5 70.5t20.5 89.5q0 27 -4 36t-12 9q-32 0 -71.5 -37.5zM237 662q-46 -28 -91 -46l-5 14q65 28 122 74t93 98h18q11 -63 38 -103t81 -69l-4 -14q-58 16 -95.5 41t-72.5 63q-38 -30 -84 -58z" />
    <glyph glyph-name="edieresis" unicode="&#xeb;" horiz-adv-x="429" 
d="M325 320q-91 -61 -208 -99q-11 -50 -11 -97q0 -96 69 -96q86 0 154 100l16 -8q-32 -55 -86.5 -94.5t-114.5 -39.5q-62 0 -97 36t-35 105q0 76 44.5 171.5t120.5 162.5t165 67q32 0 53 -17t21 -49q0 -81 -91 -142zM248.5 471.5q-39.5 -37.5 -74 -99.5t-52.5 -132
q95 33 136 64q37 29 57.5 70.5t20.5 89.5q0 27 -4 36t-12 9q-32 0 -71.5 -37.5zM204.5 722.5q20.5 20.5 46.5 20.5q21 0 35.5 -14.5t14.5 -35.5q0 -25 -20 -45.5t-47 -20.5q-22 0 -36 14.5t-14 36.5q0 24 20.5 44.5zM416.5 722.5q20.5 20.5 46.5 20.5q21 0 35.5 -14.5
t14.5 -35.5q0 -25 -20 -45.5t-47 -20.5q-22 0 -36 14.5t-14 36.5q0 24 20.5 44.5z" />
    <glyph glyph-name="igrave" unicode="&#xec;" horiz-adv-x="302" 
d="M166 466q0 25 -22 25q-23 0 -41 -24t-38 -78l-14 -37h-19l26 73q20 57 53.5 80t70.5 23q66 0 66 -63q0 -33 -16 -77l-107 -303q-8 -24 -8 -37q0 -25 24 -25q21 0 39 23t39 79l14 37h19l-26 -73q-20 -55 -52.5 -79t-70.5 -24q-70 0 -70 61q0 29 18 79l107 303q8 24 8 37z
M130 717q-5 6 -22.5 27.5t-28.5 39.5q-10 17 -10 32q0 20 16 28q7 3 16 3q25 0 43 -31q10 -17 33 -75q26 -69 58 -136l-13 -6q-37 51 -92 118z" />
    <glyph glyph-name="iacute" unicode="&#xed;" horiz-adv-x="302" 
d="M166 466q0 25 -22 25q-23 0 -41 -24t-38 -78l-14 -37h-19l26 73q20 57 53.5 80t70.5 23q66 0 66 -63q0 -33 -16 -77l-107 -303q-8 -24 -8 -37q0 -25 24 -25q21 0 39 23t39 79l14 37h19l-26 -73q-20 -55 -52.5 -79t-70.5 -24q-70 0 -70 61q0 29 18 79l107 303q8 24 8 37z
M255 726q38 52 58 72q19 22 41 22q14 0 22 -7q8 -8 8 -19q0 -20 -23 -43q-22 -23 -68 -55q-7 -5 -42 -32.5t-78 -64.5l-10 9q39 47 92 118z" />
    <glyph glyph-name="icircumflex" unicode="&#xee;" horiz-adv-x="302" 
d="M166 466q0 25 -22 25q-23 0 -41 -24t-38 -78l-14 -37h-19l26 73q20 57 53.5 80t70.5 23q66 0 66 -63q0 -33 -16 -77l-107 -303q-8 -24 -8 -37q0 -25 24 -25q21 0 39 23t39 79l14 37h19l-26 -73q-20 -55 -52.5 -79t-70.5 -24q-70 0 -70 61q0 29 18 79l107 303q8 24 8 37z
M131 662q-46 -28 -91 -46l-5 14q65 28 122 74t93 98h18q11 -63 38 -103t81 -69l-4 -14q-58 16 -95.5 41t-72.5 63q-38 -30 -84 -58z" />
    <glyph glyph-name="idieresis" unicode="&#xef;" horiz-adv-x="302" 
d="M166 466q0 25 -22 25q-23 0 -41 -24t-38 -78l-14 -37h-19l26 73q20 57 53.5 80t70.5 23q66 0 66 -63q0 -33 -16 -77l-107 -303q-8 -24 -8 -37q0 -25 24 -25q21 0 39 23t39 79l14 37h19l-26 -73q-20 -55 -52.5 -79t-70.5 -24q-70 0 -70 61q0 29 18 79l107 303q8 24 8 37z
M98.5 722.5q20.5 20.5 46.5 20.5q21 0 35.5 -14.5t14.5 -35.5q0 -25 -20 -45.5t-47 -20.5q-22 0 -36 14.5t-14 36.5q0 24 20.5 44.5zM310.5 722.5q20.5 20.5 46.5 20.5q21 0 35.5 -14.5t14.5 -35.5q0 -25 -20 -45.5t-47 -20.5q-22 0 -36 14.5t-14 36.5q0 24 20.5 44.5z" />
    <glyph glyph-name="eth" unicode="&#xf0;" horiz-adv-x="487" 
d="M345 675q102 -107 102 -281q0 -90 -34.5 -185t-100.5 -159t-154 -64q-64 0 -100.5 39.5t-36.5 117.5t34.5 169t98.5 153.5t147 62.5q31 0 53 -15q-14 80 -55 141l-185 -82l-6 18l179 79q-45 56 -122 96l12 17q93 -35 154 -93l160 71l6 -18zM260.5 71q45.5 65 73 162.5
t27.5 187.5q0 28 -4 72q-19 15 -56 15q-50 0 -94.5 -65t-72 -163t-27.5 -187q0 -45 14 -66t43 -21q51 0 96.5 65z" />
    <glyph glyph-name="ntilde" unicode="&#xf1;" horiz-adv-x="580" 
d="M530 162l-25 -73q-36 -103 -121 -103q-45 0 -63 29q-8 12 -8 33q0 27 17 78l95 286q10 33 10 49q0 35 -32 35q-38 0 -86.5 -55.5t-95.5 -152.5t-81 -215l-18 -73h-87l120 429q7 26 7 37q0 25 -22 25t-39 -22t-38 -80l-13 -37h-19l25 73q36 103 119 103q32 0 45.5 -15.5
t13.5 -43.5q0 -27 -14 -81l-35 -137q64 151 122.5 214t128.5 63q81 0 81 -75q0 -33 -15 -76l-97 -292q-8 -24 -8 -38q0 -24 24 -24q20 0 38.5 22.5t38.5 79.5l13 37h19zM369 757.5q19 -10.5 40 -29.5q19 -17 32.5 -25t32.5 -8q38 0 70 58l18 -5q-22 -52 -57 -77.5t-73 -25.5
q-29 0 -48 10.5t-40 29.5q-19 17 -32.5 25t-32.5 8q-38 0 -70 -58l-18 5q22 52 57 77.5t73 25.5q29 0 48 -10.5z" />
    <glyph glyph-name="ograve" unicode="&#xf2;" horiz-adv-x="488" 
d="M56 312.5q35 90.5 101 153t153 62.5q64 0 100.5 -39.5t36.5 -117.5q0 -79 -35 -169.5t-101 -153t-153 -62.5q-64 0 -100.5 39.5t-36.5 117.5q0 79 35 169.5zM207.5 443q-45.5 -65 -73 -162.5t-27.5 -187.5q0 -45 14 -66t43 -21q51 0 96.5 65t73 162.5t27.5 187.5
q0 45 -14 66t-43 21q-51 0 -96.5 -65zM256 717q-5 6 -22.5 27.5t-28.5 39.5q-10 17 -10 32q0 20 16 28q7 3 16 3q25 0 43 -31q10 -17 33 -75q26 -69 58 -136l-13 -6q-37 51 -92 118z" />
    <glyph glyph-name="oacute" unicode="&#xf3;" horiz-adv-x="488" 
d="M56 312.5q35 90.5 101 153t153 62.5q64 0 100.5 -39.5t36.5 -117.5q0 -79 -35 -169.5t-101 -153t-153 -62.5q-64 0 -100.5 39.5t-36.5 117.5q0 79 35 169.5zM207.5 443q-45.5 -65 -73 -162.5t-27.5 -187.5q0 -45 14 -66t43 -21q51 0 96.5 65t73 162.5t27.5 187.5
q0 45 -14 66t-43 21q-51 0 -96.5 -65zM381 726q38 52 58 72q19 22 41 22q14 0 22 -7q8 -8 8 -19q0 -20 -23 -43q-22 -23 -68 -55q-7 -5 -42 -32.5t-78 -64.5l-10 9q39 47 92 118z" />
    <glyph glyph-name="ocircumflex" unicode="&#xf4;" horiz-adv-x="488" 
d="M56 312.5q35 90.5 101 153t153 62.5q64 0 100.5 -39.5t36.5 -117.5q0 -79 -35 -169.5t-101 -153t-153 -62.5q-64 0 -100.5 39.5t-36.5 117.5q0 79 35 169.5zM207.5 443q-45.5 -65 -73 -162.5t-27.5 -187.5q0 -45 14 -66t43 -21q51 0 96.5 65t73 162.5t27.5 187.5
q0 45 -14 66t-43 21q-51 0 -96.5 -65zM257 662q-46 -28 -91 -46l-5 14q65 28 122 74t93 98h18q11 -63 38 -103t81 -69l-4 -14q-58 16 -95.5 41t-72.5 63q-38 -30 -84 -58z" />
    <glyph glyph-name="otilde" unicode="&#xf5;" horiz-adv-x="488" 
d="M56 312.5q35 90.5 101 153t153 62.5q64 0 100.5 -39.5t36.5 -117.5q0 -79 -35 -169.5t-101 -153t-153 -62.5q-64 0 -100.5 39.5t-36.5 117.5q0 79 35 169.5zM207.5 443q-45.5 -65 -73 -162.5t-27.5 -187.5q0 -45 14 -66t43 -21q51 0 96.5 65t73 162.5t27.5 187.5
q0 45 -14 66t-43 21q-51 0 -96.5 -65zM352 757.5q19 -10.5 40 -29.5q19 -17 32.5 -25t32.5 -8q38 0 70 58l18 -5q-22 -52 -57 -77.5t-73 -25.5q-29 0 -48 10.5t-40 29.5q-19 17 -32.5 25t-32.5 8q-38 0 -70 -58l-18 5q22 52 57 77.5t73 25.5q29 0 48 -10.5z" />
    <glyph glyph-name="odieresis" unicode="&#xf6;" horiz-adv-x="488" 
d="M56 312.5q35 90.5 101 153t153 62.5q64 0 100.5 -39.5t36.5 -117.5q0 -79 -35 -169.5t-101 -153t-153 -62.5q-64 0 -100.5 39.5t-36.5 117.5q0 79 35 169.5zM207.5 443q-45.5 -65 -73 -162.5t-27.5 -187.5q0 -45 14 -66t43 -21q51 0 96.5 65t73 162.5t27.5 187.5
q0 45 -14 66t-43 21q-51 0 -96.5 -65zM224.5 722.5q20.5 20.5 46.5 20.5q21 0 35.5 -14.5t14.5 -35.5q0 -25 -20 -45.5t-47 -20.5q-22 0 -36 14.5t-14 36.5q0 24 20.5 44.5zM436.5 722.5q20.5 20.5 46.5 20.5q21 0 35.5 -14.5t14.5 -35.5q0 -25 -20 -45.5t-47 -20.5
q-22 0 -36 14.5t-14 36.5q0 24 20.5 44.5z" />
    <glyph glyph-name="divide" unicode="&#xf7;" horiz-adv-x="657" 
d="M355 532q23 22 50 22q19 0 30.5 -11t11.5 -29q0 -28 -23 -49t-51 -21q-19 0 -30 11t-11 28q0 27 23 49zM96 370h501l-9 -30h-501zM272 244q23 22 50 22q19 0 30.5 -11t11.5 -29q0 -28 -23 -49.5t-51 -21.5q-18 0 -29.5 11.5t-11.5 28.5q0 27 23 49z" />
    <glyph glyph-name="oslash" unicode="&#xf8;" horiz-adv-x="488" 
d="M421 474q26 -38 26 -103q0 -79 -35 -169.5t-101 -153t-153 -62.5q-67 0 -103 42l-84 -101l-14 13l86 105q-22 39 -22 98q0 79 35 169.5t101 153t153 62.5q64 0 100 -39l80 97l13 -12zM211 447.5q-44 -60.5 -72 -153t-32 -181.5l253 327q-4 68 -56 68q-49 0 -93 -60.5z
M259.5 68.5q44.5 62.5 72 157.5t29.5 185l-254 -331q4 -74 57 -74q51 0 95.5 62.5z" />
    <glyph glyph-name="ugrave" unicode="&#xf9;" horiz-adv-x="567" 
d="M499 162h19l-25 -73q-36 -103 -121 -103q-16 0 -30 7t-21 20q-6 14 -6 31q0 26 14 82l31 125q-58 -143 -113 -204t-120 -61q-84 0 -84 77q0 32 14 74l97 292q8 24 8 37q0 25 -24 25q-20 0 -38.5 -22.5t-38.5 -79.5l-13 -37h-19l25 73q36 103 121 103q70 0 70 -62
q0 -30 -16 -78l-95 -286q-10 -30 -10 -50q0 -34 32 -34q39 0 86 57.5t93 159.5t80 230l12 49q57 2 91 14l-124 -443q-7 -26 -7 -39q0 -23 21 -23q22 0 40.5 23.5t37.5 78.5zM246 717q-5 6 -22.5 27.5t-28.5 39.5q-10 17 -10 32q0 20 16 28q7 3 16 3q25 0 43 -31
q10 -17 33 -75q26 -69 58 -136l-13 -6q-37 51 -92 118z" />
    <glyph glyph-name="uacute" unicode="&#xfa;" horiz-adv-x="567" 
d="M499 162h19l-25 -73q-36 -103 -121 -103q-16 0 -30 7t-21 20q-6 14 -6 31q0 26 14 82l31 125q-58 -143 -113 -204t-120 -61q-84 0 -84 77q0 32 14 74l97 292q8 24 8 37q0 25 -24 25q-20 0 -38.5 -22.5t-38.5 -79.5l-13 -37h-19l25 73q36 103 121 103q70 0 70 -62
q0 -30 -16 -78l-95 -286q-10 -30 -10 -50q0 -34 32 -34q39 0 86 57.5t93 159.5t80 230l12 49q57 2 91 14l-124 -443q-7 -26 -7 -39q0 -23 21 -23q22 0 40.5 23.5t37.5 78.5zM371 726q38 52 58 72q19 22 41 22q14 0 22 -7q8 -8 8 -19q0 -20 -23 -43q-22 -23 -68 -55
q-7 -5 -42 -32.5t-78 -64.5l-10 9q39 47 92 118z" />
    <glyph glyph-name="ucircumflex" unicode="&#xfb;" horiz-adv-x="567" 
d="M499 162h19l-25 -73q-36 -103 -121 -103q-16 0 -30 7t-21 20q-6 14 -6 31q0 26 14 82l31 125q-58 -143 -113 -204t-120 -61q-84 0 -84 77q0 32 14 74l97 292q8 24 8 37q0 25 -24 25q-20 0 -38.5 -22.5t-38.5 -79.5l-13 -37h-19l25 73q36 103 121 103q70 0 70 -62
q0 -30 -16 -78l-95 -286q-10 -30 -10 -50q0 -34 32 -34q39 0 86 57.5t93 159.5t80 230l12 49q57 2 91 14l-124 -443q-7 -26 -7 -39q0 -23 21 -23q22 0 40.5 23.5t37.5 78.5zM247 662q-46 -28 -91 -46l-5 14q65 28 122 74t93 98h18q11 -63 38 -103t81 -69l-4 -14
q-58 16 -95.5 41t-72.5 63q-38 -30 -84 -58z" />
    <glyph glyph-name="udieresis" unicode="&#xfc;" horiz-adv-x="567" 
d="M499 162h19l-25 -73q-36 -103 -121 -103q-16 0 -30 7t-21 20q-6 14 -6 31q0 26 14 82l31 125q-58 -143 -113 -204t-120 -61q-84 0 -84 77q0 32 14 74l97 292q8 24 8 37q0 25 -24 25q-20 0 -38.5 -22.5t-38.5 -79.5l-13 -37h-19l25 73q36 103 121 103q70 0 70 -62
q0 -30 -16 -78l-95 -286q-10 -30 -10 -50q0 -34 32 -34q39 0 86 57.5t93 159.5t80 230l12 49q57 2 91 14l-124 -443q-7 -26 -7 -39q0 -23 21 -23q22 0 40.5 23.5t37.5 78.5zM214.5 722.5q20.5 20.5 46.5 20.5q21 0 35.5 -14.5t14.5 -35.5q0 -25 -20 -45.5t-47 -20.5
q-22 0 -36 14.5t-14 36.5q0 24 20.5 44.5zM426.5 722.5q20.5 20.5 46.5 20.5q21 0 35.5 -14.5t14.5 -35.5q0 -25 -20 -45.5t-47 -20.5q-22 0 -36 14.5t-14 36.5q0 24 20.5 44.5z" />
    <glyph glyph-name="yacute" unicode="&#xfd;" horiz-adv-x="481" 
d="M458 447q0 -95 -59 -220t-138 -224q-93 -116 -197 -166q-53 -25 -87 -25q-21 0 -35.5 11t-14.5 30q0 21 16 33t38 12q21 0 40.5 -10.5t42.5 -28.5q78 42 150 120l-74 448q-5 31 -12 43t-20 12t-26.5 -19.5t-32.5 -72.5l-13 -37h-19l25 73q35 102 115 102q32 0 48.5 -20
t23.5 -72l51 -376q55 76 95 159.5t56 165.5q-30 16 -53 39.5t-23 52.5q0 23 14.5 37t36.5 14q52 0 52 -81zM339 726q38 52 58 72q19 22 41 22q14 0 22 -7q8 -8 8 -19q0 -20 -23 -43q-22 -23 -68 -55q-7 -5 -42 -32.5t-78 -64.5l-10 9q39 47 92 118z" />
    <glyph glyph-name="thorn" unicode="&#xfe;" horiz-adv-x="551" 
d="M485.5 492.5q27.5 -35.5 27.5 -105.5q0 -81 -36 -175.5t-103 -160t-154 -65.5q-28 0 -49.5 15t-31.5 43l-38 -132q-4 -12 -4 -24q0 -26 22 -37t63 -11l-6 -21l-21 1q-87 3 -113 3q-27 0 -111 -4l6 21q36 0 52 13t26 49l188 666q-30 -66 -70.5 -117t-99.5 -107l-11 13
q48 47 79 82.5t63 87t63 125.5l36 129q54 2 91 14l-126 -440q44 92 87.5 132.5t93.5 40.5q49 0 76.5 -35.5zM320 75.5q48 66.5 77.5 161.5t29.5 172q0 43 -12.5 65t-34.5 22q-26 0 -60 -33.5t-67 -90.5t-56 -123l-51 -180q13 -33 30.5 -46.5t42.5 -13.5q53 0 101 66.5z" />
    <glyph glyph-name="ydieresis" unicode="&#xff;" horiz-adv-x="481" 
d="M458 447q0 -95 -59 -220t-138 -224q-93 -116 -197 -166q-53 -25 -87 -25q-21 0 -35.5 11t-14.5 30q0 21 16 33t38 12q21 0 40.5 -10.5t42.5 -28.5q78 42 150 120l-74 448q-5 31 -12 43t-20 12t-26.5 -19.5t-32.5 -72.5l-13 -37h-19l25 73q35 102 115 102q32 0 48.5 -20
t23.5 -72l51 -376q55 76 95 159.5t56 165.5q-30 16 -53 39.5t-23 52.5q0 23 14.5 37t36.5 14q52 0 52 -81zM182.5 722.5q20.5 20.5 46.5 20.5q21 0 35.5 -14.5t14.5 -35.5q0 -25 -20 -45.5t-47 -20.5q-22 0 -36 14.5t-14 36.5q0 24 20.5 44.5zM394.5 722.5
q20.5 20.5 46.5 20.5q21 0 35.5 -14.5t14.5 -35.5q0 -25 -20 -45.5t-47 -20.5q-22 0 -36 14.5t-14 36.5q0 24 20.5 44.5z" />
    <glyph glyph-name="Amacron" unicode="&#x100;" horiz-adv-x="629" 
d="M521 36q14 -15 32 -16l-4 -20q-40 3 -109 3q-81 0 -120 -3l4 20q34 2 52.5 8.5t26.5 24t7 51.5l-9 164h-246l-75 -106q-47 -66 -47 -99q0 -41 74 -43l-5 -20q-55 3 -114 3q-43 0 -75 -3l5 20q46 10 100 87l431 606h15l40 -629q3 -33 17 -48zM400 288l-17 303l-214 -303
h231zM632 819h-352l6 25h352z" />
    <glyph glyph-name="amacron" unicode="&#x101;" horiz-adv-x="523" 
d="M455 163h19l-25 -73q-20 -55 -51 -79.5t-64 -24.5q-19 0 -33 7t-22 19q-9 15 -9 35q0 21 7 47t9 33l18 72q-48 -112 -97.5 -162.5t-103.5 -50.5q-46 0 -70 33t-24 88q0 81 43 181t112 170t140 70q27 0 44 -20t20 -56l16 62q55 2 92 14l-125 -442q-1 -4 -4 -15.5t-3 -21.5
q0 -25 22 -25q44 0 77 102zM199 61q39 43 76.5 114.5t61.5 152.5l18 71q1 8 1 22q0 41 -14.5 64.5t-40.5 23.5q-43 0 -91 -66.5t-80.5 -164t-32.5 -183.5q0 -41 9 -59t26 -18q28 0 67 43zM525 687h-312l6 25h312z" />
    <glyph glyph-name="Abreve" unicode="&#x102;" horiz-adv-x="629" 
d="M521 36q14 -15 32 -16l-4 -20q-40 3 -109 3q-81 0 -120 -3l4 20q34 2 52.5 8.5t26.5 24t7 51.5l-9 164h-246l-75 -106q-47 -66 -47 -99q0 -41 74 -43l-5 -20q-55 3 -114 3q-43 0 -75 -3l5 20q46 10 100 87l431 606h15l40 -629q3 -33 17 -48zM400 288l-17 303l-214 -303
h231zM594.5 864q60.5 15 106.5 43l10 -11q-43 -43 -116 -78.5t-132 -35.5q-62 0 -101 32.5t-50 83.5l16 5q26 -30 61 -42t91 -12q54 0 114.5 15z" />
    <glyph glyph-name="abreve" unicode="&#x103;" horiz-adv-x="523" 
d="M455 163h19l-25 -73q-20 -55 -51 -79.5t-64 -24.5q-19 0 -33 7t-22 19q-9 15 -9 35q0 21 7 47t9 33l18 72q-48 -112 -97.5 -162.5t-103.5 -50.5q-46 0 -70 33t-24 88q0 81 43 181t112 170t140 70q27 0 44 -20t20 -56l16 62q55 2 92 14l-125 -442q-1 -4 -4 -15.5t-3 -21.5
q0 -25 22 -25q44 0 77 102zM199 61q39 43 76.5 114.5t61.5 152.5l18 71q1 8 1 22q0 41 -14.5 64.5t-40.5 23.5q-43 0 -91 -66.5t-80.5 -164t-32.5 -183.5q0 -41 9 -59t26 -18q28 0 67 43zM474 723.5q58 23.5 100 64.5l10 -11q-24 -34 -65 -67.5t-86.5 -55t-82.5 -21.5
q-52 0 -83.5 40.5t-41.5 105.5l16 5q23 -47 51 -65.5t75 -18.5q49 0 107 23.5z" />
    <glyph glyph-name="Aogonek" unicode="&#x104;" horiz-adv-x="629" 
d="M521 36q14 -15 32 -16l-4 -20q-40 3 -109 3q-81 0 -120 -3l4 20q34 2 52.5 8.5t26.5 24t7 51.5l-9 164h-246l-75 -106q-47 -66 -47 -99q0 -41 74 -43l-5 -20q-55 3 -114 3q-43 0 -75 -3l5 20q46 10 100 87l431 606h15l40 -629q3 -33 17 -48zM400 288l-17 303l-214 -303
h231zM466 -37.5q-36 -27.5 -36 -65.5q0 -37 39 -37q19 0 41 8t36 18l11 -17q-60 -57 -129 -57q-36 0 -55 15.5t-19 42.5q0 45 47.5 79t108.5 54h38q-46 -13 -82 -40.5z" />
    <glyph glyph-name="aogonek" unicode="&#x105;" horiz-adv-x="523" 
d="M455 163h19l-25 -73q-20 -55 -51 -79.5t-64 -24.5q-19 0 -33 7t-22 19q-9 15 -9 35q0 21 7 47t9 33l18 72q-48 -112 -97.5 -162.5t-103.5 -50.5q-46 0 -70 33t-24 88q0 81 43 181t112 170t140 70q27 0 44 -20t20 -56l16 62q55 2 92 14l-125 -442q-1 -4 -4 -15.5t-3 -21.5
q0 -25 22 -25q44 0 77 102zM199 61q39 43 76.5 114.5t61.5 152.5l18 71q1 8 1 22q0 41 -14.5 64.5t-40.5 23.5q-43 0 -91 -66.5t-80.5 -164t-32.5 -183.5q0 -41 9 -59t26 -18q28 0 67 43zM307.5 -36q-37.5 -28 -37.5 -66q0 -19 10 -28.5t28 -9.5q19 0 38 8.5t30 22.5l12 -11
q-56 -68 -122 -68q-34 0 -53 16t-19 43q0 44 47.5 77.5t108.5 54.5h38q-43 -11 -80.5 -39z" />
    <glyph glyph-name="Cacute" unicode="&#x106;" horiz-adv-x="670" 
d="M648 478h-22q6 39 6 69q0 48 -16 79q-18 37 -53.5 57.5t-77.5 20.5q-83 0 -160.5 -78t-125.5 -196.5t-48 -229.5q0 -96 38 -146t105 -50q44 0 93 20.5t85 57.5q26 26 45 60.5t45 97.5h22q-47 -173 -59 -240h-22q3 21 3 34q0 26 -12 26q-7 0 -21 -9q-52 -34 -91 -49.5
t-98 -15.5q-111 0 -172 60t-61 175t57.5 232t158 193t220.5 76q58 0 88.5 -16.5t60.5 -48.5q7 -9 15 -9q9 0 18.5 14.5t21.5 45.5h21q-33 -86 -64 -230zM556.5 838.5q35.5 26.5 46.5 34.5q49 38 72 52q18 11 38 11q21 0 28 -16q2 -6 2 -10q0 -13 -10.5 -24.5t-24.5 -19.5
q-19 -11 -46.5 -21.5t-32.5 -12.5q-87 -33 -143 -60l-7 11q42 29 77.5 55.5z" />
    <glyph glyph-name="cacute" unicode="&#x107;" horiz-adv-x="432" 
d="M223.5 454q-49.5 -54 -81 -143t-31.5 -187q0 -49 18.5 -72.5t51.5 -23.5q82 0 150 100l20 -8q-32 -55 -86.5 -94.5t-114.5 -39.5q-61 0 -96.5 37.5t-35.5 109.5q0 81 38 174t107 157t157 64q46 0 77 -23t31 -62q0 -31 -20 -55.5t-51 -24.5q-20 0 -30.5 11t-10.5 28
q0 28 22 48.5t53 26.5q-21 31 -68 31q-50 0 -99.5 -54zM362 726q38 52 58 72q19 22 41 22q14 0 22 -7q8 -8 8 -19q0 -20 -23 -43q-22 -23 -68 -55q-7 -5 -42 -32.5t-78 -64.5l-10 9q39 47 92 118z" />
    <glyph glyph-name="Ccircumflex" unicode="&#x108;" horiz-adv-x="670" 
d="M648 478h-22q6 39 6 69q0 48 -16 79q-18 37 -53.5 57.5t-77.5 20.5q-83 0 -160.5 -78t-125.5 -196.5t-48 -229.5q0 -96 38 -146t105 -50q44 0 93 20.5t85 57.5q26 26 45 60.5t45 97.5h22q-47 -173 -59 -240h-22q3 21 3 34q0 26 -12 26q-7 0 -21 -9q-52 -34 -91 -49.5
t-98 -15.5q-111 0 -172 60t-61 175t57.5 232t158 193t220.5 76q58 0 88.5 -16.5t60.5 -48.5q7 -9 15 -9q9 0 18.5 14.5t21.5 45.5h21q-33 -86 -64 -230zM299 772l-5 14q72 22 134 56.5t101 73.5h18q28 -48 59.5 -79.5t79.5 -50.5l-4 -14q-54 10 -87.5 23.5t-57.5 27
t-32 17.5q-111 -47 -206 -68z" />
    <glyph glyph-name="ccircumflex" unicode="&#x109;" horiz-adv-x="432" 
d="M223.5 454q-49.5 -54 -81 -143t-31.5 -187q0 -49 18.5 -72.5t51.5 -23.5q82 0 150 100l20 -8q-32 -55 -86.5 -94.5t-114.5 -39.5q-61 0 -96.5 37.5t-35.5 109.5q0 81 38 174t107 157t157 64q46 0 77 -23t31 -62q0 -31 -20 -55.5t-51 -24.5q-20 0 -30.5 11t-10.5 28
q0 28 22 48.5t53 26.5q-21 31 -68 31q-50 0 -99.5 -54zM238 662q-46 -28 -91 -46l-5 14q65 28 122 74t93 98h18q11 -63 38 -103t81 -69l-4 -14q-58 16 -95.5 41t-72.5 63q-38 -30 -84 -58z" />
    <glyph glyph-name="Cdotaccent" unicode="&#x10a;" horiz-adv-x="670" 
d="M648 478h-22q6 39 6 69q0 48 -16 79q-18 37 -53.5 57.5t-77.5 20.5q-83 0 -160.5 -78t-125.5 -196.5t-48 -229.5q0 -96 38 -146t105 -50q44 0 93 20.5t85 57.5q26 26 45 60.5t45 97.5h22q-47 -173 -59 -240h-22q3 21 3 34q0 26 -12 26q-7 0 -21 -9q-52 -34 -91 -49.5
t-98 -15.5q-111 0 -172 60t-61 175t57.5 232t158 193t220.5 76q58 0 88.5 -16.5t60.5 -48.5q7 -9 15 -9q9 0 18.5 14.5t21.5 45.5h21q-33 -86 -64 -230zM487 876.5q22 23.5 52 23.5q23 0 37 -15t14 -38q0 -28 -22 -51.5t-53 -23.5q-22 0 -36 15t-14 38q0 28 22 51.5z" />
    <glyph glyph-name="cdotaccent" unicode="&#x10b;" horiz-adv-x="432" 
d="M223.5 454q-49.5 -54 -81 -143t-31.5 -187q0 -49 18.5 -72.5t51.5 -23.5q82 0 150 100l20 -8q-32 -55 -86.5 -94.5t-114.5 -39.5q-61 0 -96.5 37.5t-35.5 109.5q0 81 38 174t107 157t157 64q46 0 77 -23t31 -62q0 -31 -20 -55.5t-51 -24.5q-20 0 -30.5 11t-10.5 28
q0 28 22 48.5t53 26.5q-21 31 -68 31q-50 0 -99.5 -54zM309.5 740.5q21.5 24.5 52.5 24.5q23 0 37 -14.5t14 -36.5q0 -28 -22 -52.5t-53 -24.5q-22 0 -36 14.5t-14 36.5q0 28 21.5 52.5z" />
    <glyph glyph-name="Ccaron" unicode="&#x10c;" horiz-adv-x="670" 
d="M648 478h-22q6 39 6 69q0 48 -16 79q-18 37 -53.5 57.5t-77.5 20.5q-83 0 -160.5 -78t-125.5 -196.5t-48 -229.5q0 -96 38 -146t105 -50q44 0 93 20.5t85 57.5q26 26 45 60.5t45 97.5h22q-47 -173 -59 -240h-22q3 21 3 34q0 26 -12 26q-7 0 -21 -9q-52 -34 -91 -49.5
t-98 -15.5q-111 0 -172 60t-61 175t57.5 232t158 193t220.5 76q58 0 88.5 -16.5t60.5 -48.5q7 -9 15 -9q9 0 18.5 14.5t21.5 45.5h21q-33 -86 -64 -230zM732 924l5 -14q-72 -22 -134 -56.5t-101 -73.5h-18q-28 48 -59.5 79.5t-79.5 50.5l4 14q54 -10 87.5 -23.5t57.5 -27
t32 -17.5q111 47 206 68z" />
    <glyph glyph-name="ccaron" unicode="&#x10d;" horiz-adv-x="432" 
d="M223.5 454q-49.5 -54 -81 -143t-31.5 -187q0 -49 18.5 -72.5t51.5 -23.5q82 0 150 100l20 -8q-32 -55 -86.5 -94.5t-114.5 -39.5q-61 0 -96.5 37.5t-35.5 109.5q0 81 38 174t107 157t157 64q46 0 77 -23t31 -62q0 -31 -20 -55.5t-51 -24.5q-20 0 -30.5 11t-10.5 28
q0 28 22 48.5t53 26.5q-21 31 -68 31q-50 0 -99.5 -54zM452 756q46 28 91 46l5 -14q-65 -28 -122 -74t-93 -98h-18q-11 63 -38 103t-81 69l4 14q58 -16 95.5 -41t72.5 -63q38 30 84 58z" />
    <glyph glyph-name="Dcaron" unicode="&#x10e;" horiz-adv-x="725" 
d="M642 249.5q-62 -112.5 -170.5 -181t-241.5 -68.5l-58 1q-56 2 -82 2q-81 0 -120 -3l3 20q34 2 51.5 8t28 23.5t20.5 54.5l131 496q9 38 9 49q0 20 -14.5 28t-52.5 9l3 20q34 -3 97 -3l85 1q68 2 91 2q141 0 211.5 -56t70.5 -165q0 -125 -62 -237.5zM430 85.5
q88 67.5 133 180.5t45 246q0 91 -51 134.5t-163 43.5q-31 0 -48.5 -7t-28.5 -25t-20 -54l-131 -500q-9 -36 -9 -49q0 -19 13.5 -28t47.5 -9q124 0 212 67.5zM651 924l5 -14q-72 -22 -134 -56.5t-101 -73.5h-18q-28 48 -59.5 79.5t-79.5 50.5l4 14q54 -10 87.5 -23.5
t57.5 -27t32 -17.5q111 47 206 68z" />
    <glyph glyph-name="dcaron" unicode="&#x10f;" horiz-adv-x="542" 
d="M472 162h19l-23 -73q-17 -55 -49 -79t-67 -24q-31 0 -47 16t-16 46q0 28 13 78l14 51q-47 -101 -96 -146t-104 -45q-49 0 -76.5 33t-27.5 99q0 83 43.5 180t118 163.5t161.5 66.5q20 0 37 -13t24 -35l50 187q4 13 4 27q0 20 -15.5 29.5t-52.5 9.5l6 21q53 1 95.5 11
t81.5 30l-196 -710q-6 -24 -6 -34q0 -28 24 -28q20 0 37 23t36 79zM214 60q39 42 77 112.5t63 150.5l35 131q-6 26 -20.5 38.5t-32.5 12.5q-61 0 -115 -64.5t-87 -159.5t-33 -176q0 -87 44 -87q30 0 69 42zM621 658.5q15 51.5 15 74.5q0 19 -13 19l3 21l21 -1q35 0 73 12
q1 -2 1 -8q0 -39 -34.5 -101t-97.5 -139l-14 4q31 67 46 118.5z" />
    <glyph glyph-name="Dcroat" unicode="&#x110;" horiz-adv-x="725" 
d="M642 249.5q-62 -112.5 -170.5 -181t-241.5 -68.5l-58 1q-56 2 -82 2q-81 0 -120 -3l3 20q34 2 51.5 8t28 23.5t20.5 54.5l131 496q9 38 9 49q0 20 -14.5 28t-52.5 9l3 20q34 -3 97 -3l85 1q68 2 91 2q141 0 211.5 -56t70.5 -165q0 -125 -62 -237.5zM430 85.5
q88 67.5 133 180.5t45 246q0 91 -51 134.5t-163 43.5q-31 0 -48.5 -7t-28.5 -25t-20 -54l-131 -500q-9 -36 -9 -49q0 -19 13.5 -28t47.5 -9q124 0 212 67.5zM432 341h-412l6 25h412z" />
    <glyph glyph-name="dcroat" unicode="&#x111;" horiz-adv-x="542" 
d="M472 162h19l-23 -73q-17 -55 -49 -79t-67 -24q-31 0 -47 16t-16 46q0 28 13 78l14 51q-47 -101 -96 -146t-104 -45q-49 0 -76.5 33t-27.5 99q0 83 43.5 180t118 163.5t161.5 66.5q20 0 37 -13t24 -35l50 187q4 13 4 27q0 20 -15.5 29.5t-52.5 9.5l6 21q53 1 95.5 11
t81.5 30l-196 -710q-6 -24 -6 -34q0 -28 24 -28q20 0 37 23t36 79zM214 60q39 42 77 112.5t63 150.5l35 131q-6 26 -20.5 38.5t-32.5 12.5q-61 0 -115 -64.5t-87 -159.5t-33 -176q0 -87 44 -87q30 0 69 42zM610 608h-344l6 20h344z" />
    <glyph glyph-name="Emacron" unicode="&#x112;" horiz-adv-x="610" 
d="M642 708q-26 -72 -38 -118q-11 -36 -14 -62h-23q9 58 9 80q0 43 -22 60t-79 17h-73q-36 0 -53.5 -5.5t-28.5 -22.5t-21 -55l-63 -236h66q35 0 58 16.5t36 38.5t26 56q3 10 8 21h23q-21 -66 -35 -119l-6 -23q-14 -53 -32 -142h-23l3 20q1 7 3 22t2 26q0 30 -15.5 47
t-53.5 17h-66l-64 -240q-9 -31 -9 -49q0 -21 15 -27.5t53 -6.5h73q62 0 99 16.5t61.5 53t50.5 107.5h23q-11 -29 -22 -72q-16 -56 -27 -128q-68 3 -229 3q-192 0 -289 -3l5 20q36 2 53.5 8t28.5 23t21 55l133 496q9 32 9 49q0 21 -14.5 28t-52.5 9l5 20q98 -3 290 -3
q140 0 199 3zM597 819h-352l6 25h352z" />
    <glyph glyph-name="emacron" unicode="&#x113;" horiz-adv-x="429" 
d="M325 320q-91 -61 -208 -99q-11 -50 -11 -97q0 -96 69 -96q86 0 154 100l16 -8q-32 -55 -86.5 -94.5t-114.5 -39.5q-62 0 -97 36t-35 105q0 76 44.5 171.5t120.5 162.5t165 67q32 0 53 -17t21 -49q0 -81 -91 -142zM248.5 471.5q-39.5 -37.5 -74 -99.5t-52.5 -132
q95 33 136 64q37 29 57.5 70.5t20.5 89.5q0 27 -4 36t-12 9q-32 0 -71.5 -37.5zM500 687h-312l6 25h312z" />
    <glyph glyph-name="Ebreve" unicode="&#x114;" horiz-adv-x="610" 
d="M642 708q-26 -72 -38 -118q-11 -36 -14 -62h-23q9 58 9 80q0 43 -22 60t-79 17h-73q-36 0 -53.5 -5.5t-28.5 -22.5t-21 -55l-63 -236h66q35 0 58 16.5t36 38.5t26 56q3 10 8 21h23q-21 -66 -35 -119l-6 -23q-14 -53 -32 -142h-23l3 20q1 7 3 22t2 26q0 30 -15.5 47
t-53.5 17h-66l-64 -240q-9 -31 -9 -49q0 -21 15 -27.5t53 -6.5h73q62 0 99 16.5t61.5 53t50.5 107.5h23q-11 -29 -22 -72q-16 -56 -27 -128q-68 3 -229 3q-192 0 -289 -3l5 20q36 2 53.5 8t28.5 23t21 55l133 496q9 32 9 49q0 21 -14.5 28t-52.5 9l5 20q98 -3 290 -3
q140 0 199 3zM559.5 864q60.5 15 106.5 43l10 -11q-43 -43 -116 -78.5t-132 -35.5q-62 0 -101 32.5t-50 83.5l16 5q26 -30 61 -42t91 -12q54 0 114.5 15z" />
    <glyph glyph-name="ebreve" unicode="&#x115;" horiz-adv-x="429" 
d="M325 320q-91 -61 -208 -99q-11 -50 -11 -97q0 -96 69 -96q86 0 154 100l16 -8q-32 -55 -86.5 -94.5t-114.5 -39.5q-62 0 -97 36t-35 105q0 76 44.5 171.5t120.5 162.5t165 67q32 0 53 -17t21 -49q0 -81 -91 -142zM248.5 471.5q-39.5 -37.5 -74 -99.5t-52.5 -132
q95 33 136 64q37 29 57.5 70.5t20.5 89.5q0 27 -4 36t-12 9q-32 0 -71.5 -37.5zM449 723.5q58 23.5 100 64.5l10 -11q-24 -34 -65 -67.5t-86.5 -55t-82.5 -21.5q-52 0 -83.5 40.5t-41.5 105.5l16 5q23 -47 51 -65.5t75 -18.5q49 0 107 23.5z" />
    <glyph glyph-name="Edotaccent" unicode="&#x116;" horiz-adv-x="610" 
d="M642 708q-26 -72 -38 -118q-11 -36 -14 -62h-23q9 58 9 80q0 43 -22 60t-79 17h-73q-36 0 -53.5 -5.5t-28.5 -22.5t-21 -55l-63 -236h66q35 0 58 16.5t36 38.5t26 56q3 10 8 21h23q-21 -66 -35 -119l-6 -23q-14 -53 -32 -142h-23l3 20q1 7 3 22t2 26q0 30 -15.5 47
t-53.5 17h-66l-64 -240q-9 -31 -9 -49q0 -21 15 -27.5t53 -6.5h73q62 0 99 16.5t61.5 53t50.5 107.5h23q-11 -29 -22 -72q-16 -56 -27 -128q-68 3 -229 3q-192 0 -289 -3l5 20q36 2 53.5 8t28.5 23t21 55l133 496q9 32 9 49q0 21 -14.5 28t-52.5 9l5 20q98 -3 290 -3
q140 0 199 3zM416 876.5q22 23.5 52 23.5q23 0 37 -15t14 -38q0 -28 -22 -51.5t-53 -23.5q-22 0 -36 15t-14 38q0 28 22 51.5z" />
    <glyph glyph-name="edotaccent" unicode="&#x117;" horiz-adv-x="429" 
d="M325 320q-91 -61 -208 -99q-11 -50 -11 -97q0 -96 69 -96q86 0 154 100l16 -8q-32 -55 -86.5 -94.5t-114.5 -39.5q-62 0 -97 36t-35 105q0 76 44.5 171.5t120.5 162.5t165 67q32 0 53 -17t21 -49q0 -81 -91 -142zM248.5 471.5q-39.5 -37.5 -74 -99.5t-52.5 -132
q95 33 136 64q37 29 57.5 70.5t20.5 89.5q0 27 -4 36t-12 9q-32 0 -71.5 -37.5zM308.5 740.5q21.5 24.5 52.5 24.5q23 0 37 -14.5t14 -36.5q0 -28 -22 -52.5t-53 -24.5q-22 0 -36 14.5t-14 36.5q0 28 21.5 52.5z" />
    <glyph glyph-name="Eogonek" unicode="&#x118;" horiz-adv-x="610" 
d="M642 708q-26 -72 -38 -118q-11 -36 -14 -62h-23q9 58 9 80q0 43 -22 60t-79 17h-73q-36 0 -53.5 -5.5t-28.5 -22.5t-21 -55l-63 -236h66q35 0 58 16.5t36 38.5t26 56q3 10 8 21h23q-21 -66 -35 -119l-6 -23q-14 -53 -32 -142h-23l3 20q1 7 3 22t2 26q0 30 -15.5 47
t-53.5 17h-66l-64 -240q-9 -31 -9 -49q0 -21 15 -27.5t53 -6.5h73q62 0 99 16.5t61.5 53t50.5 107.5h23q-11 -29 -22 -72q-16 -56 -27 -128q-68 3 -229 3q-192 0 -289 -3l5 20q36 2 53.5 8t28.5 23t21 55l133 496q9 32 9 49q0 21 -14.5 28t-52.5 9l5 20q98 -3 290 -3
q140 0 199 3zM397 -37.5q-36 -27.5 -36 -65.5q0 -37 39 -37q19 0 41 8t36 18l11 -17q-60 -57 -129 -57q-36 0 -55 15.5t-19 42.5q0 45 47.5 79t108.5 54h38q-46 -13 -82 -40.5z" />
    <glyph glyph-name="eogonek" unicode="&#x119;" horiz-adv-x="429" 
d="M325 320q-91 -61 -208 -99q-11 -50 -11 -97q0 -96 69 -96q86 0 154 100l16 -8q-32 -55 -86.5 -94.5t-114.5 -39.5q-62 0 -97 36t-35 105q0 76 44.5 171.5t120.5 162.5t165 67q32 0 53 -17t21 -49q0 -81 -91 -142zM248.5 471.5q-39.5 -37.5 -74 -99.5t-52.5 -132
q95 33 136 64q37 29 57.5 70.5t20.5 89.5q0 27 -4 36t-12 9q-32 0 -71.5 -37.5zM137.5 -36q-37.5 -28 -37.5 -66q0 -19 10 -28.5t28 -9.5q19 0 38 8.5t30 22.5l12 -11q-56 -68 -122 -68q-34 0 -53 16t-19 43q0 44 47.5 77.5t108.5 54.5h38q-43 -11 -80.5 -39z" />
    <glyph glyph-name="Ecaron" unicode="&#x11a;" horiz-adv-x="610" 
d="M642 708q-26 -72 -38 -118q-11 -36 -14 -62h-23q9 58 9 80q0 43 -22 60t-79 17h-73q-36 0 -53.5 -5.5t-28.5 -22.5t-21 -55l-63 -236h66q35 0 58 16.5t36 38.5t26 56q3 10 8 21h23q-21 -66 -35 -119l-6 -23q-14 -53 -32 -142h-23l3 20q1 7 3 22t2 26q0 30 -15.5 47
t-53.5 17h-66l-64 -240q-9 -31 -9 -49q0 -21 15 -27.5t53 -6.5h73q62 0 99 16.5t61.5 53t50.5 107.5h23q-11 -29 -22 -72q-16 -56 -27 -128q-68 3 -229 3q-192 0 -289 -3l5 20q36 2 53.5 8t28.5 23t21 55l133 496q9 32 9 49q0 21 -14.5 28t-52.5 9l5 20q98 -3 290 -3
q140 0 199 3zM661 924l5 -14q-72 -22 -134 -56.5t-101 -73.5h-18q-28 48 -59.5 79.5t-79.5 50.5l4 14q54 -10 87.5 -23.5t57.5 -27t32 -17.5q111 47 206 68z" />
    <glyph glyph-name="ecaron" unicode="&#x11b;" horiz-adv-x="429" 
d="M325 320q-91 -61 -208 -99q-11 -50 -11 -97q0 -96 69 -96q86 0 154 100l16 -8q-32 -55 -86.5 -94.5t-114.5 -39.5q-62 0 -97 36t-35 105q0 76 44.5 171.5t120.5 162.5t165 67q32 0 53 -17t21 -49q0 -81 -91 -142zM248.5 471.5q-39.5 -37.5 -74 -99.5t-52.5 -132
q95 33 136 64q37 29 57.5 70.5t20.5 89.5q0 27 -4 36t-12 9q-32 0 -71.5 -37.5zM451 756q46 28 91 46l5 -14q-65 -28 -122 -74t-93 -98h-18q-11 63 -38 103t-81 69l4 14q58 -16 95.5 -41t72.5 -63q38 30 84 58z" />
    <glyph glyph-name="Gcircumflex" unicode="&#x11c;" horiz-adv-x="705" 
d="M378.5 15q29.5 9 51.5 22q20 12 30 27t16 36l23 88q9 33 9 52q0 25 -18 33.5t-66 10.5l5 20q53 -3 140 -3q69 0 105 3l-5 -20q-24 -2 -35.5 -8t-20 -22.5t-18.5 -55.5l-53 -198h-20q3 12 3 26q0 31 -15 31q-6 0 -13.5 -3t-24.5 -14q-42 -26 -83 -40t-87 -14
q-122 0 -187 59.5t-65 169.5q0 116 56.5 234t157 195.5t224.5 77.5q60 0 95.5 -16.5t68.5 -48.5q9 -9 17 -9q10 0 19.5 14t20.5 46h22q-33 -86 -64 -230h-22q5 43 5 75q0 46 -14 73q-21 37 -62 57.5t-92 20.5q-103 0 -180.5 -87t-118 -210t-40.5 -225q0 -90 42.5 -133
t130.5 -43q33 0 62.5 9zM296 772l-5 14q72 22 134 56.5t101 73.5h18q28 -48 59.5 -79.5t79.5 -50.5l-4 -14q-54 10 -87.5 23.5t-57.5 27t-32 17.5q-111 -47 -206 -68z" />
    <glyph glyph-name="gcircumflex" unicode="&#x11d;" horiz-adv-x="449" 
d="M485.5 554q15.5 -15 15.5 -45q0 -26 -13 -40t-31 -14q-19 0 -33.5 13t-14.5 38q0 18 9 42q-39 -17 -57 -42q42 -29 42 -90q0 -44 -21.5 -86t-61 -72.5t-91.5 -40.5l-33 -18q-47 -25 -68.5 -40t-21.5 -29q0 -11 14 -19t46 -16l73 -19q57 -15 85 -33t28 -54
q0 -38 -31.5 -81t-97 -73t-161.5 -30q-77 0 -117.5 20t-40.5 55q0 34 37 68.5t105 54.5l7 -15q-65 -34 -65 -91q0 -38 26.5 -56.5t70.5 -18.5t91 18t77.5 47.5t30.5 61.5q0 14 -8 19t-33 11l-153 39q-54 14 -54 60q0 31 32.5 61.5t122.5 73.5h-7q-58 0 -94 27.5t-36 81.5
q0 42 22 90t71 82t124 34q43 0 72 -13q19 24 46 39t54 15t42.5 -15zM267 266.5q27 35.5 37 82.5t10 87q0 37 -10 55.5t-37 18.5q-48 0 -76.5 -42.5t-39 -93.5t-10.5 -83q0 -60 53 -60q46 0 73 35.5zM214 662q-46 -28 -91 -46l-5 14q65 28 122 74t93 98h18q11 -63 38 -103
t81 -69l-4 -14q-58 16 -95.5 41t-72.5 63q-38 -30 -84 -58z" />
    <glyph glyph-name="Gbreve" unicode="&#x11e;" horiz-adv-x="705" 
d="M378.5 15q29.5 9 51.5 22q20 12 30 27t16 36l23 88q9 33 9 52q0 25 -18 33.5t-66 10.5l5 20q53 -3 140 -3q69 0 105 3l-5 -20q-24 -2 -35.5 -8t-20 -22.5t-18.5 -55.5l-53 -198h-20q3 12 3 26q0 31 -15 31q-6 0 -13.5 -3t-24.5 -14q-42 -26 -83 -40t-87 -14
q-122 0 -187 59.5t-65 169.5q0 116 56.5 234t157 195.5t224.5 77.5q60 0 95.5 -16.5t68.5 -48.5q9 -9 17 -9q10 0 19.5 14t20.5 46h22q-33 -86 -64 -230h-22q5 43 5 75q0 46 -14 73q-21 37 -62 57.5t-92 20.5q-103 0 -180.5 -87t-118 -210t-40.5 -225q0 -90 42.5 -133
t130.5 -43q33 0 62.5 9zM627.5 864q60.5 15 106.5 43l10 -11q-43 -43 -116 -78.5t-132 -35.5q-62 0 -101 32.5t-50 83.5l16 5q26 -30 61 -42t91 -12q54 0 114.5 15z" />
    <glyph glyph-name="gbreve" unicode="&#x11f;" horiz-adv-x="449" 
d="M485.5 554q15.5 -15 15.5 -45q0 -26 -13 -40t-31 -14q-19 0 -33.5 13t-14.5 38q0 18 9 42q-39 -17 -57 -42q42 -29 42 -90q0 -44 -21.5 -86t-61 -72.5t-91.5 -40.5l-33 -18q-47 -25 -68.5 -40t-21.5 -29q0 -11 14 -19t46 -16l73 -19q57 -15 85 -33t28 -54
q0 -38 -31.5 -81t-97 -73t-161.5 -30q-77 0 -117.5 20t-40.5 55q0 34 37 68.5t105 54.5l7 -15q-65 -34 -65 -91q0 -38 26.5 -56.5t70.5 -18.5t91 18t77.5 47.5t30.5 61.5q0 14 -8 19t-33 11l-153 39q-54 14 -54 60q0 31 32.5 61.5t122.5 73.5h-7q-58 0 -94 27.5t-36 81.5
q0 42 22 90t71 82t124 34q43 0 72 -13q19 24 46 39t54 15t42.5 -15zM267 266.5q27 35.5 37 82.5t10 87q0 37 -10 55.5t-37 18.5q-48 0 -76.5 -42.5t-39 -93.5t-10.5 -83q0 -60 53 -60q46 0 73 35.5zM426 723.5q58 23.5 100 64.5l10 -11q-24 -34 -65 -67.5t-86.5 -55
t-82.5 -21.5q-52 0 -83.5 40.5t-41.5 105.5l16 5q23 -47 51 -65.5t75 -18.5q49 0 107 23.5z" />
    <glyph glyph-name="Gdotaccent" unicode="&#x120;" horiz-adv-x="705" 
d="M378.5 15q29.5 9 51.5 22q20 12 30 27t16 36l23 88q9 33 9 52q0 25 -18 33.5t-66 10.5l5 20q53 -3 140 -3q69 0 105 3l-5 -20q-24 -2 -35.5 -8t-20 -22.5t-18.5 -55.5l-53 -198h-20q3 12 3 26q0 31 -15 31q-6 0 -13.5 -3t-24.5 -14q-42 -26 -83 -40t-87 -14
q-122 0 -187 59.5t-65 169.5q0 116 56.5 234t157 195.5t224.5 77.5q60 0 95.5 -16.5t68.5 -48.5q9 -9 17 -9q10 0 19.5 14t20.5 46h22q-33 -86 -64 -230h-22q5 43 5 75q0 46 -14 73q-21 37 -62 57.5t-92 20.5q-103 0 -180.5 -87t-118 -210t-40.5 -225q0 -90 42.5 -133
t130.5 -43q33 0 62.5 9zM484 876.5q22 23.5 52 23.5q23 0 37 -15t14 -38q0 -28 -22 -51.5t-53 -23.5q-22 0 -36 15t-14 38q0 28 22 51.5z" />
    <glyph glyph-name="gdotaccent" unicode="&#x121;" horiz-adv-x="449" 
d="M485.5 554q15.5 -15 15.5 -45q0 -26 -13 -40t-31 -14q-19 0 -33.5 13t-14.5 38q0 18 9 42q-39 -17 -57 -42q42 -29 42 -90q0 -44 -21.5 -86t-61 -72.5t-91.5 -40.5l-33 -18q-47 -25 -68.5 -40t-21.5 -29q0 -11 14 -19t46 -16l73 -19q57 -15 85 -33t28 -54
q0 -38 -31.5 -81t-97 -73t-161.5 -30q-77 0 -117.5 20t-40.5 55q0 34 37 68.5t105 54.5l7 -15q-65 -34 -65 -91q0 -38 26.5 -56.5t70.5 -18.5t91 18t77.5 47.5t30.5 61.5q0 14 -8 19t-33 11l-153 39q-54 14 -54 60q0 31 32.5 61.5t122.5 73.5h-7q-58 0 -94 27.5t-36 81.5
q0 42 22 90t71 82t124 34q43 0 72 -13q19 24 46 39t54 15t42.5 -15zM267 266.5q27 35.5 37 82.5t10 87q0 37 -10 55.5t-37 18.5q-48 0 -76.5 -42.5t-39 -93.5t-10.5 -83q0 -60 53 -60q46 0 73 35.5zM285.5 740.5q21.5 24.5 52.5 24.5q23 0 37 -14.5t14 -36.5
q0 -28 -22 -52.5t-53 -24.5q-22 0 -36 14.5t-14 36.5q0 28 21.5 52.5z" />
    <glyph glyph-name="Gcommaaccent" unicode="&#x122;" horiz-adv-x="705" 
d="M378.5 15q29.5 9 51.5 22q20 12 30 27t16 36l23 88q9 33 9 52q0 25 -18 33.5t-66 10.5l5 20q53 -3 140 -3q69 0 105 3l-5 -20q-24 -2 -35.5 -8t-20 -22.5t-18.5 -55.5l-53 -198h-20q3 12 3 26q0 31 -15 31q-6 0 -13.5 -3t-24.5 -14q-42 -26 -83 -40t-87 -14
q-122 0 -187 59.5t-65 169.5q0 116 56.5 234t157 195.5t224.5 77.5q60 0 95.5 -16.5t68.5 -48.5q9 -9 17 -9q10 0 19.5 14t20.5 46h22q-33 -86 -64 -230h-22q5 43 5 75q0 46 -14 73q-21 37 -62 57.5t-92 20.5q-103 0 -180.5 -87t-118 -210t-40.5 -225q0 -90 42.5 -133
t130.5 -43q33 0 62.5 9zM333.5 -85.5q14.5 -16.5 14.5 -41.5q0 -37 -21 -66t-77 -48l-7 17q27 8 49.5 25t24.5 39q-8 -7 -20 -11.5t-24 -4.5q-20 0 -32.5 11t-12.5 31q0 24 18 44.5t47 20.5q26 0 40.5 -16.5z" />
    <glyph glyph-name="gcommaaccent" unicode="&#x123;" horiz-adv-x="449" 
d="M485.5 554q15.5 -15 15.5 -45q0 -26 -13 -40t-31 -14q-19 0 -33.5 13t-14.5 38q0 18 9 42q-39 -17 -57 -42q42 -29 42 -90q0 -44 -21.5 -86t-61 -72.5t-91.5 -40.5l-33 -18q-47 -25 -68.5 -40t-21.5 -29q0 -11 14 -19t46 -16l73 -19q57 -15 85 -33t28 -54
q0 -38 -31.5 -81t-97 -73t-161.5 -30q-77 0 -117.5 20t-40.5 55q0 34 37 68.5t105 54.5l7 -15q-65 -34 -65 -91q0 -38 26.5 -56.5t70.5 -18.5t91 18t77.5 47.5t30.5 61.5q0 14 -8 19t-33 11l-153 39q-54 14 -54 60q0 31 32.5 61.5t122.5 73.5h-7q-58 0 -94 27.5t-36 81.5
q0 42 22 90t71 82t124 34q43 0 72 -13q19 24 46 39t54 15t42.5 -15zM267 266.5q27 35.5 37 82.5t10 87q0 37 -10 55.5t-37 18.5q-48 0 -76.5 -42.5t-39 -93.5t-10.5 -83q0 -60 53 -60q46 0 73 35.5zM263.5 648.5q-14.5 16.5 -14.5 41.5q0 37 21 66t77 48l7 -17
q-27 -8 -49.5 -25t-24.5 -39q8 7 20 11.5t24 4.5q20 0 32.5 -11t12.5 -31q0 -24 -18 -44.5t-47 -20.5q-26 0 -40.5 16.5z" />
    <glyph glyph-name="Hcircumflex" unicode="&#x124;" horiz-adv-x="755" 
d="M820 708l-5 -20q-37 -2 -54.5 -8t-28 -23t-20.5 -55l-132 -496q-9 -38 -9 -49q0 -21 14.5 -28t53.5 -9l-4 -20q-42 3 -128 3q-80 0 -127 -3l4 20q36 2 54 8t28.5 23t20.5 55l64 240h-321l-64 -240q-9 -38 -9 -49q0 -21 14.5 -28t53.5 -9l-4 -20q-46 3 -127 3
q-84 0 -127 -3l5 20q35 2 52.5 8t28 23.5t20.5 54.5l132 496q8 34 8 48q0 22 -14.5 29t-52.5 9l5 20q41 -3 127 -3q80 0 128 3l-5 -20q-37 -2 -54.5 -8t-28 -23t-20.5 -55l-63 -236h321l63 236q9 32 9 48q0 22 -15 29t-53 9l5 20q45 -3 126 -3q86 0 129 3zM295 772l-5 14
q72 22 134 56.5t101 73.5h18q28 -48 59.5 -79.5t79.5 -50.5l-4 -14q-54 10 -87.5 23.5t-57.5 27t-32 17.5q-111 -47 -206 -68z" />
    <glyph glyph-name="hcircumflex" unicode="&#x125;" horiz-adv-x="536" 
d="M486 162l-25 -73q-36 -103 -121 -103q-70 0 -70 62q0 30 16 78l95 286q10 28 10 50q0 34 -32 34q-37 0 -79.5 -46.5t-85.5 -130.5t-80 -195l-36 -124h-87l198 667q5 17 5 27q0 20 -16 29.5t-53 9.5l6 21q104 1 180 41l-145 -496q54 122 108 175.5t118 53.5q81 0 81 -76
q0 -32 -15 -75l-97 -292q-8 -24 -8 -38q0 -24 24 -24q20 0 38.5 22.5t38.5 79.5l13 37h19zM397 902q-46 -28 -91 -46l-5 14q65 28 122 74t93 98h18q11 -63 38 -103t81 -69l-4 -14q-58 16 -95.5 41t-72.5 63q-38 -30 -84 -58z" />
    <glyph glyph-name="Hbar" unicode="&#x126;" horiz-adv-x="755" 
d="M820 708l-5 -20q-37 -2 -54.5 -8t-28 -23t-20.5 -55l-132 -496q-9 -38 -9 -49q0 -21 14.5 -28t53.5 -9l-4 -20q-42 3 -128 3q-80 0 -127 -3l4 20q36 2 54 8t28.5 23t20.5 55l64 240h-321l-64 -240q-9 -38 -9 -49q0 -21 14.5 -28t53.5 -9l-4 -20q-46 3 -127 3
q-84 0 -127 -3l5 20q35 2 52.5 8t28 23.5t20.5 54.5l132 496q8 34 8 48q0 22 -14.5 29t-52.5 9l5 20q41 -3 127 -3q80 0 128 3l-5 -20q-37 -2 -54.5 -8t-28 -23t-20.5 -55l-63 -236h321l63 236q9 32 9 48q0 22 -15 29t-53 9l5 20q45 -3 126 -3q86 0 129 3zM812 513h-753
l5 20h753z" />
    <glyph glyph-name="hbar" unicode="&#x127;" horiz-adv-x="536" 
d="M486 162l-25 -73q-36 -103 -121 -103q-70 0 -70 62q0 30 16 78l95 286q10 28 10 50q0 34 -32 34q-37 0 -79.5 -46.5t-85.5 -130.5t-80 -195l-36 -124h-87l198 667q5 17 5 27q0 20 -16 29.5t-53 9.5l6 21q104 1 180 41l-145 -496q54 122 108 175.5t118 53.5q81 0 81 -76
q0 -32 -15 -75l-97 -292q-8 -24 -8 -38q0 -24 24 -24q20 0 38.5 22.5t38.5 79.5l13 37h19zM420 608h-344l6 20h344z" />
    <glyph glyph-name="Itilde" unicode="&#x128;" horiz-adv-x="341" 
d="M157 57q0 -21 14.5 -28t53.5 -9l-4 -20q-46 3 -127 3q-84 0 -127 -3l5 20q35 2 52.5 8t28 23.5t20.5 54.5l132 496q8 34 8 48q0 22 -14.5 29t-52.5 9l5 20q41 -3 127 -3q80 0 128 3l-5 -20q-37 -2 -54.5 -8t-28 -23t-20.5 -55l-132 -496q-9 -38 -9 -49zM300 885
q21 -10 47 -30q21 -17 36.5 -25t36.5 -8q38 0 70 58l18 -5q-22 -52 -57 -77.5t-73 -25.5q-32 0 -53 10t-47 30q-21 17 -36.5 25t-36.5 8q-38 0 -70 -58l-18 5q22 52 57 77.5t73 25.5q32 0 53 -10z" />
    <glyph glyph-name="itilde" unicode="&#x129;" horiz-adv-x="302" 
d="M166 466q0 25 -22 25q-23 0 -41 -24t-38 -78l-14 -37h-19l26 73q20 57 53.5 80t70.5 23q66 0 66 -63q0 -33 -16 -77l-107 -303q-8 -24 -8 -37q0 -25 24 -25q21 0 39 23t39 79l14 37h19l-26 -73q-20 -55 -52.5 -79t-70.5 -24q-70 0 -70 61q0 29 18 79l107 303q8 24 8 37z
M226 757.5q19 -10.5 40 -29.5q19 -17 32.5 -25t32.5 -8q38 0 70 58l18 -5q-22 -52 -57 -77.5t-73 -25.5q-29 0 -48 10.5t-40 29.5q-19 17 -32.5 25t-32.5 8q-38 0 -70 -58l-18 5q22 52 57 77.5t73 25.5q29 0 48 -10.5z" />
    <glyph glyph-name="Imacron" unicode="&#x12a;" horiz-adv-x="341" 
d="M157 57q0 -21 14.5 -28t53.5 -9l-4 -20q-46 3 -127 3q-84 0 -127 -3l5 20q35 2 52.5 8t28 23.5t20.5 54.5l132 496q8 34 8 48q0 22 -14.5 29t-52.5 9l5 20q41 -3 127 -3q80 0 128 3l-5 -20q-37 -2 -54.5 -8t-28 -23t-20.5 -55l-132 -496q-9 -38 -9 -49zM459 819h-352
l6 25h352z" />
    <glyph glyph-name="imacron" unicode="&#x12b;" horiz-adv-x="302" 
d="M166 466q0 25 -22 25q-23 0 -41 -24t-38 -78l-14 -37h-19l26 73q20 57 53.5 80t70.5 23q66 0 66 -63q0 -33 -16 -77l-107 -303q-8 -24 -8 -37q0 -25 24 -25q21 0 39 23t39 79l14 37h19l-26 -73q-20 -55 -52.5 -79t-70.5 -24q-70 0 -70 61q0 29 18 79l107 303q8 24 8 37z
M364.948 687h-265.192l5.09961 25h265.192z" />
    <glyph glyph-name="Ibreve" unicode="&#x12c;" horiz-adv-x="341" 
d="M157 57q0 -21 14.5 -28t53.5 -9l-4 -20q-46 3 -127 3q-84 0 -127 -3l5 20q35 2 52.5 8t28 23.5t20.5 54.5l132 496q8 34 8 48q0 22 -14.5 29t-52.5 9l5 20q41 -3 127 -3q80 0 128 3l-5 -20q-37 -2 -54.5 -8t-28 -23t-20.5 -55l-132 -496q-9 -38 -9 -49zM421.5 864
q60.5 15 106.5 43l10 -11q-43 -43 -116 -78.5t-132 -35.5q-62 0 -101 32.5t-50 83.5l16 5q26 -30 61 -42t91 -12q54 0 114.5 15z" />
    <glyph glyph-name="ibreve" unicode="&#x12d;" horiz-adv-x="302" 
d="M166 466q0 25 -22 25q-23 0 -41 -24t-38 -78l-14 -37h-19l26 73q20 57 53.5 80t70.5 23q66 0 66 -63q0 -33 -16 -77l-107 -303q-8 -24 -8 -37q0 -25 24 -25q21 0 39 23t39 79l14 37h19l-26 -73q-20 -55 -52.5 -79t-70.5 -24q-70 0 -70 61q0 29 18 79l107 303q8 24 8 37z
M343 723.5q58 23.5 100 64.5l10 -11q-24 -34 -65 -67.5t-86.5 -55t-82.5 -21.5q-52 0 -83.5 40.5t-41.5 105.5l16 5q23 -47 51 -65.5t75 -18.5q49 0 107 23.5z" />
    <glyph glyph-name="Iogonek" unicode="&#x12e;" horiz-adv-x="341" 
d="M157 57q0 -21 14.5 -28t53.5 -9l-4 -20q-46 3 -127 3q-84 0 -127 -3l5 20q35 2 52.5 8t28 23.5t20.5 54.5l132 496q8 34 8 48q0 22 -14.5 29t-52.5 9l5 20q41 -3 127 -3q80 0 128 3l-5 -20q-37 -2 -54.5 -8t-28 -23t-20.5 -55l-132 -496q-9 -38 -9 -49zM149 -37.5
q-36 -27.5 -36 -65.5q0 -37 39 -37q19 0 41 8t36 18l11 -17q-60 -57 -129 -57q-36 0 -55 15.5t-19 42.5q0 45 47.5 79t108.5 54h38q-46 -13 -82 -40.5z" />
    <glyph glyph-name="iogonek" unicode="&#x12f;" horiz-adv-x="302" 
d="M210.5 736.5q22.5 23.5 51.5 23.5q23 0 37 -15t14 -37q0 -30 -23 -53t-52 -23q-22 0 -36 14.5t-14 36.5q0 30 22.5 53.5zM166 466q0 25 -22 25q-23 0 -41 -24t-38 -78l-14 -37h-19l26 73q20 57 53.5 80t70.5 23q66 0 66 -63q0 -33 -16 -77l-107 -303q-8 -24 -8 -37
q0 -25 24 -25q21 0 39 23t39 79l14 37h19l-26 -73q-20 -55 -52.5 -79t-70.5 -24q-70 0 -70 61q0 29 18 79l107 303q8 24 8 37zM81.5 -36q-37.5 -28 -37.5 -66q0 -19 10 -28.5t28 -9.5q19 0 38 8.5t30 22.5l12 -11q-56 -68 -122 -68q-34 0 -53 16t-19 43q0 44 47.5 77.5
t108.5 54.5h38q-43 -11 -80.5 -39z" />
    <glyph glyph-name="Idotaccent" unicode="&#x130;" horiz-adv-x="341" 
d="M157 57q0 -21 14.5 -28t53.5 -9l-4 -20q-46 3 -127 3q-84 0 -127 -3l5 20q35 2 52.5 8t28 23.5t20.5 54.5l132 496q8 34 8 48q0 22 -14.5 29t-52.5 9l5 20q41 -3 127 -3q80 0 128 3l-5 -20q-37 -2 -54.5 -8t-28 -23t-20.5 -55l-132 -496q-9 -38 -9 -49zM278 876.5
q22 23.5 52 23.5q23 0 37 -15t14 -38q0 -28 -22 -51.5t-53 -23.5q-22 0 -36 15t-14 38q0 28 22 51.5z" />
    <glyph glyph-name="dotlessi" unicode="&#x131;" horiz-adv-x="302" 
d="M166 466q0 25 -22 25q-23 0 -41 -24t-38 -78l-14 -37h-19l26 73q20 57 53.5 80t70.5 23q66 0 66 -63q0 -33 -16 -77l-107 -303q-8 -24 -8 -37q0 -25 24 -25q21 0 39 23t39 79l14 37h19l-26 -73q-20 -55 -52.5 -79t-70.5 -24q-70 0 -70 61q0 29 18 79l107 303q8 24 8 37z
" />
    <glyph glyph-name="Jcircumflex" unicode="&#x134;" horiz-adv-x="636" 
d="M743 718q0 -24 -73 -52q-140 -93 -208 -300h99l-3 -20h-102q-8 -26 -11 -39l-62 -242q-29 -112 -88 -182.5t-148 -70.5q-47 0 -74.5 14.5t-27.5 42.5q0 22 16 39.5t39 17.5q18 0 30 -12t12 -30q0 -16 -11.5 -29.5t-28.5 -21.5q15 -5 35 -5q45 0 74.5 34t47 85t39.5 141
q4 19 14 57l30 117q13 48 28 84h-133l3 20h138q42 91 107 157t168 140q-116 -60 -198 -60q-32 0 -58.5 7t-63.5 21q-39 14 -65 21t-59 7q-32 0 -48.5 -16t-16.5 -45q0 -64 74 -78l-3 -20q-47 8 -78.5 37.5t-31.5 85.5q0 51 31 83.5t85 32.5q37 0 66.5 -14t66.5 -40
q38 -27 66.5 -40t63.5 -13q46 0 82 10t95 35q38 58 63 58q8 0 13 -5q6 -6 6 -12zM288 772l-5 14q72 22 134 56.5t101 73.5h18q28 -48 59.5 -79.5t79.5 -50.5l-4 -14q-54 10 -87.5 23.5t-57.5 27t-32 17.5q-111 -47 -206 -68z" />
    <glyph glyph-name="jcircumflex" unicode="&#x135;" horiz-adv-x="276" 
d="M-133 -173q62 3 106 53t66 139l115 410q7 24 7 39q0 23 -22 23q-20 0 -38 -23.5t-38 -78.5l-13 -37h-19l24 73q34 103 123 103q67 0 67 -61q0 -26 -15 -79l-77 -273q-41 -166 -133 -242q-34 -28 -74.5 -44.5t-82.5 -16.5zM137 662q-46 -28 -91 -46l-5 14q65 28 122 74
t93 98h18q11 -63 38 -103t81 -69l-4 -14q-58 16 -95.5 41t-72.5 63q-38 -30 -84 -58z" />
    <glyph glyph-name="Kcommaaccent" unicode="&#x136;" horiz-adv-x="675" 
d="M692.5 707q14.5 -15 14.5 -39q0 -22 -14.5 -45.5t-43.5 -23.5q-20 0 -29.5 11.5t-9.5 28.5q0 14 9 31.5t23 30.5h-3q-20 -1 -36 -14q-17 -15 -28.5 -40.5t-29.5 -75.5q-21 -59 -40 -97.5t-52 -68t-83 -36.5q37 -8 59 -21.5t34 -47t10 -95.5l-4 -113q-1 -26 4.5 -38.5
t25.5 -12.5q25 0 42.5 18.5t31.5 59.5l17 51h20l-26 -77q-19 -55 -49 -81t-73 -26q-92 0 -84 116l7 113q1 13 1 36q0 46 -9 69t-28 38q-37 -9 -57 -9q-31 0 -31 20t30 20q22 0 61 -10q51 6 83.5 34.5t50 65.5t38.5 96q18 52 31 79.5t33 44.5q29 23 60 23q30 0 44.5 -15z
M157 57q0 -21 14.5 -28t53.5 -9l-4 -20q-46 3 -127 3q-84 0 -127 -3l5 20q35 2 52.5 8t28 23.5t20.5 54.5l132 496q8 34 8 48q0 22 -14.5 29t-52.5 9l5 20q41 -3 127 -3q80 0 128 3l-5 -20q-37 -2 -54.5 -8t-28 -23t-20.5 -55l-132 -496q-9 -38 -9 -49zM285.5 -85.5
q14.5 -16.5 14.5 -41.5q0 -37 -21 -66t-77 -48l-7 17q27 8 49.5 25t24.5 39q-8 -7 -20 -11.5t-24 -4.5q-20 0 -32.5 11t-12.5 31q0 24 18 44.5t47 20.5q26 0 40.5 -16.5z" />
    <glyph glyph-name="kcommaaccent" unicode="&#x137;" horiz-adv-x="515" 
d="M476.5 513q14.5 -15 14.5 -39q0 -22 -14.5 -45.5t-43.5 -23.5q-20 0 -29.5 11.5t-9.5 28.5q0 14 9 31.5t23 30.5h-2q-11 0 -19 -3.5t-18 -10.5q-14 -11 -24.5 -28.5t-23.5 -47.5q-25 -53 -50.5 -84t-73.5 -42q63 -3 103.5 -26.5t40.5 -73.5q0 -12 -3 -27l-20 -100
q-2 -8 -2 -20q0 -11 5 -16t17 -5q20 0 37.5 23.5t36.5 78.5l12 37h19l-24 -73q-33 -103 -119 -103q-29 0 -47 16t-18 49q0 15 4 30l18 86q5 23 5 37q0 38 -27 57t-91 24l-84 -285h-87l198 667q5 17 5 27q0 20 -16 29.5t-53 9.5l6 21q104 1 180 41l-146 -498q47 4 76 22
t44.5 42t33.5 63q13 30 24.5 49t28.5 32q31 23 60 23q30 0 44.5 -15zM193.5 -85.5q14.5 -16.5 14.5 -41.5q0 -37 -21 -66t-77 -48l-7 17q27 8 49.5 25t24.5 39q-8 -7 -20 -11.5t-24 -4.5q-20 0 -32.5 11t-12.5 31q0 24 18 44.5t47 20.5q26 0 40.5 -16.5z" />
    <glyph glyph-name="kgreenlandic" unicode="&#x138;" horiz-adv-x="558" 
d="M507.5 513q14.5 -15 14.5 -39q0 -22 -14.5 -45.5t-43.5 -23.5q-20 0 -29.5 11.5t-9.5 28.5q0 14 9 31.5t23 30.5h-2q-11 0 -19 -3.5t-18 -10.5q-15 -13 -26 -32.5t-25 -53.5q-17 -41 -31.5 -67t-39 -48t-60.5 -30q143 -8 143 -106q0 -6 -2 -22l-10 -70q-2 -14 -2 -18
q0 -13 5 -18t17 -5q20 0 37.5 23.5t36.5 78.5l12 37h19l-24 -73q-33 -103 -119 -103q-63 0 -63 68q0 7 2 27l8 56q3 18 3 33q0 40 -25 59.5t-89 25.5l-64 -255h-87l120 429q7 22 7 38q0 24 -21 24q-22 0 -40.5 -23.5t-37.5 -78.5l-13 -37h-19l25 73q36 103 121 103
q30 0 43.5 -15t13.5 -43q0 -26 -14 -82l-30 -120q48 4 78 25t46.5 48t34.5 71q15 37 26.5 57.5t28.5 35.5q31 23 60 23q30 0 44.5 -15z" />
    <glyph glyph-name="Lacute" unicode="&#x139;" horiz-adv-x="586" 
d="M510 128q-16 -56 -27 -128q-68 3 -229 3q-192 0 -289 -3l5 20q36 2 53.5 8t28.5 23t21 55l133 496q9 32 9 49q0 21 -14.5 28t-52.5 9l5 20q42 -3 128 -3q81 0 127 3l-5 -20q-37 -2 -54.5 -8t-28.5 -23t-21 -55l-133 -496q-9 -31 -9 -49q0 -21 15 -27.5t53 -6.5h73
q62 0 99.5 17.5t62.5 56.5t52 113h23q-7 -19 -25 -82zM346.5 838.5q35.5 26.5 46.5 34.5q49 38 72 52q18 11 38 11q21 0 28 -16q2 -6 2 -10q0 -13 -10.5 -24.5t-24.5 -19.5q-19 -11 -46.5 -21.5t-32.5 -12.5q-87 -33 -143 -60l-7 11q42 29 77.5 55.5z" />
    <glyph glyph-name="lacute" unicode="&#x13a;" horiz-adv-x="277" 
d="M96 50q0 -27 23 -27q20 0 37.5 23t37.5 79l13 37h19l-25 -73q-35 -103 -120 -103q-69 0 -69 65q0 25 14 75l163 541q5 18 5 28q0 20 -15.5 29t-52.5 9l7 21q53 1 95.5 11t82.5 30l-209 -710q-6 -21 -6 -35zM324.5 903.5q35.5 26.5 46.5 34.5q49 38 72 52q18 11 38 11
q21 0 28 -16q2 -6 2 -10q0 -13 -10.5 -24.5t-24.5 -19.5q-19 -11 -46.5 -21.5t-32.5 -12.5q-87 -33 -143 -60l-7 11q42 29 77.5 55.5z" />
    <glyph glyph-name="Lcommaaccent" unicode="&#x13b;" horiz-adv-x="586" 
d="M510 128q-16 -56 -27 -128q-68 3 -229 3q-192 0 -289 -3l5 20q36 2 53.5 8t28.5 23t21 55l133 496q9 32 9 49q0 21 -14.5 28t-52.5 9l5 20q42 -3 128 -3q81 0 127 3l-5 -20q-37 -2 -54.5 -8t-28.5 -23t-21 -55l-133 -496q-9 -31 -9 -49q0 -21 15 -27.5t53 -6.5h73
q62 0 99.5 17.5t62.5 56.5t52 113h23q-7 -19 -25 -82zM281.5 -85.5q14.5 -16.5 14.5 -41.5q0 -37 -21 -66t-77 -48l-7 17q27 8 49.5 25t24.5 39q-8 -7 -20 -11.5t-24 -4.5q-20 0 -32.5 11t-12.5 31q0 24 18 44.5t47 20.5q26 0 40.5 -16.5z" />
    <glyph glyph-name="lcommaaccent" unicode="&#x13c;" horiz-adv-x="277" 
d="M96 50q0 -27 23 -27q20 0 37.5 23t37.5 79l13 37h19l-25 -73q-35 -103 -120 -103q-69 0 -69 65q0 25 14 75l163 541q5 18 5 28q0 20 -15.5 29t-52.5 9l7 21q53 1 95.5 11t82.5 30l-209 -710q-6 -21 -6 -35zM110.5 -85.5q14.5 -16.5 14.5 -41.5q0 -37 -21 -66t-77 -48
l-7 17q27 8 49.5 25t24.5 39q-8 -7 -20 -11.5t-24 -4.5q-20 0 -32.5 11t-12.5 31q0 24 18 44.5t47 20.5q26 0 40.5 -16.5z" />
    <glyph glyph-name="Lcaron" unicode="&#x13d;" horiz-adv-x="586" 
d="M510 128q-16 -56 -27 -128q-68 3 -229 3q-192 0 -289 -3l5 20q36 2 53.5 8t28.5 23t21 55l133 496q9 32 9 49q0 21 -14.5 28t-52.5 9l5 20q42 -3 128 -3q81 0 127 3l-5 -20q-37 -2 -54.5 -8t-28.5 -23t-21 -55l-133 -496q-9 -31 -9 -49q0 -21 15 -27.5t53 -6.5h73
q62 0 99.5 17.5t62.5 56.5t52 113h23q-7 -19 -25 -82zM467.5 598q17.5 49 17.5 70q0 10 -7 14.5t-26 4.5l3 21l41 -1q35 0 73 12q1 -2 1 -8q0 -37 -37 -96.5t-105 -133.5l-14 4q36 64 53.5 113z" />
    <glyph glyph-name="lcaron" unicode="&#x13e;" horiz-adv-x="277" 
d="M96 50q0 -27 23 -27q20 0 37.5 23t37.5 79l13 37h19l-25 -73q-35 -103 -120 -103q-69 0 -69 65q0 25 14 75l163 541q5 18 5 28q0 20 -15.5 29t-52.5 9l7 21q53 1 95.5 11t82.5 30l-209 -710q-6 -21 -6 -35zM368 658.5q15 51.5 15 74.5q0 19 -13 19l3 21l21 -1q35 0 73 12
q1 -2 1 -8q0 -39 -34.5 -101t-97.5 -139l-14 4q31 67 46 118.5z" />
    <glyph glyph-name="Ldot" unicode="&#x13f;" horiz-adv-x="597" 
d="M510 128q-16 -56 -27 -128q-68 3 -229 3q-192 0 -289 -3l5 20q36 2 53.5 8t28.5 23t21 55l133 496q9 32 9 49q0 21 -14.5 28t-52.5 9l5 20q42 -3 128 -3q81 0 127 3l-5 -20q-37 -2 -54.5 -8t-28.5 -23t-21 -55l-133 -496q-9 -31 -9 -49q0 -21 15 -27.5t53 -6.5h73
q62 0 99.5 17.5t62.5 56.5t52 113h23q-7 -19 -25 -82zM480.5 395.5q22.5 23.5 51.5 23.5q23 0 37 -15t14 -37q0 -30 -23 -53t-52 -23q-22 0 -36 14.5t-14 36.5q0 30 22.5 53.5z" />
    <glyph glyph-name="ldot" unicode="&#x140;" horiz-adv-x="414" 
d="M96 50q0 -27 23 -27q20 0 37.5 23t37.5 79l13 37h19l-25 -73q-35 -103 -120 -103q-69 0 -69 65q0 25 14 75l163 541q5 18 5 28q0 20 -15.5 29t-52.5 9l7 21q53 1 95.5 11t82.5 30l-209 -710q-6 -21 -6 -35zM292.5 335.5q22.5 23.5 51.5 23.5q23 0 37 -15t14 -37
q0 -30 -23 -53t-52 -23q-22 0 -36 14.5t-14 36.5q0 30 22.5 53.5z" />
    <glyph glyph-name="Lslash" unicode="&#x141;" horiz-adv-x="587" 
d="M537 210q-7 -19 -25 -82q-16 -56 -27 -128q-68 3 -229 3q-192 0 -289 -3l5 20q36 2 53.5 8t28.5 23t21 55l42 155l-102 -51l6 23l102 51l85 318q9 32 9 49q0 21 -14.5 28t-52.5 9l5 20q42 -3 128 -3q81 0 127 3l-5 -20q-37 -2 -54.5 -8t-28.5 -23t-21 -55l-74 -274
l289 145l-6 -23l-289 -145l-53 -199q-9 -31 -9 -49q0 -21 15 -27.5t53 -6.5h73q62 0 99.5 17.5t62.5 56.5t52 113h23z" />
    <glyph glyph-name="lslash" unicode="&#x142;" horiz-adv-x="308" 
d="M117 85q-6 -21 -6 -35q0 -27 23 -27q20 0 37.5 23t37.5 79l13 37h19l-25 -73q-35 -103 -120 -103q-69 0 -69 65q0 25 14 75l59 196l-100 -67l4 30l106 72l94 310q5 18 5 28q0 20 -15.5 29t-52.5 9l7 21q53 1 95.5 11t82.5 30l-115 -390l138 92l-4 -30l-144 -95z" />
    <glyph glyph-name="Nacute" unicode="&#x143;" horiz-adv-x="770" 
d="M858 740q14 -14 14 -37q0 -27 -16 -49.5t-43 -22.5q-20 0 -29 11.5t-9 27.5t9 33t23 30h-3q-49 -1 -82 -51q-44 -66 -92 -232.5t-109 -454.5h-22l-228 644q-49 -251 -92.5 -424t-83.5 -226q-22 -29 -46.5 -46t-60.5 -17q-60 0 -60 52q0 27 16 49t43 22q20 0 29 -11.5
t9 -27.5t-9 -33t-23 -30h3q51 1 83 52q37 59 77 211t87 392q6 29 6 45q0 24 -16 31.5t-61 9.5l5 20q32 -3 89 -3q46 0 81 3l189 -553q43 192 84 332.5t84 202.5q44 64 108 64q32 0 46 -14zM573.5 838.5q35.5 26.5 46.5 34.5q49 38 72 52q18 11 38 11q21 0 28 -16q2 -6 2 -10
q0 -13 -10.5 -24.5t-24.5 -19.5q-19 -11 -46.5 -21.5t-32.5 -12.5q-87 -33 -143 -60l-7 11q42 29 77.5 55.5z" />
    <glyph glyph-name="nacute" unicode="&#x144;" horiz-adv-x="580" 
d="M530 162l-25 -73q-36 -103 -121 -103q-45 0 -63 29q-8 12 -8 33q0 27 17 78l95 286q10 33 10 49q0 35 -32 35q-38 0 -86.5 -55.5t-95.5 -152.5t-81 -215l-18 -73h-87l120 429q7 26 7 37q0 25 -22 25t-39 -22t-38 -80l-13 -37h-19l25 73q36 103 119 103q32 0 45.5 -15.5
t13.5 -43.5q0 -27 -14 -81l-35 -137q64 151 122.5 214t128.5 63q81 0 81 -75q0 -33 -15 -76l-97 -292q-8 -24 -8 -38q0 -24 24 -24q20 0 38.5 22.5t38.5 79.5l13 37h19zM398 726q38 52 58 72q19 22 41 22q14 0 22 -7q8 -8 8 -19q0 -20 -23 -43q-22 -23 -68 -55
q-7 -5 -42 -32.5t-78 -64.5l-10 9q39 47 92 118z" />
    <glyph glyph-name="Ncommaaccent" unicode="&#x145;" horiz-adv-x="770" 
d="M858 740q14 -14 14 -37q0 -27 -16 -49.5t-43 -22.5q-20 0 -29 11.5t-9 27.5t9 33t23 30h-3q-49 -1 -82 -51q-44 -66 -92 -232.5t-109 -454.5h-22l-228 644q-49 -251 -92.5 -424t-83.5 -226q-22 -29 -46.5 -46t-60.5 -17q-60 0 -60 52q0 27 16 49t43 22q20 0 29 -11.5
t9 -27.5t-9 -33t-23 -30h3q51 1 83 52q37 59 77 211t87 392q6 29 6 45q0 24 -16 31.5t-61 9.5l5 20q32 -3 89 -3q46 0 81 3l189 -553q43 192 84 332.5t84 202.5q44 64 108 64q32 0 46 -14zM312.5 -85.5q14.5 -16.5 14.5 -41.5q0 -37 -21 -66t-77 -48l-7 17q27 8 49.5 25
t24.5 39q-8 -7 -20 -11.5t-24 -4.5q-20 0 -32.5 11t-12.5 31q0 24 18 44.5t47 20.5q26 0 40.5 -16.5z" />
    <glyph glyph-name="ncommaaccent" unicode="&#x146;" horiz-adv-x="580" 
d="M530 162l-25 -73q-36 -103 -121 -103q-45 0 -63 29q-8 12 -8 33q0 27 17 78l95 286q10 33 10 49q0 35 -32 35q-38 0 -86.5 -55.5t-95.5 -152.5t-81 -215l-18 -73h-87l120 429q7 26 7 37q0 25 -22 25t-39 -22t-38 -80l-13 -37h-19l25 73q36 103 119 103q32 0 45.5 -15.5
t13.5 -43.5q0 -27 -14 -81l-35 -137q64 151 122.5 214t128.5 63q81 0 81 -75q0 -33 -15 -76l-97 -292q-8 -24 -8 -38q0 -24 24 -24q20 0 38.5 22.5t38.5 79.5l13 37h19zM234.5 -85.5q14.5 -16.5 14.5 -41.5q0 -37 -21 -66t-77 -48l-7 17q27 8 49.5 25t24.5 39
q-8 -7 -20 -11.5t-24 -4.5q-20 0 -32.5 11t-12.5 31q0 24 18 44.5t47 20.5q26 0 40.5 -16.5z" />
    <glyph glyph-name="Ncaron" unicode="&#x147;" horiz-adv-x="770" 
d="M858 740q14 -14 14 -37q0 -27 -16 -49.5t-43 -22.5q-20 0 -29 11.5t-9 27.5t9 33t23 30h-3q-49 -1 -82 -51q-44 -66 -92 -232.5t-109 -454.5h-22l-228 644q-49 -251 -92.5 -424t-83.5 -226q-22 -29 -46.5 -46t-60.5 -17q-60 0 -60 52q0 27 16 49t43 22q20 0 29 -11.5
t9 -27.5t-9 -33t-23 -30h3q51 1 83 52q37 59 77 211t87 392q6 29 6 45q0 24 -16 31.5t-61 9.5l5 20q32 -3 89 -3q46 0 81 3l189 -553q43 192 84 332.5t84 202.5q44 64 108 64q32 0 46 -14zM749 924l5 -14q-72 -22 -134 -56.5t-101 -73.5h-18q-28 48 -59.5 79.5t-79.5 50.5
l4 14q54 -10 87.5 -23.5t57.5 -27t32 -17.5q111 47 206 68z" />
    <glyph glyph-name="ncaron" unicode="&#x148;" horiz-adv-x="580" 
d="M530 162l-25 -73q-36 -103 -121 -103q-45 0 -63 29q-8 12 -8 33q0 27 17 78l95 286q10 33 10 49q0 35 -32 35q-38 0 -86.5 -55.5t-95.5 -152.5t-81 -215l-18 -73h-87l120 429q7 26 7 37q0 25 -22 25t-39 -22t-38 -80l-13 -37h-19l25 73q36 103 119 103q32 0 45.5 -15.5
t13.5 -43.5q0 -27 -14 -81l-35 -137q64 151 122.5 214t128.5 63q81 0 81 -75q0 -33 -15 -76l-97 -292q-8 -24 -8 -38q0 -24 24 -24q20 0 38.5 22.5t38.5 79.5l13 37h19zM488 756q46 28 91 46l5 -14q-65 -28 -122 -74t-93 -98h-18q-11 63 -38 103t-81 69l4 14
q58 -16 95.5 -41t72.5 -63q38 30 84 58z" />
    <glyph glyph-name="napostrophe" unicode="&#x149;" horiz-adv-x="580" 
d="M530 162l-25 -73q-36 -103 -121 -103q-45 0 -63 29q-8 12 -8 33q0 27 17 78l95 286q10 33 10 49q0 35 -32 35q-38 0 -86.5 -55.5t-95.5 -152.5t-81 -215l-18 -73h-87l120 429q7 26 7 37q0 25 -22 25t-39 -22t-38 -80l-13 -37h-19l25 73q36 103 119 103q32 0 45.5 -15.5
t13.5 -43.5q0 -27 -14 -81l-35 -137q64 151 122.5 214t128.5 63q81 0 81 -75q0 -33 -15 -76l-97 -292q-8 -24 -8 -38q0 -24 24 -24q20 0 38.5 22.5t38.5 79.5l13 37h19zM84.5 597.5q-39.5 -51.5 -107.5 -84.5l-5 14q47 29 75 63t31 68q-29 -25 -52 -25q-18 0 -28 9.5
t-10 25.5q0 21 13.5 43t35 36t43.5 14t33 -17t11 -42q0 -53 -39.5 -104.5z" />
    <glyph glyph-name="Eng" unicode="&#x14a;" horiz-adv-x="701" 
d="M774 708l-5 -20q-35 -2 -54 -10.5t-30 -27.5t-21 -58l-139 -525q-29 -130 -78 -192.5t-121 -62.5q-36 0 -63 15t-27 42q0 23 16.5 40t38.5 17q18 0 30 -12t12 -30q0 -16 -11.5 -29.5t-28.5 -21.5q15 -5 35 -5q54 0 92.5 45.5t63.5 121.5l-243 658l-141 -537
q-8 -34 -8 -50q0 -24 16.5 -34t58.5 -12l-5 -20q-34 3 -101 3q-59 0 -94 -3l5 20q35 2 54 10.5t30 27.5t21 58l129 486q8 34 8 48q0 22 -14.5 29t-52.5 9l5 20q32 -3 89 -3q47 0 81 3l202 -562l117 446q8 34 8 50q0 25 -16.5 34.5t-58.5 11.5l5 20q34 -3 101 -3q60 0 94 3z
" />
    <glyph glyph-name="eng" unicode="&#x14b;" horiz-adv-x="549" 
d="M515 456q0 -32 -14 -79l-74 -262q-70 -247 -195 -293q-29 -10 -59 -10q-22 0 -34.5 10t-12.5 28q0 10 2 16q6 18 21.5 32t35.5 14q15 0 24 -9t9 -22q0 -4 -2 -12q-8 -25 -26 -42q38 5 61 29t38 79l135 477q10 35 10 52q0 32 -32 32q-38 0 -86.5 -55.5t-95.5 -152.5
t-81 -215l-18 -73h-87l120 429q7 28 7 39q0 23 -21 23q-22 0 -40.5 -23.5t-37.5 -78.5l-13 -37h-19l25 73q36 103 121 103q30 0 43.5 -14.5t13.5 -42.5q0 -27 -14 -83l-43 -168q65 169 125.5 238.5t133.5 69.5q80 0 80 -72z" />
    <glyph glyph-name="Omacron" unicode="&#x14c;" horiz-adv-x="729" 
d="M107 455q53 116 148.5 191.5t215.5 75.5q112 0 174 -63t62 -178q0 -113 -53.5 -228.5t-149.5 -191t-215 -75.5q-111 0 -173 63t-62 177q0 113 53 229zM316.5 632q-70.5 -72 -113.5 -186.5t-43 -232.5q0 -97 38 -153t100 -56q75 0 145.5 72t113.5 186.5t43 232.5
q0 97 -38 153t-100 56q-75 0 -145.5 -72zM640 819h-352l6 25h352z" />
    <glyph glyph-name="omacron" unicode="&#x14d;" horiz-adv-x="488" 
d="M56 312.5q35 90.5 101 153t153 62.5q64 0 100.5 -39.5t36.5 -117.5q0 -79 -35 -169.5t-101 -153t-153 -62.5q-64 0 -100.5 39.5t-36.5 117.5q0 79 35 169.5zM207.5 443q-45.5 -65 -73 -162.5t-27.5 -187.5q0 -45 14 -66t43 -21q51 0 96.5 65t73 162.5t27.5 187.5
q0 45 -14 66t-43 21q-51 0 -96.5 -65zM520 687h-312l6 25h312z" />
    <glyph glyph-name="Obreve" unicode="&#x14e;" horiz-adv-x="729" 
d="M107 455q53 116 148.5 191.5t215.5 75.5q112 0 174 -63t62 -178q0 -113 -53.5 -228.5t-149.5 -191t-215 -75.5q-111 0 -173 63t-62 177q0 113 53 229zM316.5 632q-70.5 -72 -113.5 -186.5t-43 -232.5q0 -97 38 -153t100 -56q75 0 145.5 72t113.5 186.5t43 232.5
q0 97 -38 153t-100 56q-75 0 -145.5 -72zM602.5 864q60.5 15 106.5 43l10 -11q-43 -43 -116 -78.5t-132 -35.5q-62 0 -101 32.5t-50 83.5l16 5q26 -30 61 -42t91 -12q54 0 114.5 15z" />
    <glyph glyph-name="obreve" unicode="&#x14f;" horiz-adv-x="488" 
d="M56 312.5q35 90.5 101 153t153 62.5q64 0 100.5 -39.5t36.5 -117.5q0 -79 -35 -169.5t-101 -153t-153 -62.5q-64 0 -100.5 39.5t-36.5 117.5q0 79 35 169.5zM207.5 443q-45.5 -65 -73 -162.5t-27.5 -187.5q0 -45 14 -66t43 -21q51 0 96.5 65t73 162.5t27.5 187.5
q0 45 -14 66t-43 21q-51 0 -96.5 -65zM469 723.5q58 23.5 100 64.5l10 -11q-24 -34 -65 -67.5t-86.5 -55t-82.5 -21.5q-52 0 -83.5 40.5t-41.5 105.5l16 5q23 -47 51 -65.5t75 -18.5q49 0 107 23.5z" />
    <glyph glyph-name="Ohungarumlaut" unicode="&#x150;" horiz-adv-x="729" 
d="M107 455q53 116 148.5 191.5t215.5 75.5q112 0 174 -63t62 -178q0 -113 -53.5 -228.5t-149.5 -191t-215 -75.5q-111 0 -173 63t-62 177q0 113 53 229zM316.5 632q-70.5 -72 -113.5 -186.5t-43 -232.5q0 -97 38 -153t100 -56q75 0 145.5 72t113.5 186.5t43 232.5
q0 97 -38 153t-100 56q-75 0 -145.5 -72zM598 857q50 48 74 65q18 14 37 14q16 0 24 -12q5 -8 5 -15q0 -21 -33 -46q-30 -20 -88 -45q-8 -4 -37.5 -17.5t-55.5 -28.5l-6 12q30 23 80 73zM411 857q50 48 74 65q7 6 17.5 10t19.5 4q17 0 25 -14q3 -7 3 -14q0 -21 -32 -45
q-30 -20 -88 -45q-8 -4 -37.5 -17.5t-55.5 -28.5l-6 12q30 23 80 73z" />
    <glyph glyph-name="ohungarumlaut" unicode="&#x151;" horiz-adv-x="488" 
d="M56 312.5q35 90.5 101 153t153 62.5q64 0 100.5 -39.5t36.5 -117.5q0 -79 -35 -169.5t-101 -153t-153 -62.5q-64 0 -100.5 39.5t-36.5 117.5q0 79 35 169.5zM207.5 443q-45.5 -65 -73 -162.5t-27.5 -187.5q0 -45 14 -66t43 -21q51 0 96.5 65t73 162.5t27.5 187.5
q0 45 -14 66t-43 21q-51 0 -96.5 -65zM289 729q23 46 40 69q16 22 38 22q14 0 22 -7q14 -12 14 -28q0 -15 -14 -34q-20 -25 -57 -55q-7 -6 -36.5 -33.5t-64.5 -63.5l-11 9q37 59 69 121zM467 729q23 46 40 69q17 22 38 22q14 0 22 -7q14 -12 14 -28q0 -15 -14 -34
q-20 -25 -57 -55q-7 -6 -36.5 -33.5t-64.5 -63.5l-11 9q37 59 69 121z" />
    <glyph glyph-name="OE" unicode="&#x152;" horiz-adv-x="956" 
d="M993 708q-14 -38 -25 -74t-13 -44q-13 -35 -13 -62h-22q7 39 7 71q0 47 -21 66.5t-67 19.5h-83q-35 0 -52.5 -5.5t-27.5 -22.5t-20 -55l-63 -236h98q28 0 47 15t30.5 37t25.5 60h22q-16 -49 -27 -95l-7 -27q-14 -52 -26 -122h-22q0 16 3 31q2 22 2 31q0 22 -11 35t-41 15
h-99l-64 -240q-9 -38 -9 -49q0 -21 14.5 -27.5t51.5 -6.5h93q48 0 79.5 16.5t54 54.5t45.5 106h22q-3 -6 -14 -45q-4 -18 -7 -27q-19 -67 -26 -128q-65 3 -216 3q-150 0 -239 -2q-52 -15 -102 -15q-102 0 -158.5 62.5t-56.5 177.5q0 113 50.5 229t141.5 191.5t205 75.5
q58 0 101 -15q93 -2 252 -2q130 0 187 3zM563 602q6 21 6 37q0 39 -29 52t-84 13q-76 0 -144 -71.5t-109 -186t-41 -233.5q0 -97 32.5 -153t85.5 -56q66 0 101 22t50 80z" />
    <glyph glyph-name="oe" unicode="&#x153;" horiz-adv-x="719" 
d="M614.5 316q-90.5 -58 -209.5 -96q-10 -53 -10 -96q0 -96 69 -96q82 0 150 100l20 -8q-32 -55 -86.5 -94.5t-114.5 -39.5q-59 0 -93.5 33t-38.5 95q-63 -128 -164 -128q-55 0 -88.5 40t-33.5 117q0 74 43.5 163t118.5 150.5t165 61.5q44 0 66 -18.5t22 -51.5q0 -10 -1 -15
q39 44 85.5 69.5t96.5 25.5q42 0 68 -19.5t26 -56.5q0 -78 -90.5 -136zM524 471.5q-36 -37.5 -67 -100t-48 -132.5q99 35 138 65q37 29 57.5 70.5t20.5 89.5q0 21 -9.5 33t-26.5 12q-29 0 -65 -37.5zM334.5 277.5q23.5 58.5 58.5 109.5q12 27 12 54q0 24 -13.5 39t-42.5 15
q-66 0 -123 -62.5t-91 -157t-34 -182.5q0 -44 11.5 -63t35.5 -19q44 0 85.5 42t70.5 113q7 53 30.5 111.5z" />
    <glyph glyph-name="Racute" unicode="&#x154;" horiz-adv-x="664" 
d="M592 121h23l-4 -13q-18 -63 -45.5 -92.5t-73.5 -29.5q-47 0 -70 28t-20 68l8 112q1 12 1 32q0 42 -15 65t-54.5 33.5t-114.5 11.5l-61 -230q-9 -30 -9 -49q0 -20 14.5 -28t53.5 -9l-4 -20q-46 3 -124 3q-88 0 -130 -3l4 20q36 2 54 8t28.5 23t20.5 55l132 496q9 34 9 47
q0 21 -15 29.5t-53 9.5l5 20q40 -3 123 -3q48 0 72 1l74 1q98 0 148.5 -37.5t50.5 -103.5q0 -82 -71 -142t-190 -80q13 -1 35 -5q59 -11 85 -35t26 -77q0 -13 -1 -20l-8 -102q-1 -7 -1 -21q0 -61 32 -61q17 0 31 20.5t29 63.5zM233 356h30q135 0 195.5 59t60.5 157
q0 59 -30 87.5t-97 28.5q-30 0 -47 -7.5t-27.5 -25.5t-19.5 -53zM469.5 838.5q35.5 26.5 46.5 34.5q49 38 72 52q18 11 38 11q21 0 28 -16q2 -6 2 -10q0 -13 -10.5 -24.5t-24.5 -19.5q-19 -11 -46.5 -21.5t-32.5 -12.5q-87 -33 -143 -60l-7 11q42 29 77.5 55.5z" />
    <glyph glyph-name="racute" unicode="&#x155;" horiz-adv-x="426" 
d="M438 512q16 -16 16 -41q0 -30 -21 -51t-49 -21q-18 0 -29 9.5t-11 26.5q0 23 12 39t33 25q-4 4 -11 4q-54 0 -117.5 -116.5t-119.5 -307.5l-20 -79h-87l120 429q7 22 7 39q0 23 -21 23q-22 0 -40.5 -23.5t-37.5 -78.5l-13 -37h-19l25 73q36 103 121 103q57 0 57 -58
q0 -28 -14 -82l-32 -126q54 145 101.5 205.5t106.5 60.5q27 0 43 -16zM346 726q38 52 58 72q19 22 41 22q14 0 22 -7q8 -8 8 -19q0 -20 -23 -43q-22 -23 -68 -55q-7 -5 -42 -32.5t-78 -64.5l-10 9q39 47 92 118z" />
    <glyph glyph-name="Rcommaaccent" unicode="&#x156;" horiz-adv-x="664" 
d="M592 121h23l-4 -13q-18 -63 -45.5 -92.5t-73.5 -29.5q-47 0 -70 28t-20 68l8 112q1 12 1 32q0 42 -15 65t-54.5 33.5t-114.5 11.5l-61 -230q-9 -30 -9 -49q0 -20 14.5 -28t53.5 -9l-4 -20q-46 3 -124 3q-88 0 -130 -3l4 20q36 2 54 8t28.5 23t20.5 55l132 496q9 34 9 47
q0 21 -15 29.5t-53 9.5l5 20q40 -3 123 -3q48 0 72 1l74 1q98 0 148.5 -37.5t50.5 -103.5q0 -82 -71 -142t-190 -80q13 -1 35 -5q59 -11 85 -35t26 -77q0 -13 -1 -20l-8 -102q-1 -7 -1 -21q0 -61 32 -61q17 0 31 20.5t29 63.5zM233 356h30q135 0 195.5 59t60.5 157
q0 59 -30 87.5t-97 28.5q-30 0 -47 -7.5t-27.5 -25.5t-19.5 -53zM316.5 -85.5q14.5 -16.5 14.5 -41.5q0 -37 -21 -66t-77 -48l-7 17q27 8 49.5 25t24.5 39q-8 -7 -20 -11.5t-24 -4.5q-20 0 -32.5 11t-12.5 31q0 24 18 44.5t47 20.5q26 0 40.5 -16.5z" />
    <glyph glyph-name="rcommaaccent" unicode="&#x157;" horiz-adv-x="426" 
d="M438 512q16 -16 16 -41q0 -30 -21 -51t-49 -21q-18 0 -29 9.5t-11 26.5q0 23 12 39t33 25q-4 4 -11 4q-54 0 -117.5 -116.5t-119.5 -307.5l-20 -79h-87l120 429q7 22 7 39q0 23 -21 23q-22 0 -40.5 -23.5t-37.5 -78.5l-13 -37h-19l25 73q36 103 121 103q57 0 57 -58
q0 -28 -14 -82l-32 -126q54 145 101.5 205.5t106.5 60.5q27 0 43 -16zM100.5 -85.5q14.5 -16.5 14.5 -41.5q0 -37 -21 -66t-77 -48l-7 17q27 8 49.5 25t24.5 39q-8 -7 -20 -11.5t-24 -4.5q-20 0 -32.5 11t-12.5 31q0 24 18 44.5t47 20.5q26 0 40.5 -16.5z" />
    <glyph glyph-name="Rcaron" unicode="&#x158;" horiz-adv-x="664" 
d="M592 121h23l-4 -13q-18 -63 -45.5 -92.5t-73.5 -29.5q-47 0 -70 28t-20 68l8 112q1 12 1 32q0 42 -15 65t-54.5 33.5t-114.5 11.5l-61 -230q-9 -30 -9 -49q0 -20 14.5 -28t53.5 -9l-4 -20q-46 3 -124 3q-88 0 -130 -3l4 20q36 2 54 8t28.5 23t20.5 55l132 496q9 34 9 47
q0 21 -15 29.5t-53 9.5l5 20q40 -3 123 -3q48 0 72 1l74 1q98 0 148.5 -37.5t50.5 -103.5q0 -82 -71 -142t-190 -80q13 -1 35 -5q59 -11 85 -35t26 -77q0 -13 -1 -20l-8 -102q-1 -7 -1 -21q0 -61 32 -61q17 0 31 20.5t29 63.5zM233 356h30q135 0 195.5 59t60.5 157
q0 59 -30 87.5t-97 28.5q-30 0 -47 -7.5t-27.5 -25.5t-19.5 -53zM645 924l5 -14q-72 -22 -134 -56.5t-101 -73.5h-18q-28 48 -59.5 79.5t-79.5 50.5l4 14q54 -10 87.5 -23.5t57.5 -27t32 -17.5q111 47 206 68z" />
    <glyph glyph-name="rcaron" unicode="&#x159;" horiz-adv-x="426" 
d="M438 512q16 -16 16 -41q0 -30 -21 -51t-49 -21q-18 0 -29 9.5t-11 26.5q0 23 12 39t33 25q-4 4 -11 4q-54 0 -117.5 -116.5t-119.5 -307.5l-20 -79h-87l120 429q7 22 7 39q0 23 -21 23q-22 0 -40.5 -23.5t-37.5 -78.5l-13 -37h-19l25 73q36 103 121 103q57 0 57 -58
q0 -28 -14 -82l-32 -126q54 145 101.5 205.5t106.5 60.5q27 0 43 -16zM436 756q46 28 91 46l5 -14q-65 -28 -122 -74t-93 -98h-18q-11 63 -38 103t-81 69l4 14q58 -16 95.5 -41t72.5 -63q38 30 84 58z" />
    <glyph glyph-name="Sacute" unicode="&#x15a;" horiz-adv-x="554" 
d="M517 511h-20q6 29 6 57q0 59 -35 97t-107 38q-63 0 -101.5 -32t-38.5 -95q0 -49 30.5 -90t91.5 -97q43 -39 69 -68t44 -64t18 -75q0 -65 -37.5 -109.5t-95.5 -65.5t-120 -21q-53 0 -84.5 13t-57.5 33q-19 15 -36 15q-12 0 -20 -12t-21 -42h-20q16 38 31.5 91.5
t36.5 148.5h20q-9 -47 -9 -74q0 -73 40 -113t123 -40q68 0 107.5 31t39.5 94q0 38 -15 70t-36.5 56.5t-59.5 61.5q-40 38 -63.5 65t-40 63t-16.5 80q0 62 31.5 106t82 66.5t106.5 22.5q41 0 71 -10t59 -32q24 -18 33 -18q8 0 15.5 12.5t17.5 40.5h20q-36 -91 -59 -204z
M449.5 838.5q35.5 26.5 46.5 34.5q49 38 72 52q18 11 38 11q21 0 28 -16q2 -6 2 -10q0 -13 -10.5 -24.5t-24.5 -19.5q-19 -11 -46.5 -21.5t-32.5 -12.5q-87 -33 -143 -60l-7 11q42 29 77.5 55.5z" />
    <glyph glyph-name="sacute" unicode="&#x15b;" horiz-adv-x="381" 
d="M78.5 8q9.5 -2 26.5 -2q45 0 73 27t28 76q0 32 -12 62.5t-40 69.5q-34 46 -49.5 75.5t-15.5 69.5q0 41 21 73.5t56.5 50.5t77.5 18q52 0 87 -19.5t35 -67.5q0 -18 -11.5 -35t-34.5 -17q-17 0 -28.5 12t-11.5 30q0 32 28 67q-19 12 -50 12q-38 0 -62.5 -25.5t-24.5 -69.5
q0 -26 9 -44.5t33 -54.5l18 -26q30 -46 44.5 -79t14.5 -68q0 -45 -23.5 -81t-63 -56t-85.5 -20q-57 0 -96 24.5t-39 74.5q0 17 9.5 31t29.5 14q22 0 33 -18t11 -45q0 -17 -7 -52q10 -5 19.5 -7zM318 726q38 52 58 72q19 22 41 22q14 0 22 -7q8 -8 8 -19q0 -20 -23 -43
q-22 -23 -68 -55q-7 -5 -42 -32.5t-78 -64.5l-10 9q39 47 92 118z" />
    <glyph glyph-name="Scircumflex" unicode="&#x15c;" horiz-adv-x="554" 
d="M517 511h-20q6 29 6 57q0 59 -35 97t-107 38q-63 0 -101.5 -32t-38.5 -95q0 -49 30.5 -90t91.5 -97q43 -39 69 -68t44 -64t18 -75q0 -65 -37.5 -109.5t-95.5 -65.5t-120 -21q-53 0 -84.5 13t-57.5 33q-19 15 -36 15q-12 0 -20 -12t-21 -42h-20q16 38 31.5 91.5
t36.5 148.5h20q-9 -47 -9 -74q0 -73 40 -113t123 -40q68 0 107.5 31t39.5 94q0 38 -15 70t-36.5 56.5t-59.5 61.5q-40 38 -63.5 65t-40 63t-16.5 80q0 62 31.5 106t82 66.5t106.5 22.5q41 0 71 -10t59 -32q24 -18 33 -18q8 0 15.5 12.5t17.5 40.5h20q-36 -91 -59 -204z
M192 772l-5 14q72 22 134 56.5t101 73.5h18q28 -48 59.5 -79.5t79.5 -50.5l-4 -14q-54 10 -87.5 23.5t-57.5 27t-32 17.5q-111 -47 -206 -68z" />
    <glyph glyph-name="scircumflex" unicode="&#x15d;" horiz-adv-x="381" 
d="M78.5 8q9.5 -2 26.5 -2q45 0 73 27t28 76q0 32 -12 62.5t-40 69.5q-34 46 -49.5 75.5t-15.5 69.5q0 41 21 73.5t56.5 50.5t77.5 18q52 0 87 -19.5t35 -67.5q0 -18 -11.5 -35t-34.5 -17q-17 0 -28.5 12t-11.5 30q0 32 28 67q-19 12 -50 12q-38 0 -62.5 -25.5t-24.5 -69.5
q0 -26 9 -44.5t33 -54.5l18 -26q30 -46 44.5 -79t14.5 -68q0 -45 -23.5 -81t-63 -56t-85.5 -20q-57 0 -96 24.5t-39 74.5q0 17 9.5 31t29.5 14q22 0 33 -18t11 -45q0 -17 -7 -52q10 -5 19.5 -7zM194 662q-46 -28 -91 -46l-5 14q65 28 122 74t93 98h18q11 -63 38 -103t81 -69
l-4 -14q-58 16 -95.5 41t-72.5 63q-38 -30 -84 -58z" />
    <glyph glyph-name="Scedilla" unicode="&#x15e;" horiz-adv-x="554" 
d="M517 511h-20q6 29 6 57q0 59 -35 97t-107 38q-63 0 -101.5 -32t-38.5 -95q0 -49 30.5 -90t91.5 -97q43 -39 69 -68t44 -64t18 -75q0 -65 -37.5 -109.5t-95.5 -65.5t-120 -21q-53 0 -84.5 13t-57.5 33q-19 15 -36 15q-12 0 -20 -12t-21 -42h-20q16 38 31.5 91.5
t36.5 148.5h20q-9 -47 -9 -74q0 -73 40 -113t123 -40q68 0 107.5 31t39.5 94q0 38 -15 70t-36.5 56.5t-59.5 61.5q-40 38 -63.5 65t-40 63t-16.5 80q0 62 31.5 106t82 66.5t106.5 22.5q41 0 71 -10t59 -32q24 -18 33 -18q8 0 15.5 12.5t17.5 40.5h20q-36 -91 -59 -204z
M193 -72q24 7 51 7q25 0 39 -10.5t14 -29.5q0 -40 -48.5 -61.5t-104.5 -21.5q-33 0 -59.5 6.5t-40.5 15.5l7 15q32 -13 80 -13q33 0 67.5 12.5t34.5 38.5q0 24 -38 24q-20 0 -41 -7l48 100h27z" />
    <glyph glyph-name="scedilla" unicode="&#x15f;" horiz-adv-x="381" 
d="M78.5 8q9.5 -2 26.5 -2q45 0 73 27t28 76q0 32 -12 62.5t-40 69.5q-34 46 -49.5 75.5t-15.5 69.5q0 41 21 73.5t56.5 50.5t77.5 18q52 0 87 -19.5t35 -67.5q0 -18 -11.5 -35t-34.5 -17q-17 0 -28.5 12t-11.5 30q0 32 28 67q-19 12 -50 12q-38 0 -62.5 -25.5t-24.5 -69.5
q0 -26 9 -44.5t33 -54.5l18 -26q30 -46 44.5 -79t14.5 -68q0 -45 -23.5 -81t-63 -56t-85.5 -20q-57 0 -96 24.5t-39 74.5q0 17 9.5 31t29.5 14q22 0 33 -18t11 -45q0 -17 -7 -52q10 -5 19.5 -7zM93 -72q19 7 41 7q20 0 31.5 -10.5t11.5 -29.5q0 -40 -38.5 -61.5t-84.5 -21.5
q-26 0 -47.5 6.5t-32.5 15.5l7 15q29 -13 60 -13q23 0 47.5 12.5t24.5 38.5q0 24 -28 24q-16 0 -31 -7l46 96h27z" />
    <glyph glyph-name="Scaron" unicode="&#x160;" horiz-adv-x="554" 
d="M517 511h-20q6 29 6 57q0 59 -35 97t-107 38q-63 0 -101.5 -32t-38.5 -95q0 -49 30.5 -90t91.5 -97q43 -39 69 -68t44 -64t18 -75q0 -65 -37.5 -109.5t-95.5 -65.5t-120 -21q-53 0 -84.5 13t-57.5 33q-19 15 -36 15q-12 0 -20 -12t-21 -42h-20q16 38 31.5 91.5
t36.5 148.5h20q-9 -47 -9 -74q0 -73 40 -113t123 -40q68 0 107.5 31t39.5 94q0 38 -15 70t-36.5 56.5t-59.5 61.5q-40 38 -63.5 65t-40 63t-16.5 80q0 62 31.5 106t82 66.5t106.5 22.5q41 0 71 -10t59 -32q24 -18 33 -18q8 0 15.5 12.5t17.5 40.5h20q-36 -91 -59 -204z
M625 924l5 -14q-72 -22 -134 -56.5t-101 -73.5h-18q-28 48 -59.5 79.5t-79.5 50.5l4 14q54 -10 87.5 -23.5t57.5 -27t32 -17.5q111 47 206 68z" />
    <glyph glyph-name="scaron" unicode="&#x161;" horiz-adv-x="381" 
d="M78.5 8q9.5 -2 26.5 -2q45 0 73 27t28 76q0 32 -12 62.5t-40 69.5q-34 46 -49.5 75.5t-15.5 69.5q0 41 21 73.5t56.5 50.5t77.5 18q52 0 87 -19.5t35 -67.5q0 -18 -11.5 -35t-34.5 -17q-17 0 -28.5 12t-11.5 30q0 32 28 67q-19 12 -50 12q-38 0 -62.5 -25.5t-24.5 -69.5
q0 -26 9 -44.5t33 -54.5l18 -26q30 -46 44.5 -79t14.5 -68q0 -45 -23.5 -81t-63 -56t-85.5 -20q-57 0 -96 24.5t-39 74.5q0 17 9.5 31t29.5 14q22 0 33 -18t11 -45q0 -17 -7 -52q10 -5 19.5 -7zM408 756q46 28 91 46l5 -14q-65 -28 -122 -74t-93 -98h-18q-11 63 -38 103
t-81 69l4 14q58 -16 95.5 -41t72.5 -63q38 30 84 58z" />
    <glyph glyph-name="uni0162" unicode="&#x162;" horiz-adv-x="659" 
d="M801.5 803.5q11.5 -13.5 11.5 -34.5q0 -22 -13 -40.5t-34 -31.5q-53 -33 -158 -33q-44 0 -102 7l-148 -555q-9 -31 -9 -51q0 -25 18.5 -34.5t65.5 -10.5l-4 -20q-52 3 -149 3q-98 0 -146 -3l4 20q42 2 65.5 10.5t36.5 28t25 57.5l151 567q-81 11 -129 11q-87 0 -112 -17
q8 -11 13 -27t5 -31q0 -23 -13 -40.5t-37 -17.5q-21 0 -32.5 13.5t-11.5 36.5q0 52 53 78q47 23 134 23q40 0 76 -3.5t91 -10.5q52 -7 87.5 -10.5t74.5 -3.5q45 0 75 5t54 17q-25 25 -25 56q0 22 12.5 38.5t36.5 16.5q22 0 33.5 -13.5zM259 -72q24 7 51 7q25 0 39 -10.5
t14 -29.5q0 -40 -48.5 -61.5t-104.5 -21.5q-33 0 -59.5 6.5t-40.5 15.5l7 15q32 -13 80 -13q33 0 67.5 12.5t34.5 38.5q0 24 -38 24q-20 0 -41 -7l48 100h27z" />
    <glyph glyph-name="uni0163" unicode="&#x163;" horiz-adv-x="336" 
d="M121 85q-3 -12 -3 -22q0 -20 12 -30t31 -10q25 0 46.5 21.5t42.5 78.5l14 39h19l-21 -63q-21 -62 -54.5 -87.5t-82.5 -25.5q-45 0 -67 22t-22 61q0 26 9 57l106 368h-90l5 20h90l44 152q54 2 90 14l-47 -166h132l-3 -20h-135zM74 -72q19 7 41 7q20 0 31.5 -10.5
t11.5 -29.5q0 -40 -38.5 -61.5t-84.5 -21.5q-26 0 -47.5 6.5t-32.5 15.5l7 15q29 -13 60 -13q23 0 47.5 12.5t24.5 38.5q0 24 -28 24q-16 0 -31 -7l46 96h27z" />
    <glyph glyph-name="Tcaron" unicode="&#x164;" horiz-adv-x="659" 
d="M801.5 803.5q11.5 -13.5 11.5 -34.5q0 -22 -13 -40.5t-34 -31.5q-53 -33 -158 -33q-44 0 -102 7l-148 -555q-9 -31 -9 -51q0 -25 18.5 -34.5t65.5 -10.5l-4 -20q-52 3 -149 3q-98 0 -146 -3l4 20q42 2 65.5 10.5t36.5 28t25 57.5l151 567q-81 11 -129 11q-87 0 -112 -17
q8 -11 13 -27t5 -31q0 -23 -13 -40.5t-37 -17.5q-21 0 -32.5 13.5t-11.5 36.5q0 52 53 78q47 23 134 23q40 0 76 -3.5t91 -10.5q52 -7 87.5 -10.5t74.5 -3.5q45 0 75 5t54 17q-25 25 -25 56q0 22 12.5 38.5t36.5 16.5q22 0 33.5 -13.5zM708 924l5 -14q-72 -22 -134 -56.5
t-101 -73.5h-18q-28 48 -59.5 79.5t-79.5 50.5l4 14q54 -10 87.5 -23.5t57.5 -27t32 -17.5q111 47 206 68z" />
    <glyph glyph-name="tcaron" unicode="&#x165;" horiz-adv-x="336" 
d="M121 85q-3 -12 -3 -22q0 -20 12 -30t31 -10q25 0 46.5 21.5t42.5 78.5l14 39h19l-21 -63q-21 -62 -54.5 -87.5t-82.5 -25.5q-45 0 -67 22t-22 61q0 26 9 57l106 368h-90l5 20h90l44 152q54 2 90 14l-47 -166h132l-3 -20h-135zM369 678.5q15 51.5 15 74.5q0 19 -13 19
l3 21l21 -1q35 0 73 12q1 -2 1 -8q0 -39 -34.5 -101t-97.5 -139l-14 4q31 67 46 118.5z" />
    <glyph glyph-name="Tbar" unicode="&#x166;" horiz-adv-x="659" 
d="M801.5 803.5q11.5 -13.5 11.5 -34.5q0 -22 -13 -40.5t-34 -31.5q-53 -33 -158 -33q-44 0 -102 7l-148 -555q-9 -31 -9 -51q0 -25 18.5 -34.5t65.5 -10.5l-4 -20q-52 3 -149 3q-98 0 -146 -3l4 20q42 2 65.5 10.5t36.5 28t25 57.5l151 567q-81 11 -129 11q-87 0 -112 -17
q8 -11 13 -27t5 -31q0 -23 -13 -40.5t-37 -17.5q-21 0 -32.5 13.5t-11.5 36.5q0 52 53 78q47 23 134 23q40 0 76 -3.5t91 -10.5q52 -7 87.5 -10.5t74.5 -3.5q45 0 75 5t54 17q-25 25 -25 56q0 22 12.5 38.5t36.5 16.5q22 0 33.5 -13.5zM571 341h-412l6 25h412z" />
    <glyph glyph-name="tbar" unicode="&#x167;" horiz-adv-x="336" 
d="M237 494l-21 -73h137l-3 -20h-139l-90 -316q-3 -12 -3 -22q0 -20 12 -30t31 -10q25 0 46.5 21.5t42.5 78.5l14 39h19l-21 -63q-21 -62 -54.5 -87.5t-82.5 -25.5q-45 0 -67 22t-22 61q0 26 9 57l79 275h-85l5 20h86l21 73h-90l5 20h90l44 152q54 2 90 14l-47 -166h132
l-3 -20h-135z" />
    <glyph glyph-name="Utilde" unicode="&#x168;" horiz-adv-x="682" 
d="M638 636q0 28 -17 39t-57 13l5 20q35 -3 101 -3q59 0 94 3l-5 -20q-35 -2 -54.5 -10.5t-31 -28t-20.5 -57.5l-78 -301q-36 -138 -98 -212q-37 -43 -90.5 -68t-114.5 -25q-107 0 -154 54q-18 21 -26.5 45.5t-8.5 56.5q0 54 25 146l83 314q8 34 8 48q0 22 -14.5 29t-52.5 9
l6 20q40 -3 129 -3q77 0 125 3l-6 -20q-37 -2 -54.5 -8t-28 -23t-20.5 -55l-88 -331q-22 -85 -22 -135q0 -55 27.5 -85t90.5 -30q105 0 165.5 68t92.5 191l82 312q7 25 7 44zM491 885q21 -10 47 -30q21 -17 36.5 -25t36.5 -8q38 0 70 58l18 -5q-22 -52 -57 -77.5t-73 -25.5
q-32 0 -53 10t-47 30q-21 17 -36.5 25t-36.5 8q-38 0 -70 -58l-18 5q22 52 57 77.5t73 25.5q32 0 53 -10z" />
    <glyph glyph-name="utilde" unicode="&#x169;" horiz-adv-x="567" 
d="M499 162h19l-25 -73q-36 -103 -121 -103q-16 0 -30 7t-21 20q-6 14 -6 31q0 26 14 82l31 125q-58 -143 -113 -204t-120 -61q-84 0 -84 77q0 32 14 74l97 292q8 24 8 37q0 25 -24 25q-20 0 -38.5 -22.5t-38.5 -79.5l-13 -37h-19l25 73q36 103 121 103q70 0 70 -62
q0 -30 -16 -78l-95 -286q-10 -30 -10 -50q0 -34 32 -34q39 0 86 57.5t93 159.5t80 230l12 49q57 2 91 14l-124 -443q-7 -26 -7 -39q0 -23 21 -23q22 0 40.5 23.5t37.5 78.5zM342 757.5q19 -10.5 40 -29.5q19 -17 32.5 -25t32.5 -8q38 0 70 58l18 -5q-22 -52 -57 -77.5
t-73 -25.5q-29 0 -48 10.5t-40 29.5q-19 17 -32.5 25t-32.5 8q-38 0 -70 -58l-18 5q22 52 57 77.5t73 25.5q29 0 48 -10.5z" />
    <glyph glyph-name="Umacron" unicode="&#x16a;" horiz-adv-x="682" 
d="M638 636q0 28 -17 39t-57 13l5 20q35 -3 101 -3q59 0 94 3l-5 -20q-35 -2 -54.5 -10.5t-31 -28t-20.5 -57.5l-78 -301q-36 -138 -98 -212q-37 -43 -90.5 -68t-114.5 -25q-107 0 -154 54q-18 21 -26.5 45.5t-8.5 56.5q0 54 25 146l83 314q8 34 8 48q0 22 -14.5 29t-52.5 9
l6 20q40 -3 129 -3q77 0 125 3l-6 -20q-37 -2 -54.5 -8t-28 -23t-20.5 -55l-88 -331q-22 -85 -22 -135q0 -55 27.5 -85t90.5 -30q105 0 165.5 68t92.5 191l82 312q7 25 7 44zM650 819h-352l6 25h352z" />
    <glyph glyph-name="umacron" unicode="&#x16b;" horiz-adv-x="567" 
d="M499 162h19l-25 -73q-36 -103 -121 -103q-16 0 -30 7t-21 20q-6 14 -6 31q0 26 14 82l31 125q-58 -143 -113 -204t-120 -61q-84 0 -84 77q0 32 14 74l97 292q8 24 8 37q0 25 -24 25q-20 0 -38.5 -22.5t-38.5 -79.5l-13 -37h-19l25 73q36 103 121 103q70 0 70 -62
q0 -30 -16 -78l-95 -286q-10 -30 -10 -50q0 -34 32 -34q39 0 86 57.5t93 159.5t80 230l12 49q57 2 91 14l-124 -443q-7 -26 -7 -39q0 -23 21 -23q22 0 40.5 23.5t37.5 78.5zM510 687h-312l6 25h312z" />
    <glyph glyph-name="Ubreve" unicode="&#x16c;" horiz-adv-x="682" 
d="M638 636q0 28 -17 39t-57 13l5 20q35 -3 101 -3q59 0 94 3l-5 -20q-35 -2 -54.5 -10.5t-31 -28t-20.5 -57.5l-78 -301q-36 -138 -98 -212q-37 -43 -90.5 -68t-114.5 -25q-107 0 -154 54q-18 21 -26.5 45.5t-8.5 56.5q0 54 25 146l83 314q8 34 8 48q0 22 -14.5 29t-52.5 9
l6 20q40 -3 129 -3q77 0 125 3l-6 -20q-37 -2 -54.5 -8t-28 -23t-20.5 -55l-88 -331q-22 -85 -22 -135q0 -55 27.5 -85t90.5 -30q105 0 165.5 68t92.5 191l82 312q7 25 7 44zM612.5 864q60.5 15 106.5 43l10 -11q-43 -43 -116 -78.5t-132 -35.5q-62 0 -101 32.5t-50 83.5
l16 5q26 -30 61 -42t91 -12q54 0 114.5 15z" />
    <glyph glyph-name="ubreve" unicode="&#x16d;" horiz-adv-x="567" 
d="M499 162h19l-25 -73q-36 -103 -121 -103q-16 0 -30 7t-21 20q-6 14 -6 31q0 26 14 82l31 125q-58 -143 -113 -204t-120 -61q-84 0 -84 77q0 32 14 74l97 292q8 24 8 37q0 25 -24 25q-20 0 -38.5 -22.5t-38.5 -79.5l-13 -37h-19l25 73q36 103 121 103q70 0 70 -62
q0 -30 -16 -78l-95 -286q-10 -30 -10 -50q0 -34 32 -34q39 0 86 57.5t93 159.5t80 230l12 49q57 2 91 14l-124 -443q-7 -26 -7 -39q0 -23 21 -23q22 0 40.5 23.5t37.5 78.5zM459 723.5q58 23.5 100 64.5l10 -11q-24 -34 -65 -67.5t-86.5 -55t-82.5 -21.5q-52 0 -83.5 40.5
t-41.5 105.5l16 5q23 -47 51 -65.5t75 -18.5q49 0 107 23.5z" />
    <glyph glyph-name="Uring" unicode="&#x16e;" horiz-adv-x="682" 
d="M638 636q0 28 -17 39t-57 13l5 20q35 -3 101 -3q59 0 94 3l-5 -20q-35 -2 -54.5 -10.5t-31 -28t-20.5 -57.5l-78 -301q-36 -138 -98 -212q-37 -43 -90.5 -68t-114.5 -25q-107 0 -154 54q-18 21 -26.5 45.5t-8.5 56.5q0 54 25 146l83 314q8 34 8 48q0 22 -14.5 29t-52.5 9
l6 20q40 -3 129 -3q77 0 125 3l-6 -20q-37 -2 -54.5 -8t-28 -23t-20.5 -55l-88 -331q-22 -85 -22 -135q0 -55 27.5 -85t90.5 -30q105 0 165.5 68t92.5 191l82 312q7 25 7 44zM566.5 903q24.5 -22 24.5 -58q0 -42 -33.5 -72.5t-78.5 -30.5q-36 0 -59.5 21.5t-23.5 58.5
q0 43 32 73t77 30q37 0 61.5 -22zM540 787q25 24 25 59q0 27 -19.5 42.5t-44.5 15.5q-31 0 -55 -24.5t-24 -56.5q0 -28 18 -44t43 -16q32 0 57 24z" />
    <glyph glyph-name="uring" unicode="&#x16f;" horiz-adv-x="567" 
d="M499 162h19l-25 -73q-36 -103 -121 -103q-16 0 -30 7t-21 20q-6 14 -6 31q0 26 14 82l31 125q-58 -143 -113 -204t-120 -61q-84 0 -84 77q0 32 14 74l97 292q8 24 8 37q0 25 -24 25q-20 0 -38.5 -22.5t-38.5 -79.5l-13 -37h-19l25 73q36 103 121 103q70 0 70 -62
q0 -30 -16 -78l-95 -286q-10 -30 -10 -50q0 -34 32 -34q39 0 86 57.5t93 159.5t80 230l12 49q57 2 91 14l-124 -443q-7 -26 -7 -39q0 -23 21 -23q22 0 40.5 23.5t37.5 78.5zM437.5 769q24.5 -22 24.5 -58q0 -42 -33.5 -72.5t-78.5 -30.5q-36 0 -59.5 21.5t-23.5 58.5
q0 43 32 73t77 30q37 0 61.5 -22zM411 653q25 24 25 59q0 27 -19.5 42.5t-44.5 15.5q-31 0 -55 -24.5t-24 -56.5q0 -28 18.5 -44t42.5 -16q32 0 57 24z" />
    <glyph glyph-name="Uhungarumlaut" unicode="&#x170;" horiz-adv-x="682" 
d="M638 636q0 28 -17 39t-57 13l5 20q35 -3 101 -3q59 0 94 3l-5 -20q-35 -2 -54.5 -10.5t-31 -28t-20.5 -57.5l-78 -301q-36 -138 -98 -212q-37 -43 -90.5 -68t-114.5 -25q-107 0 -154 54q-18 21 -26.5 45.5t-8.5 56.5q0 54 25 146l83 314q8 34 8 48q0 22 -14.5 29t-52.5 9
l6 20q40 -3 129 -3q77 0 125 3l-6 -20q-37 -2 -54.5 -8t-28 -23t-20.5 -55l-88 -331q-22 -85 -22 -135q0 -55 27.5 -85t90.5 -30q105 0 165.5 68t92.5 191l82 312q7 25 7 44zM608 857q50 48 74 65q18 14 37 14q16 0 24 -12q5 -8 5 -15q0 -21 -33 -46q-30 -20 -88 -45
q-8 -4 -37.5 -17.5t-55.5 -28.5l-6 12q30 23 80 73zM421 857q50 48 74 65q7 6 17.5 10t19.5 4q17 0 25 -14q3 -7 3 -14q0 -21 -32 -45q-30 -20 -88 -45q-8 -4 -37.5 -17.5t-55.5 -28.5l-6 12q30 23 80 73z" />
    <glyph glyph-name="uhungarumlaut" unicode="&#x171;" horiz-adv-x="567" 
d="M499 162h19l-25 -73q-36 -103 -121 -103q-16 0 -30 7t-21 20q-6 14 -6 31q0 26 14 82l31 125q-58 -143 -113 -204t-120 -61q-84 0 -84 77q0 32 14 74l97 292q8 24 8 37q0 25 -24 25q-20 0 -38.5 -22.5t-38.5 -79.5l-13 -37h-19l25 73q36 103 121 103q70 0 70 -62
q0 -30 -16 -78l-95 -286q-10 -30 -10 -50q0 -34 32 -34q39 0 86 57.5t93 159.5t80 230l12 49q57 2 91 14l-124 -443q-7 -26 -7 -39q0 -23 21 -23q22 0 40.5 23.5t37.5 78.5zM279 729q23 46 40 69q16 22 38 22q14 0 22 -7q14 -12 14 -28q0 -15 -14 -34q-20 -25 -57 -55
q-7 -6 -36.5 -33.5t-64.5 -63.5l-11 9q37 59 69 121zM457 729q23 46 40 69q17 22 38 22q14 0 22 -7q14 -12 14 -28q0 -15 -14 -34q-20 -25 -57 -55q-7 -6 -36.5 -33.5t-64.5 -63.5l-11 9q37 59 69 121z" />
    <glyph glyph-name="Uogonek" unicode="&#x172;" horiz-adv-x="682" 
d="M638 636q0 28 -17 39t-57 13l5 20q35 -3 101 -3q59 0 94 3l-5 -20q-35 -2 -54.5 -10.5t-31 -28t-20.5 -57.5l-78 -301q-36 -138 -98 -212q-37 -43 -90.5 -68t-114.5 -25q-107 0 -154 54q-18 21 -26.5 45.5t-8.5 56.5q0 54 25 146l83 314q8 34 8 48q0 22 -14.5 29t-52.5 9
l6 20q40 -3 129 -3q77 0 125 3l-6 -20q-37 -2 -54.5 -8t-28 -23t-20.5 -55l-88 -331q-22 -85 -22 -135q0 -55 27.5 -85t90.5 -30q105 0 165.5 68t92.5 191l82 312q7 25 7 44zM284 -37.5q-36 -27.5 -36 -65.5q0 -37 39 -37q19 0 41 8t36 18l11 -17q-60 -57 -129 -57
q-36 0 -55 15.5t-19 42.5q0 45 47.5 79t108.5 54h38q-46 -13 -82 -40.5z" />
    <glyph glyph-name="uogonek" unicode="&#x173;" horiz-adv-x="567" 
d="M499 162h19l-25 -73q-36 -103 -121 -103q-16 0 -30 7t-21 20q-6 14 -6 31q0 26 14 82l31 125q-58 -143 -113 -204t-120 -61q-84 0 -84 77q0 32 14 74l97 292q8 24 8 37q0 25 -24 25q-20 0 -38.5 -22.5t-38.5 -79.5l-13 -37h-19l25 73q36 103 121 103q70 0 70 -62
q0 -30 -16 -78l-95 -286q-10 -30 -10 -50q0 -34 32 -34q39 0 86 57.5t93 159.5t80 230l12 49q57 2 91 14l-124 -443q-7 -26 -7 -39q0 -23 21 -23q22 0 40.5 23.5t37.5 78.5zM350.5 -36q-37.5 -28 -37.5 -66q0 -19 10 -28.5t28 -9.5q19 0 38 8.5t30 22.5l12 -11
q-56 -68 -122 -68q-34 0 -53 16t-19 43q0 44 47.5 77.5t108.5 54.5h38q-43 -11 -80.5 -39z" />
    <glyph glyph-name="Wcircumflex" unicode="&#x174;" horiz-adv-x="902" 
d="M994 708l-5 -20q-59 -13 -95 -87l-299 -606h-16l-72 456l-271 -456h-16l-79 629q-8 62 -55 64l4 20q40 -3 99 -3q72 0 108 3l-4 -20q-31 -2 -44.5 -14t-13.5 -44q0 -6 2 -26l56 -477l209 355l-22 142q-10 62 -45 64l4 20q36 -3 89 -3q86 0 128 3l-4 -20q-45 -2 -62 -12
t-17 -40q0 -14 3 -32l72 -455l195 397q33 68 33 97q0 25 -18.5 34.5t-58.5 10.5l5 20q56 -3 114 -3q44 0 76 3zM380 772l-5 14q72 22 134 56.5t101 73.5h18q28 -48 59.5 -79.5t79.5 -50.5l-4 -14q-54 10 -87.5 23.5t-57.5 27t-32 17.5q-111 -47 -206 -68z" />
    <glyph glyph-name="wcircumflex" unicode="&#x175;" horiz-adv-x="685" 
d="M627 326q0 -81 -26.5 -159t-82 -129.5t-137.5 -51.5q-79 0 -106 61q-68 -61 -138 -61q-64 0 -94 32.5t-30 81.5q0 85 84 184.5t203 188.5q-3 -1 -23 -14q-28 -17 -44 -24.5t-30 -7.5q-12 0 -21.5 6t-11.5 7q-18 12 -30 12q-16 0 -27 -13.5t-22 -48.5l-12 -37h-19l23 73
q18 56 41.5 79t51.5 23q13 0 22 -4.5t23 -14.5q15 -10 24.5 -15t22.5 -5q24 0 43 7.5t37 23.5l14 19l21 -10q-122 -103 -197 -208t-75 -215q0 -48 14 -69t41 -21q25 0 51.5 12t51.5 36q-7 28 -7 59q0 56 24.5 111t59 90t62.5 35q20 0 27.5 -21t7.5 -49q0 -54 -29 -109
t-86 -99q23 -66 80 -66q64 0 108.5 49t66.5 121t22 140q0 41 -7 66q-36 7 -65.5 29.5t-29.5 59.5q0 24 12.5 36t29.5 12q28 0 46 -32t28 -86q8 -33 8 -84zM364 311q-20 -26 -34 -66.5t-14 -81.5q0 -36 7 -64q45 37 71 88.5t26 102.5q0 47 -19 47q-17 0 -37 -26zM320 662
q-46 -28 -91 -46l-5 14q65 28 122 74t93 98h18q11 -63 38 -103t81 -69l-4 -14q-58 16 -95.5 41t-72.5 63q-38 -30 -84 -58z" />
    <glyph glyph-name="Ycircumflex" unicode="&#x176;" horiz-adv-x="670" 
d="M742.5 707q13.5 -15 13.5 -38q0 -25 -15 -47.5t-44 -22.5q-20 0 -29 11.5t-9 28.5q0 16 9 32.5t23 29.5h-3q-27 -1 -55 -22q-52 -38 -112.5 -122.5t-116.5 -218.5l-58 -232q-8 -34 -8 -48q0 -22 14.5 -29t52.5 -9l-5 -20q-45 3 -124 3q-87 0 -131 -3l5 20q36 2 54 8
t29 23.5t20 54.5l59 233q-16 142 -43 235t-74 93q-17 0 -28.5 -11t-19.5 -36l-28 -82h-22l33 97q16 47 36.5 67t61.5 20q53 0 85.5 -43t50.5 -120t31 -199q37 93 85 168t102 129q65 65 118 65q29 0 42.5 -15zM277 772l-5 14q72 22 134 56.5t101 73.5h18q28 -48 59.5 -79.5
t79.5 -50.5l-4 -14q-54 10 -87.5 23.5t-57.5 27t-32 17.5q-111 -47 -206 -68z" />
    <glyph glyph-name="ycircumflex" unicode="&#x177;" horiz-adv-x="481" 
d="M458 447q0 -95 -59 -220t-138 -224q-93 -116 -197 -166q-53 -25 -87 -25q-21 0 -35.5 11t-14.5 30q0 21 16 33t38 12q21 0 40.5 -10.5t42.5 -28.5q78 42 150 120l-74 448q-5 31 -12 43t-20 12t-26.5 -19.5t-32.5 -72.5l-13 -37h-19l25 73q35 102 115 102q32 0 48.5 -20
t23.5 -72l51 -376q55 76 95 159.5t56 165.5q-30 16 -53 39.5t-23 52.5q0 23 14.5 37t36.5 14q52 0 52 -81zM215 662q-46 -28 -91 -46l-5 14q65 28 122 74t93 98h18q11 -63 38 -103t81 -69l-4 -14q-58 16 -95.5 41t-72.5 63q-38 -30 -84 -58z" />
    <glyph glyph-name="Ydieresis" unicode="&#x178;" horiz-adv-x="670" 
d="M742.5 707q13.5 -15 13.5 -38q0 -25 -15 -47.5t-44 -22.5q-20 0 -29 11.5t-9 28.5q0 16 9 32.5t23 29.5h-3q-27 -1 -55 -22q-52 -38 -112.5 -122.5t-116.5 -218.5l-58 -232q-8 -34 -8 -48q0 -22 14.5 -29t52.5 -9l-5 -20q-45 3 -124 3q-87 0 -131 -3l5 20q36 2 54 8
t29 23.5t20 54.5l59 233q-16 142 -43 235t-74 93q-17 0 -28.5 -11t-19.5 -36l-28 -82h-22l33 97q16 47 36.5 67t61.5 20q53 0 85.5 -43t50.5 -120t31 -199q37 93 85 168t102 129q65 65 118 65q29 0 42.5 -15zM352.5 867.5q20.5 20.5 46.5 20.5q21 0 35.5 -14.5t14.5 -35.5
q0 -25 -20 -45.5t-47 -20.5q-22 0 -36 14.5t-14 36.5q0 24 20.5 44.5zM564.5 867.5q20.5 20.5 46.5 20.5q21 0 35.5 -14.5t14.5 -35.5q0 -25 -20 -45.5t-47 -20.5q-22 0 -36 14.5t-14 36.5q0 24 20.5 44.5z" />
    <glyph glyph-name="Zacute" unicode="&#x179;" horiz-adv-x="652" 
d="M719 700q0 -14 -18.5 -30.5t-56.5 -31.5l-277 -272h152l-8 -20h-164l-283 -278q92 54 173 54q28 0 51 -7t55 -21q34 -14 56.5 -21t51.5 -7q33 0 50.5 17.5t17.5 48.5q0 59 -72 73l4 20q45 -8 75.5 -35.5t30.5 -80.5q0 -54 -33 -88.5t-88 -34.5q-33 0 -58 13.5t-58 40.5
q-32 26 -57 39.5t-56 13.5q-38 0 -69 -10.5t-79 -34.5q-18 -26 -38.5 -42t-35.5 -16q-9 0 -14 5q-6 4 -6 13q0 14 18.5 30.5t56.5 31.5l281 276h-162l7 20h175l279 274q-92 -54 -173 -54q-28 0 -51 7t-55 21q-34 14 -56.5 21t-51.5 7q-33 0 -50.5 -17.5t-17.5 -48.5
q0 -59 72 -73l-4 -20q-45 8 -75.5 35.5t-30.5 80.5q0 54 33 88.5t88 34.5q33 0 58 -13.5t58 -40.5q32 -26 57 -39.5t56 -13.5q38 0 69 10.5t79 34.5q18 26 38.5 42t35.5 16q9 0 14 -5q6 -4 6 -13zM509.5 838.5q35.5 26.5 46.5 34.5q49 38 72 52q18 11 38 11q21 0 28 -16
q2 -6 2 -10q0 -13 -10.5 -24.5t-24.5 -19.5q-19 -11 -46.5 -21.5t-32.5 -12.5q-87 -33 -143 -60l-7 11q42 29 77.5 55.5z" />
    <glyph glyph-name="zacute" unicode="&#x17a;" horiz-adv-x="445" 
d="M97.5 79.5q27.5 11.5 54.5 11.5q16 0 29.5 -4t35.5 -12t37.5 -12t32.5 -4q26 0 40.5 12.5t14.5 37.5q0 26 -22 45.5t-57 26.5l6 15q47 -11 72 -35t25 -62q0 -44 -28.5 -74.5t-87.5 -30.5q-23 0 -41.5 5.5t-40.5 15.5q-25 11 -44.5 16.5t-45.5 5.5q-28 0 -49 -8t-41 -29
h-27l451 475q-45 -29 -72.5 -40.5t-54.5 -11.5q-16 0 -29.5 4t-35.5 12t-37.5 12t-32.5 4q-26 0 -40.5 -12.5t-14.5 -37.5q0 -26 22 -45.5t57 -26.5l-6 -15q-47 11 -72 35t-25 62q0 44 28.5 74.5t87.5 30.5q23 0 41.5 -5.5t40.5 -15.5q25 -11 44.5 -16.5t45.5 -5.5
q28 0 49 8t41 29h27l-451 -475q45 29 72.5 40.5zM338 726q38 52 58 72q19 22 41 22q14 0 22 -7q8 -8 8 -19q0 -20 -23 -43q-22 -23 -68 -55q-7 -5 -42 -32.5t-78 -64.5l-10 9q39 47 92 118z" />
    <glyph glyph-name="Zdotaccent" unicode="&#x17b;" horiz-adv-x="652" 
d="M719 700q0 -14 -18.5 -30.5t-56.5 -31.5l-277 -272h152l-8 -20h-164l-283 -278q92 54 173 54q28 0 51 -7t55 -21q34 -14 56.5 -21t51.5 -7q33 0 50.5 17.5t17.5 48.5q0 59 -72 73l4 20q45 -8 75.5 -35.5t30.5 -80.5q0 -54 -33 -88.5t-88 -34.5q-33 0 -58 13.5t-58 40.5
q-32 26 -57 39.5t-56 13.5q-38 0 -69 -10.5t-79 -34.5q-18 -26 -38.5 -42t-35.5 -16q-9 0 -14 5q-6 4 -6 13q0 14 18.5 30.5t56.5 31.5l281 276h-162l7 20h175l279 274q-92 -54 -173 -54q-28 0 -51 7t-55 21q-34 14 -56.5 21t-51.5 7q-33 0 -50.5 -17.5t-17.5 -48.5
q0 -59 72 -73l-4 -20q-45 8 -75.5 35.5t-30.5 80.5q0 54 33 88.5t88 34.5q33 0 58 -13.5t58 -40.5q32 -26 57 -39.5t56 -13.5q38 0 69 10.5t79 34.5q18 26 38.5 42t35.5 16q9 0 14 -5q6 -4 6 -13zM440 876.5q22 23.5 52 23.5q23 0 37 -15t14 -38q0 -28 -22 -51.5t-53 -23.5
q-22 0 -36 15t-14 38q0 28 22 51.5z" />
    <glyph glyph-name="zdotaccent" unicode="&#x17c;" horiz-adv-x="445" 
d="M97.5 79.5q27.5 11.5 54.5 11.5q16 0 29.5 -4t35.5 -12t37.5 -12t32.5 -4q26 0 40.5 12.5t14.5 37.5q0 26 -22 45.5t-57 26.5l6 15q47 -11 72 -35t25 -62q0 -44 -28.5 -74.5t-87.5 -30.5q-23 0 -41.5 5.5t-40.5 15.5q-25 11 -44.5 16.5t-45.5 5.5q-28 0 -49 -8t-41 -29
h-27l451 475q-45 -29 -72.5 -40.5t-54.5 -11.5q-16 0 -29.5 4t-35.5 12t-37.5 12t-32.5 4q-26 0 -40.5 -12.5t-14.5 -37.5q0 -26 22 -45.5t57 -26.5l-6 -15q-47 11 -72 35t-25 62q0 44 28.5 74.5t87.5 30.5q23 0 41.5 -5.5t40.5 -15.5q25 -11 44.5 -16.5t45.5 -5.5
q28 0 49 8t41 29h27l-451 -475q45 29 72.5 40.5zM285.5 740.5q21.5 24.5 52.5 24.5q23 0 37 -14.5t14 -36.5q0 -28 -22 -52.5t-53 -24.5q-22 0 -36 14.5t-14 36.5q0 28 21.5 52.5z" />
    <glyph glyph-name="Zcaron" unicode="&#x17d;" horiz-adv-x="652" 
d="M719 700q0 -14 -18.5 -30.5t-56.5 -31.5l-277 -272h152l-8 -20h-164l-283 -278q92 54 173 54q28 0 51 -7t55 -21q34 -14 56.5 -21t51.5 -7q33 0 50.5 17.5t17.5 48.5q0 59 -72 73l4 20q45 -8 75.5 -35.5t30.5 -80.5q0 -54 -33 -88.5t-88 -34.5q-33 0 -58 13.5t-58 40.5
q-32 26 -57 39.5t-56 13.5q-38 0 -69 -10.5t-79 -34.5q-18 -26 -38.5 -42t-35.5 -16q-9 0 -14 5q-6 4 -6 13q0 14 18.5 30.5t56.5 31.5l281 276h-162l7 20h175l279 274q-92 -54 -173 -54q-28 0 -51 7t-55 21q-34 14 -56.5 21t-51.5 7q-33 0 -50.5 -17.5t-17.5 -48.5
q0 -59 72 -73l-4 -20q-45 8 -75.5 35.5t-30.5 80.5q0 54 33 88.5t88 34.5q33 0 58 -13.5t58 -40.5q32 -26 57 -39.5t56 -13.5q38 0 69 10.5t79 34.5q18 26 38.5 42t35.5 16q9 0 14 -5q6 -4 6 -13zM685 924l5 -14q-72 -22 -134 -56.5t-101 -73.5h-18q-28 48 -59.5 79.5
t-79.5 50.5l4 14q54 -10 87.5 -23.5t57.5 -27t32 -17.5q111 47 206 68z" />
    <glyph glyph-name="zcaron" unicode="&#x17e;" horiz-adv-x="445" 
d="M97.5 79.5q27.5 11.5 54.5 11.5q16 0 29.5 -4t35.5 -12t37.5 -12t32.5 -4q26 0 40.5 12.5t14.5 37.5q0 26 -22 45.5t-57 26.5l6 15q47 -11 72 -35t25 -62q0 -44 -28.5 -74.5t-87.5 -30.5q-23 0 -41.5 5.5t-40.5 15.5q-25 11 -44.5 16.5t-45.5 5.5q-28 0 -49 -8t-41 -29
h-27l451 475q-45 -29 -72.5 -40.5t-54.5 -11.5q-16 0 -29.5 4t-35.5 12t-37.5 12t-32.5 4q-26 0 -40.5 -12.5t-14.5 -37.5q0 -26 22 -45.5t57 -26.5l-6 -15q-47 11 -72 35t-25 62q0 44 28.5 74.5t87.5 30.5q23 0 41.5 -5.5t40.5 -15.5q25 -11 44.5 -16.5t45.5 -5.5
q28 0 49 8t41 29h27l-451 -475q45 29 72.5 40.5zM428 756q46 28 91 46l5 -14q-65 -28 -122 -74t-93 -98h-18q-11 63 -38 103t-81 69l4 14q58 -16 95.5 -41t72.5 -63q38 30 84 58z" />
    <glyph glyph-name="longs" unicode="&#x17f;" horiz-adv-x="321" 
d="M459.5 762q25.5 -20 25.5 -51q0 -26 -19.5 -47.5t-47.5 -21.5q-19 0 -30 9t-10 25q0 24 15.5 41.5t41.5 25.5q0 9 -13.5 16.5t-32.5 7.5q-30 0 -58 -26q-21 -19 -35 -60.5t-35 -122.5l-11 -43l-185 -689q-54 -2 -90 -14l182 682h-90l6 20h90v1q22 82 45.5 133.5
t56.5 83.5q23 23 56.5 36.5t68.5 13.5q44 0 69.5 -20z" />
    <glyph glyph-name="uni018F" unicode="&#x18f;" horiz-adv-x="711" 
d="M623.5 658.5q61.5 -63.5 61.5 -189.5q0 -121 -54.5 -232.5t-151.5 -181t-218 -69.5q-101 0 -160 51t-59 150q0 49 15 109h494q15 40 24.5 92.5t9.5 96.5q0 99 -47.5 155t-125.5 56q-44 0 -93.5 -18t-85.5 -52q-25 -24 -44 -58t-45 -100h-23q24 81 34.5 131.5t20.5 108.5
h23q-3 -21 -3 -34q0 -25 13 -25q9 0 23 8q55 32 100 48.5t111 16.5q119 0 180.5 -63.5zM432 73q69 68 116 204h-398q-17 -59 -17 -107q0 -75 38.5 -120t108.5 -45q83 0 152 68z" />
    <glyph glyph-name="florin" unicode="&#x192;" horiz-adv-x="466" 
d="M530.5 762q25.5 -20 25.5 -51q0 -27 -19.5 -48t-47.5 -21q-20 0 -31.5 9.5t-11.5 25.5q0 5 2 15q12 38 57 51q-1 10 -14 17t-33 7q-23 0 -42 -10t-32 -27q-18 -21 -31.5 -61.5t-44.5 -153.5v-1h167l-5 -20h-168l-101 -379q-22 -81 -49.5 -142t-68.5 -100
q-32 -30 -66.5 -45.5t-66.5 -15.5q-27 0 -41 11t-14 28q0 25 17.5 43t43.5 18q16 0 25.5 -9t9.5 -23q0 -5 -2 -13q-4 -21 -26 -40q41 5 64.5 29t38.5 79l149 559h-122l5 20h123v1q25 91 47 137.5t59 79.5q26 23 60.5 36.5t71.5 13.5q46 0 71.5 -20z" />
    <glyph glyph-name="Ohorn" unicode="&#x1a0;" horiz-adv-x="729" 
d="M828 848q15 -16 15 -39q0 -25 -17.5 -48t-47.5 -41q-65 -38 -160 -39q43 -29 66 -80.5t23 -119.5q0 -113 -53.5 -228.5t-149.5 -191t-215 -75.5q-111 0 -173 63t-62 177q0 113 53 229t148.5 191.5t215.5 75.5q57 0 102 -17q36 -2 49 -2q48 0 81.5 8.5t62.5 25.5
q-37 30 -37 68q0 24 15 41.5t43 17.5q26 0 41 -16zM443.5 76q70.5 72 113.5 186.5t43 232.5q0 97 -38 153t-100 56q-75 0 -145.5 -72t-113.5 -186.5t-43 -232.5q0 -97 38 -153t100 -56q75 0 145.5 72z" />
    <glyph glyph-name="ohorn" unicode="&#x1a1;" horiz-adv-x="488" 
d="M529.5 616.5q11.5 -13.5 11.5 -34.5q0 -22 -13 -40.5t-34 -31.5q-32 -20 -79 -27q32 -40 32 -112q0 -79 -35 -169.5t-101 -153t-153 -62.5q-64 0 -100.5 39.5t-36.5 117.5q0 79 35 169.5t101 153t153 62.5q55 0 89 -28q42 4 73 19q-25 25 -25 56q0 22 12.5 38.5
t36.5 16.5q22 0 33.5 -13.5zM260.5 71q45.5 65 73 162.5t27.5 187.5q0 45 -14 66t-43 21q-51 0 -96.5 -65t-73 -162.5t-27.5 -187.5q0 -45 14 -66t43 -21q51 0 96.5 65z" />
    <glyph glyph-name="Uhorn" unicode="&#x1af;" horiz-adv-x="682" 
d="M823.5 848q14.5 -16 14.5 -40q0 -25 -17.5 -47.5t-47.5 -40.5q-49 -29 -95 -34l-103 -395q-36 -140 -98 -212q-38 -44 -91 -68.5t-120 -24.5q-99 0 -148 54q-35 39 -35 103q0 30 6.5 63.5t18.5 81.5l83 314q8 32 8 47q0 21 -14.5 29t-52.5 10l6 20q40 -3 127 -3
q79 0 127 3l-6 -20q-37 -2 -54.5 -8t-28 -23t-20.5 -55l-88 -331q-22 -82 -22 -134q0 -58 28.5 -87t92.5 -29q102 0 162.5 68.5t92.5 190.5l105 406q-11 -1 -32 -1q-30 0 -58 3l5 20q28 -3 74 -3q37 0 64 5t55 26q-16 13 -27 30.5t-11 37.5q0 25 15 42.5t43 17.5
q27 0 41.5 -16z" />
    <glyph glyph-name="uhorn" unicode="&#x1b0;" horiz-adv-x="567" 
d="M598.5 636.5q11.5 -13.5 11.5 -34.5q0 -22 -13 -40.5t-34 -31.5q-18 -10 -50 -22l-119 -423q-7 -26 -7 -39q0 -23 21 -23q22 0 40.5 23.5t37.5 78.5l13 37h19l-25 -73q-36 -103 -121 -103q-16 0 -30 7t-21 20q-6 14 -6 31q0 26 14 82l31 125q-58 -143 -113 -204t-120 -61
q-84 0 -84 77q0 32 14 74l97 292q8 24 8 37q0 25 -24 25q-20 0 -38.5 -22.5t-38.5 -79.5l-13 -37h-19l25 73q36 103 121 103q70 0 70 -62q0 -30 -16 -78l-95 -286q-10 -30 -10 -50q0 -34 32 -34q39 0 86 57.5t93 159.5t80 230l12 49q47 2 73 9q22 6 41 16q-25 25 -25 56
q0 22 12.5 38.5t36.5 16.5q22 0 33.5 -13.5z" />
    <glyph glyph-name="uni01B7" unicode="&#x1b7;" horiz-adv-x="594" 
d="M635 688l-259 -296q68 -27 104.5 -69t36.5 -106q0 -66 -38.5 -118.5t-105.5 -82.5t-151 -30q-57 0 -101.5 11.5t-68.5 25.5q-7 5 -14.5 9.5t-14.5 4.5q-10 0 -17.5 -10t-16.5 -34h-23q28 77 64 240h23q-7 -38 -7 -63q0 -77 44.5 -120.5t127.5 -43.5q59 0 106 29.5
t73.5 78.5t26.5 104q0 69 -32 110.5t-95 61.5l5 20l241 275h-210q-62 0 -99 -17.5t-61 -56.5t-50 -113h-23q27 80 48 210q73 -3 248 -3q170 0 244 3z" />
    <glyph glyph-name="uni01CD" unicode="&#x1cd;" horiz-adv-x="629" 
d="M521 36q14 -15 32 -16l-4 -20q-40 3 -109 3q-81 0 -120 -3l4 20q34 2 52.5 8.5t26.5 24t7 51.5l-9 164h-246l-75 -106q-47 -66 -47 -99q0 -41 74 -43l-5 -20q-55 3 -114 3q-43 0 -75 -3l5 20q46 10 100 87l431 606h15l40 -629q3 -33 17 -48zM400 288l-17 303l-214 -303
h231zM696 924l5 -14q-72 -22 -134 -56.5t-101 -73.5h-18q-28 48 -59.5 79.5t-79.5 50.5l4 14q54 -10 87.5 -23.5t57.5 -27t32 -17.5q111 47 206 68z" />
    <glyph glyph-name="uni01CE" unicode="&#x1ce;" horiz-adv-x="523" 
d="M455 163h19l-25 -73q-20 -55 -51 -79.5t-64 -24.5q-19 0 -33 7t-22 19q-9 15 -9 35q0 21 7 47t9 33l18 72q-48 -112 -97.5 -162.5t-103.5 -50.5q-46 0 -70 33t-24 88q0 81 43 181t112 170t140 70q27 0 44 -20t20 -56l16 62q55 2 92 14l-125 -442q-1 -4 -4 -15.5t-3 -21.5
q0 -25 22 -25q44 0 77 102zM199 61q39 43 76.5 114.5t61.5 152.5l18 71q1 8 1 22q0 41 -14.5 64.5t-40.5 23.5q-43 0 -91 -66.5t-80.5 -164t-32.5 -183.5q0 -41 9 -59t26 -18q28 0 67 43zM476 756q46 28 91 46l5 -14q-65 -28 -122 -74t-93 -98h-18q-11 63 -38 103t-81 69
l4 14q58 -16 95.5 -41t72.5 -63q38 30 84 58z" />
    <glyph glyph-name="uni01D3" unicode="&#x1d3;" horiz-adv-x="682" 
d="M638 636q0 28 -17 39t-57 13l5 20q35 -3 101 -3q59 0 94 3l-5 -20q-35 -2 -54.5 -10.5t-31 -28t-20.5 -57.5l-78 -301q-36 -138 -98 -212q-37 -43 -90.5 -68t-114.5 -25q-107 0 -154 54q-18 21 -26.5 45.5t-8.5 56.5q0 54 25 146l83 314q8 34 8 48q0 22 -14.5 29t-52.5 9
l6 20q40 -3 129 -3q77 0 125 3l-6 -20q-37 -2 -54.5 -8t-28 -23t-20.5 -55l-88 -331q-22 -85 -22 -135q0 -55 27.5 -85t90.5 -30q105 0 165.5 68t92.5 191l82 312q7 25 7 44zM714 924l5 -14q-72 -22 -134 -56.5t-101 -73.5h-18q-28 48 -59.5 79.5t-79.5 50.5l4 14
q54 -10 87.5 -23.5t57.5 -27t32 -17.5q111 47 206 68z" />
    <glyph glyph-name="uni01D4" unicode="&#x1d4;" horiz-adv-x="567" 
d="M499 162h19l-25 -73q-36 -103 -121 -103q-16 0 -30 7t-21 20q-6 14 -6 31q0 26 14 82l31 125q-58 -143 -113 -204t-120 -61q-84 0 -84 77q0 32 14 74l97 292q8 24 8 37q0 25 -24 25q-20 0 -38.5 -22.5t-38.5 -79.5l-13 -37h-19l25 73q36 103 121 103q70 0 70 -62
q0 -30 -16 -78l-95 -286q-10 -30 -10 -50q0 -34 32 -34q39 0 86 57.5t93 159.5t80 230l12 49q57 2 91 14l-124 -443q-7 -26 -7 -39q0 -23 21 -23q22 0 40.5 23.5t37.5 78.5zM461 756q46 28 91 46l5 -14q-65 -28 -122 -74t-93 -98h-18q-11 63 -38 103t-81 69l4 14
q58 -16 95.5 -41t72.5 -63q38 30 84 58z" />
    <glyph glyph-name="uni01E4" unicode="&#x1e4;" horiz-adv-x="705" 
d="M593 188h94l-4 -20h-96l-45 -168h-20q3 12 3 26q0 31 -15 31q-6 0 -13.5 -3t-24.5 -14q-42 -26 -83 -40t-87 -14q-122 0 -187 59.5t-65 169.5q0 116 56.5 234t157 195.5t224.5 77.5q60 0 95.5 -16.5t68.5 -48.5q9 -9 17 -9q10 0 19.5 14t20.5 46h22q-33 -86 -64 -230h-22
q5 43 5 75q0 46 -14 73q-21 37 -62 57.5t-92 20.5q-103 0 -180.5 -87t-118 -210t-40.5 -225q0 -90 42.5 -133t130.5 -43q33 0 62.5 9t51.5 22q20 12 30 27t16 36l18 68h-116l4 20h117l3 10q9 33 9 52q0 25 -18 33.5t-66 10.5l5 20q53 -3 140 -3q69 0 105 3l-5 -20
q-24 -2 -35.5 -8t-20 -22.5t-18.5 -55.5z" />
    <glyph glyph-name="uni01E5" unicode="&#x1e5;" horiz-adv-x="449" 
d="M485.5 554q15.5 -15 15.5 -45q0 -26 -13 -40t-31 -14q-19 0 -33.5 13t-14.5 38q0 18 9 42q-39 -17 -57 -42q42 -29 42 -90q0 -44 -21.5 -86t-61 -72.5t-91.5 -40.5l-33 -18q-47 -25 -68.5 -40t-21.5 -29q0 -11 14 -19t46 -16l73 -19q57 -15 85 -33t28 -54q0 -21 -10 -44
h83l-4 -20h-89q-31 -51 -99 -85.5t-171 -34.5q-77 0 -117.5 20t-40.5 55q0 23 16 45h-77l4 20h90q40 38 109 58l7 -15q-34 -18 -51 -43h282v4q0 14 -8 19t-33 11l-153 39q-54 14 -54 60q0 31 32.5 61.5t122.5 73.5h-7q-58 0 -94 27.5t-36 81.5q0 42 22 90t71 82t124 34
q43 0 72 -13q19 24 46 39t54 15t42.5 -15zM267 266.5q27 35.5 37 82.5t10 87q0 37 -10 55.5t-37 18.5q-48 0 -76.5 -42.5t-39 -93.5t-10.5 -83q0 -60 53 -60q46 0 73 35.5zM165 -164q41 14 72.5 37.5t41.5 51.5h-287q-4 -12 -4 -28q0 -38 26.5 -56.5t70.5 -18.5q39 0 80 14z
" />
    <glyph glyph-name="Gcaron" unicode="&#x1e6;" horiz-adv-x="705" 
d="M378.5 15q29.5 9 51.5 22q20 12 30 27t16 36l23 88q9 33 9 52q0 25 -18 33.5t-66 10.5l5 20q53 -3 140 -3q69 0 105 3l-5 -20q-24 -2 -35.5 -8t-20 -22.5t-18.5 -55.5l-53 -198h-20q3 12 3 26q0 31 -15 31q-6 0 -13.5 -3t-24.5 -14q-42 -26 -83 -40t-87 -14
q-122 0 -187 59.5t-65 169.5q0 116 56.5 234t157 195.5t224.5 77.5q60 0 95.5 -16.5t68.5 -48.5q9 -9 17 -9q10 0 19.5 14t20.5 46h22q-33 -86 -64 -230h-22q5 43 5 75q0 46 -14 73q-21 37 -62 57.5t-92 20.5q-103 0 -180.5 -87t-118 -210t-40.5 -225q0 -90 42.5 -133
t130.5 -43q33 0 62.5 9zM729 924l5 -14q-72 -22 -134 -56.5t-101 -73.5h-18q-28 48 -59.5 79.5t-79.5 50.5l4 14q54 -10 87.5 -23.5t57.5 -27t32 -17.5q111 47 206 68z" />
    <glyph glyph-name="gcaron" unicode="&#x1e7;" horiz-adv-x="449" 
d="M485.5 554q15.5 -15 15.5 -45q0 -26 -13 -40t-31 -14q-19 0 -33.5 13t-14.5 38q0 18 9 42q-39 -17 -57 -42q42 -29 42 -90q0 -44 -21.5 -86t-61 -72.5t-91.5 -40.5l-33 -18q-47 -25 -68.5 -40t-21.5 -29q0 -11 14 -19t46 -16l73 -19q57 -15 85 -33t28 -54
q0 -38 -31.5 -81t-97 -73t-161.5 -30q-77 0 -117.5 20t-40.5 55q0 34 37 68.5t105 54.5l7 -15q-65 -34 -65 -91q0 -38 26.5 -56.5t70.5 -18.5t91 18t77.5 47.5t30.5 61.5q0 14 -8 19t-33 11l-153 39q-54 14 -54 60q0 31 32.5 61.5t122.5 73.5h-7q-58 0 -94 27.5t-36 81.5
q0 42 22 90t71 82t124 34q43 0 72 -13q19 24 46 39t54 15t42.5 -15zM267 266.5q27 35.5 37 82.5t10 87q0 37 -10 55.5t-37 18.5q-48 0 -76.5 -42.5t-39 -93.5t-10.5 -83q0 -60 53 -60q46 0 73 35.5zM428 756q46 28 91 46l5 -14q-65 -28 -122 -74t-93 -98h-18q-11 63 -38 103
t-81 69l4 14q58 -16 95.5 -41t72.5 -63q38 30 84 58z" />
    <glyph glyph-name="uni01E8" unicode="&#x1e8;" horiz-adv-x="675" 
d="M692.5 707q14.5 -15 14.5 -39q0 -22 -14.5 -45.5t-43.5 -23.5q-20 0 -29.5 11.5t-9.5 28.5q0 14 9 31.5t23 30.5h-3q-20 -1 -36 -14q-17 -15 -28.5 -40.5t-29.5 -75.5q-21 -59 -40 -97.5t-52 -68t-83 -36.5q37 -8 59 -21.5t34 -47t10 -95.5l-4 -113q-1 -26 4.5 -38.5
t25.5 -12.5q25 0 42.5 18.5t31.5 59.5l17 51h20l-26 -77q-19 -55 -49 -81t-73 -26q-92 0 -84 116l7 113q1 13 1 36q0 46 -9 69t-28 38q-37 -9 -57 -9q-31 0 -31 20t30 20q22 0 61 -10q51 6 83.5 34.5t50 65.5t38.5 96q18 52 31 79.5t33 44.5q29 23 60 23q30 0 44.5 -15z
M157 57q0 -21 14.5 -28t53.5 -9l-4 -20q-46 3 -127 3q-84 0 -127 -3l5 20q35 2 52.5 8t28 23.5t20.5 54.5l132 496q8 34 8 48q0 22 -14.5 29t-52.5 9l5 20q41 -3 127 -3q80 0 128 3l-5 -20q-37 -2 -54.5 -8t-28 -23t-20.5 -55l-132 -496q-9 -38 -9 -49zM691 924l5 -14
q-72 -22 -134 -56.5t-101 -73.5h-18q-28 48 -59.5 79.5t-79.5 50.5l4 14q54 -10 87.5 -23.5t57.5 -27t32 -17.5q111 47 206 68z" />
    <glyph glyph-name="uni01E9" unicode="&#x1e9;" horiz-adv-x="515" 
d="M476.5 513q14.5 -15 14.5 -39q0 -22 -14.5 -45.5t-43.5 -23.5q-20 0 -29.5 11.5t-9.5 28.5q0 14 9 31.5t23 30.5h-2q-11 0 -19 -3.5t-18 -10.5q-14 -11 -24.5 -28.5t-23.5 -47.5q-25 -53 -50.5 -84t-73.5 -42q63 -3 103.5 -26.5t40.5 -73.5q0 -12 -3 -27l-20 -100
q-2 -8 -2 -20q0 -11 5 -16t17 -5q20 0 37.5 23.5t36.5 78.5l12 37h19l-24 -73q-33 -103 -119 -103q-29 0 -47 16t-18 49q0 15 4 30l18 86q5 23 5 37q0 38 -27 57t-91 24l-84 -285h-87l198 667q5 17 5 27q0 20 -16 29.5t-53 9.5l6 21q104 1 180 41l-146 -498q47 4 76 22
t44.5 42t33.5 63q13 30 24.5 49t28.5 32q31 23 60 23q30 0 44.5 -15zM529 1015q46 28 91 46l5 -14q-65 -28 -122 -74t-93 -98h-18q-11 63 -38 103t-81 69l4 14q58 -16 95.5 -41t72.5 -63q38 30 84 58z" />
    <glyph glyph-name="uni01EE" unicode="&#x1ee;" horiz-adv-x="594" 
d="M635 688l-259 -296q68 -27 104.5 -69t36.5 -106q0 -66 -38.5 -118.5t-105.5 -82.5t-151 -30q-57 0 -101.5 11.5t-68.5 25.5q-7 5 -14.5 9.5t-14.5 4.5q-10 0 -17.5 -10t-16.5 -34h-23q28 77 64 240h23q-7 -38 -7 -63q0 -77 44.5 -120.5t127.5 -43.5q59 0 106 29.5
t73.5 78.5t26.5 104q0 69 -32 110.5t-95 61.5l5 20l241 275h-210q-62 0 -99 -17.5t-61 -56.5t-50 -113h-23q27 80 48 210q73 -3 248 -3q170 0 244 3zM626 924l5 -14q-72 -22 -134 -56.5t-101 -73.5h-18q-28 48 -59.5 79.5t-79.5 50.5l4 14q54 -10 87.5 -23.5t57.5 -27
t32 -17.5q111 47 206 68z" />
    <glyph glyph-name="uni01EF" unicode="&#x1ef;" horiz-adv-x="456" 
d="M323.5 156.5q48.5 -39.5 48.5 -112.5q0 -68 -42 -121.5t-109.5 -83.5t-139.5 -30q-58 0 -88 23q-29 23 -29 56q0 27 20.5 48t48.5 21q19 0 30 -10t11 -29q0 -22 -15.5 -40.5t-41.5 -25.5q3 -10 20.5 -16.5t44.5 -6.5q54 0 98 27t70 76t26 114q0 61 -23.5 99t-66.5 51
q-13 -15 -27.5 -24t-26.5 -9q-8 0 -14 3.5t-6 11.5q0 13 18.5 22t41.5 11l250 264q-45 -28 -72.5 -40t-53.5 -12q-17 0 -32.5 4t-35.5 12q-42 16 -67 16q-27 0 -41.5 -12.5t-14.5 -35.5q0 -29 21.5 -48t57.5 -26l-6 -15q-97 23 -97 99q0 43 28.5 73t85.5 30q24 0 42.5 -5.5
t41.5 -15.5q25 -11 44.5 -16.5t46.5 -5.5t48 8t41 29h27l-290 -306q79 -12 127.5 -51.5zM422 756q46 28 91 46l5 -14q-65 -28 -122 -74t-93 -98h-18q-11 63 -38 103t-81 69l4 14q58 -16 95.5 -41t72.5 -63q38 30 84 58z" />
    <glyph glyph-name="uni01F4" unicode="&#x1f4;" horiz-adv-x="705" 
d="M378.5 15q29.5 9 51.5 22q20 12 30 27t16 36l23 88q9 33 9 52q0 25 -18 33.5t-66 10.5l5 20q53 -3 140 -3q69 0 105 3l-5 -20q-24 -2 -35.5 -8t-20 -22.5t-18.5 -55.5l-53 -198h-20q3 12 3 26q0 31 -15 31q-6 0 -13.5 -3t-24.5 -14q-42 -26 -83 -40t-87 -14
q-122 0 -187 59.5t-65 169.5q0 116 56.5 234t157 195.5t224.5 77.5q60 0 95.5 -16.5t68.5 -48.5q9 -9 17 -9q10 0 19.5 14t20.5 46h22q-33 -86 -64 -230h-22q5 43 5 75q0 46 -14 73q-21 37 -62 57.5t-92 20.5q-103 0 -180.5 -87t-118 -210t-40.5 -225q0 -90 42.5 -133
t130.5 -43q33 0 62.5 9zM553.5 838.5q35.5 26.5 46.5 34.5q49 38 72 52q18 11 38 11q21 0 28 -16q2 -6 2 -10q0 -13 -10.5 -24.5t-24.5 -19.5q-19 -11 -46.5 -21.5t-32.5 -12.5q-87 -33 -143 -60l-7 11q42 29 77.5 55.5z" />
    <glyph glyph-name="uni01F5" unicode="&#x1f5;" horiz-adv-x="449" 
d="M485.5 554q15.5 -15 15.5 -45q0 -26 -13 -40t-31 -14q-19 0 -33.5 13t-14.5 38q0 18 9 42q-39 -17 -57 -42q42 -29 42 -90q0 -44 -21.5 -86t-61 -72.5t-91.5 -40.5l-33 -18q-47 -25 -68.5 -40t-21.5 -29q0 -11 14 -19t46 -16l73 -19q57 -15 85 -33t28 -54
q0 -38 -31.5 -81t-97 -73t-161.5 -30q-77 0 -117.5 20t-40.5 55q0 34 37 68.5t105 54.5l7 -15q-65 -34 -65 -91q0 -38 26.5 -56.5t70.5 -18.5t91 18t77.5 47.5t30.5 61.5q0 14 -8 19t-33 11l-153 39q-54 14 -54 60q0 31 32.5 61.5t122.5 73.5h-7q-58 0 -94 27.5t-36 81.5
q0 42 22 90t71 82t124 34q43 0 72 -13q19 24 46 39t54 15t42.5 -15zM267 266.5q27 35.5 37 82.5t10 87q0 37 -10 55.5t-37 18.5q-48 0 -76.5 -42.5t-39 -93.5t-10.5 -83q0 -60 53 -60q46 0 73 35.5zM338 726q38 52 58 72q19 22 41 22q14 0 22 -7q8 -8 8 -19q0 -20 -23 -43
q-22 -23 -68 -55q-7 -5 -42 -32.5t-78 -64.5l-10 9q39 47 92 118z" />
    <glyph glyph-name="Oslashacute" unicode="&#x1fe;" horiz-adv-x="729" 
d="M633.5 844.5q-27.5 -10.5 -32.5 -12.5q-87 -33 -143 -60l-7 11q42 29 77.5 55.5t46.5 34.5q49 38 72 52q18 11 38 11q21 0 28 -16q2 -6 2 -10q0 -13 -10.5 -24.5t-24.5 -19.5q-19 -11 -46.5 -21.5zM666 633q41 -59 41 -152q0 -113 -53.5 -228.5t-149.5 -191t-215 -75.5
q-113 0 -175 65l-117 -124l-17 14l119 127q-45 61 -45 158q0 113 53 229t148.5 191.5t215.5 75.5q121 0 183 -73l118 124l15 -13zM316.5 632q-70.5 -72 -113.5 -186.5t-43 -232.5q0 -42 8 -80l421 454q-16 56 -49 86.5t-78 30.5q-75 0 -145.5 -72zM443.5 76
q70.5 72 113.5 186.5t43 232.5q0 37 -6 67l-419 -454q16 -49 48.5 -76.5t74.5 -27.5q75 0 145.5 72z" />
    <glyph glyph-name="oslashacute" unicode="&#x1ff;" horiz-adv-x="488" 
d="M419 696q-7 -5 -42 -32.5t-78 -64.5l-10 9q39 47 92 118q39 53 58 72q19 22 41 22q14 0 22 -7q8 -8 8 -19q0 -20 -23 -43q-22 -23 -68 -55zM503 574l-82 -100q26 -38 26 -103q0 -79 -35 -169.5t-101 -153t-153 -62.5q-67 0 -103 42l-84 -101l-14 13l86 105q-22 39 -22 98
q0 79 35 169.5t101 153t153 62.5q64 0 100 -39l80 97zM211 447.5q-44 -60.5 -72 -153t-32 -181.5l253 327q-4 68 -56 68q-49 0 -93 -60.5zM259.5 68.5q44.5 62.5 72 157.5t29.5 185l-254 -331q4 -74 57 -74q51 0 95.5 62.5z" />
    <glyph glyph-name="Scommaaccent" unicode="&#x218;" horiz-adv-x="554" 
d="M517 511h-20q6 29 6 57q0 59 -35 97t-107 38q-63 0 -101.5 -32t-38.5 -95q0 -49 30.5 -90t91.5 -97q43 -39 69 -68t44 -64t18 -75q0 -65 -37.5 -109.5t-95.5 -65.5t-120 -21q-53 0 -84.5 13t-57.5 33q-19 15 -36 15q-12 0 -20 -12t-21 -42h-20q16 38 31.5 91.5
t36.5 148.5h20q-9 -47 -9 -74q0 -73 40 -113t123 -40q68 0 107.5 31t39.5 94q0 38 -15 70t-36.5 56.5t-59.5 61.5q-40 38 -63.5 65t-40 63t-16.5 80q0 62 31.5 106t82 66.5t106.5 22.5q41 0 71 -10t59 -32q24 -18 33 -18q8 0 15.5 12.5t17.5 40.5h20q-36 -91 -59 -204z
M238.5 -85.5q14.5 -16.5 14.5 -41.5q0 -37 -21 -66t-77 -48l-7 17q27 8 49.5 25t24.5 39q-8 -7 -20 -11.5t-24 -4.5q-20 0 -32.5 11t-12.5 31q0 24 18 44.5t47 20.5q26 0 40.5 -16.5z" />
    <glyph glyph-name="scommaaccent" unicode="&#x219;" horiz-adv-x="381" 
d="M78.5 8q9.5 -2 26.5 -2q45 0 73 27t28 76q0 32 -12 62.5t-40 69.5q-34 46 -49.5 75.5t-15.5 69.5q0 41 21 73.5t56.5 50.5t77.5 18q52 0 87 -19.5t35 -67.5q0 -18 -11.5 -35t-34.5 -17q-17 0 -28.5 12t-11.5 30q0 32 28 67q-19 12 -50 12q-38 0 -62.5 -25.5t-24.5 -69.5
q0 -26 9 -44.5t33 -54.5l18 -26q30 -46 44.5 -79t14.5 -68q0 -45 -23.5 -81t-63 -56t-85.5 -20q-57 0 -96 24.5t-39 74.5q0 17 9.5 31t29.5 14q22 0 33 -18t11 -45q0 -17 -7 -52q10 -5 19.5 -7zM136.5 -85.5q14.5 -16.5 14.5 -41.5q0 -37 -21 -66t-77 -48l-7 17
q27 8 49.5 25t24.5 39q-8 -7 -20 -11.5t-24 -4.5q-20 0 -32.5 11t-12.5 31q0 24 18 44.5t47 20.5q26 0 40.5 -16.5z" />
    <glyph glyph-name="uni021A" unicode="&#x21a;" horiz-adv-x="659" 
d="M801.5 803.5q11.5 -13.5 11.5 -34.5q0 -22 -13 -40.5t-34 -31.5q-53 -33 -158 -33q-44 0 -102 7l-148 -555q-9 -31 -9 -51q0 -25 18.5 -34.5t65.5 -10.5l-4 -20q-52 3 -149 3q-98 0 -146 -3l4 20q42 2 65.5 10.5t36.5 28t25 57.5l151 567q-81 11 -129 11q-87 0 -112 -17
q8 -11 13 -27t5 -31q0 -23 -13 -40.5t-37 -17.5q-21 0 -32.5 13.5t-11.5 36.5q0 52 53 78q47 23 134 23q40 0 76 -3.5t91 -10.5q52 -7 87.5 -10.5t74.5 -3.5q45 0 75 5t54 17q-25 25 -25 56q0 22 12.5 38.5t36.5 16.5q22 0 33.5 -13.5zM304.5 -85.5q14.5 -16.5 14.5 -41.5
q0 -37 -21 -66t-77 -48l-7 17q27 8 49.5 25t24.5 39q-8 -7 -20 -11.5t-24 -4.5q-20 0 -32.5 11t-12.5 31q0 24 18 44.5t47 20.5q26 0 40.5 -16.5z" />
    <glyph glyph-name="uni021B" unicode="&#x21b;" horiz-adv-x="336" 
d="M121 85q-3 -12 -3 -22q0 -20 12 -30t31 -10q25 0 46.5 21.5t42.5 78.5l14 39h19l-21 -63q-21 -62 -54.5 -87.5t-82.5 -25.5q-45 0 -67 22t-22 61q0 26 9 57l106 368h-90l5 20h90l44 152q54 2 90 14l-47 -166h132l-3 -20h-135zM117.5 -85.5q14.5 -16.5 14.5 -41.5
q0 -37 -21 -66t-77 -48l-7 17q27 8 49.5 25t24.5 39q-8 -7 -20 -11.5t-24 -4.5q-20 0 -32.5 11t-12.5 31q0 24 18 44.5t47 20.5q26 0 40.5 -16.5z" />
    <glyph glyph-name="uni021E" unicode="&#x21e;" horiz-adv-x="755" 
d="M820 708l-5 -20q-37 -2 -54.5 -8t-28 -23t-20.5 -55l-132 -496q-9 -38 -9 -49q0 -21 14.5 -28t53.5 -9l-4 -20q-42 3 -128 3q-80 0 -127 -3l4 20q36 2 54 8t28.5 23t20.5 55l64 240h-321l-64 -240q-9 -38 -9 -49q0 -21 14.5 -28t53.5 -9l-4 -20q-46 3 -127 3
q-84 0 -127 -3l5 20q35 2 52.5 8t28 23.5t20.5 54.5l132 496q8 34 8 48q0 22 -14.5 29t-52.5 9l5 20q41 -3 127 -3q80 0 128 3l-5 -20q-37 -2 -54.5 -8t-28 -23t-20.5 -55l-63 -236h321l63 236q9 32 9 48q0 22 -15 29t-53 9l5 20q45 -3 126 -3q86 0 129 3zM728 924l5 -14
q-72 -22 -134 -56.5t-101 -73.5h-18q-28 48 -59.5 79.5t-79.5 50.5l4 14q54 -10 87.5 -23.5t57.5 -27t32 -17.5q111 47 206 68z" />
    <glyph glyph-name="uni021F" unicode="&#x21f;" horiz-adv-x="536" 
d="M486 162l-25 -73q-36 -103 -121 -103q-70 0 -70 62q0 30 16 78l95 286q10 28 10 50q0 34 -32 34q-37 0 -79.5 -46.5t-85.5 -130.5t-80 -195l-36 -124h-87l198 667q5 17 5 27q0 20 -16 29.5t-53 9.5l6 21q104 1 180 41l-145 -496q54 122 108 175.5t118 53.5q81 0 81 -76
q0 -32 -15 -75l-97 -292q-8 -24 -8 -38q0 -24 24 -24q20 0 38.5 22.5t38.5 79.5l13 37h19zM558 1015q46 28 91 46l5 -14q-65 -28 -122 -74t-93 -98h-18q-11 63 -38 103t-81 69l4 14q58 -16 95.5 -41t72.5 -63q38 30 84 58z" />
    <glyph glyph-name="uni0237" unicode="&#x237;" horiz-adv-x="276" 
d="M-133 -173q62 3 106 53t66 139l115 410q7 24 7 39q0 23 -22 23q-20 0 -38 -23.5t-38 -78.5l-13 -37h-19l24 73q34 103 123 103q67 0 67 -61q0 -26 -15 -79l-77 -273q-41 -166 -133 -242q-34 -28 -74.5 -44.5t-82.5 -16.5z" />
    <glyph glyph-name="uni0259" unicode="&#x259;" horiz-adv-x="429" 
d="M382 492q35 -36 35 -105q0 -76 -44.5 -171.5t-120.5 -162.5t-165 -67q-32 0 -53 17t-21 49q0 81 91 142t208 99q11 50 11 97q0 96 -69 96q-86 0 -154 -100l-16 8q32 55 86.5 94.5t114.5 39.5q62 0 97 -36zM180.5 42.5q39.5 37.5 74 99.5t52.5 132q-95 -33 -136 -64
q-37 -29 -57.5 -70t-20.5 -90q0 -27 4 -36t12 -9q32 0 71.5 37.5z" />
    <glyph glyph-name="uni0292" unicode="&#x292;" horiz-adv-x="456" 
d="M323.5 156.5q48.5 -39.5 48.5 -112.5q0 -68 -42 -121.5t-109.5 -83.5t-139.5 -30q-58 0 -88 23q-29 23 -29 56q0 27 20.5 48t48.5 21q19 0 30 -10t11 -29q0 -22 -15.5 -40.5t-41.5 -25.5q3 -10 20.5 -16.5t44.5 -6.5q54 0 98 27t70 76t26 114q0 61 -23.5 99t-66.5 51
q-13 -15 -27.5 -24t-26.5 -9q-8 0 -14 3.5t-6 11.5q0 13 18.5 22t41.5 11l250 264q-45 -28 -72.5 -40t-53.5 -12q-17 0 -32.5 4t-35.5 12q-42 16 -67 16q-27 0 -41.5 -12.5t-14.5 -35.5q0 -29 21.5 -48t57.5 -26l-6 -15q-97 23 -97 99q0 43 28.5 73t85.5 30q24 0 42.5 -5.5
t41.5 -15.5q25 -11 44.5 -16.5t46.5 -5.5t48 8t41 29h27l-290 -306q79 -12 127.5 -51.5z" />
    <glyph glyph-name="uni02BC" unicode="&#x2bc;" horiz-adv-x="245" 
d="M237.5 546.5q-39.5 -51.5 -107.5 -84.5l-5 14q47 29 75 63t31 68q-29 -25 -52 -25q-18 0 -28 9.5t-10 25.5q0 21 13.5 43t35 36t43.5 14t33 -17t11 -42q0 -53 -39.5 -104.5z" />
    <glyph glyph-name="circumflex" unicode="&#x2c6;" horiz-adv-x="452" 
d="M239 662q-46 -28 -91 -46l-5 14q65 28 122 74t93 98h18q11 -63 38 -103t81 -69l-4 -14q-58 16 -95.5 41t-72.5 63q-38 -30 -84 -58z" />
    <glyph glyph-name="caron" unicode="&#x2c7;" horiz-adv-x="452" 
d="M438 756q46 28 91 46l5 -14q-65 -28 -122 -74t-93 -98h-18q-11 63 -38 103t-81 69l4 14q58 -16 95.5 -41t72.5 -63q38 30 84 58z" />
    <glyph glyph-name="breve" unicode="&#x2d8;" horiz-adv-x="459" 
d="M429 723.5q58 23.5 100 64.5l10 -11q-24 -34 -65 -67.5t-86.5 -55t-82.5 -21.5q-52 0 -83.5 40.5t-41.5 105.5l16 5q23 -47 51 -65.5t75 -18.5q49 0 107 23.5z" />
    <glyph glyph-name="dotaccent" unicode="&#x2d9;" horiz-adv-x="222" 
d="M180.5 740.5q21.5 24.5 52.5 24.5q23 0 37 -14.5t14 -36.5q0 -28 -22 -52.5t-53 -24.5q-22 0 -36 14.5t-14 36.5q0 28 21.5 52.5z" />
    <glyph glyph-name="ring" unicode="&#x2da;" horiz-adv-x="296" 
d="M331.5 769q24.5 -22 24.5 -58q0 -42 -33.5 -72.5t-78.5 -30.5q-36 0 -59.5 21.5t-23.5 58.5q0 43 32 73t77 30q37 0 61.5 -22zM305 653q25 24 25 59q0 27 -19.5 42.5t-44.5 15.5q-31 0 -55 -24.5t-24 -56.5q0 -28 18.5 -44t42.5 -16q32 0 57 24z" />
    <glyph glyph-name="ogonek" unicode="&#x2db;" horiz-adv-x="294" 
d="M69.5 -36q-37.5 -28 -37.5 -66q0 -19 10 -28.5t28 -9.5q19 0 38 8.5t30 22.5l12 -11q-56 -68 -122 -68q-34 0 -53 16t-19 43q0 44 47.5 77.5t108.5 54.5h38q-43 -11 -80.5 -39z" />
    <glyph glyph-name="tilde" unicode="&#x2dc;" horiz-adv-x="451" 
d="M330 757.5q19 -10.5 40 -29.5q19 -17 32.5 -25t32.5 -8q38 0 70 58l18 -5q-22 -52 -57 -77.5t-73 -25.5q-29 0 -48 10.5t-40 29.5q-19 17 -32.5 25t-32.5 8q-38 0 -70 -58l-18 5q22 52 57 77.5t73 25.5q29 0 48 -10.5z" />
    </font>
</defs>
</svg>
