<?xml version="1.0" standalone="no"?>
<!DOCTYPE svg PUBLIC "-//W3C//DTD SVG 1.1//EN" "http://www.w3.org/Graphics/SVG/1.1/DTD/svg11.dtd" >
<svg xmlns="http://www.w3.org/2000/svg" xmlns:xlink="http://www.w3.org/1999/xlink" version="1.1">
<metadata>
Created by FontForge 20170731 at Fri Nov  3 13:25:34 2017
 By Aleksey,,,
Copyright 2017 The Playfair Display Project Authors (https://github.com/clauseggers/Playfair-Display), with Reserved Font Name "Playfair Display".
</metadata>
<defs>
<font id="PlayfairDisplay-Regular" horiz-adv-x="0" >
  <font-face 
    font-family="Playfair Display"
    font-weight="400"
    font-stretch="normal"
    units-per-em="1000"
    panose-1="0 0 5 0 0 0 0 0 0 0"
    ascent="800"
    descent="-200"
    x-height="515"
    cap-height="708"
    bbox="-668 -241 1211 1156"
    underline-thickness="20"
    underline-position="-120"
    unicode-range="U+000D-FB02"
  />
<missing-glyph horiz-adv-x="562" 
d="M502 0h-442v772h442v-772zM96 742v-712h370v712h-370z" />
    <glyph glyph-name="IJ" unicode="IJ" horiz-adv-x="647" 
d="M297 688q-36 -2 -52.5 -8t-22.5 -23t-6 -55v-496q0 -38 6 -55t22.5 -23t52.5 -8v-20q-46 3 -127 3q-86 0 -128 -3v20q36 2 52.5 8t22.5 23t6 55v496q0 38 -6 55t-22.5 23t-52.5 8v20q42 -3 128 -3q80 0 127 3v-20zM301 -169q70 2 103.5 52t33.5 169v550q0 38 -6 55
t-22.5 23t-52.5 8v20q42 -3 126 -3q82 0 129 3v-20q-36 -2 -52.5 -8t-22.5 -23t-6 -55v-366q0 -85 -3 -150.5t-14 -110.5q-18 -73 -73.5 -118t-139.5 -45v19z" />
    <glyph glyph-name="ij" unicode="ij" horiz-adv-x="562" 
d="M168 746q19 -19 19 -45t-19 -45t-45 -19t-45 19t-19 45t19 45t45 19t45 -19zM472 746q19 -19 19 -45t-19 -45t-45 -19t-45 19t-19 45t19 45t45 19t45 -19zM483 115q0 -141 -36 -222t-131 -81q-40 0 -60.5 14.5t-20.5 41.5q0 22 13 35.5t36 13.5q21 0 34 -11.5t13 -32.5
q0 -31 -34 -45q6 -1 17 -1q43 0 61 29.5t18 97.5v159q-18 -60 -60.5 -93.5t-103.5 -33.5q-68 0 -104 38q-18 20 -25.5 51t-7.5 80v251q0 46 -17 67t-59 21v21q31 -3 62 -3q63 0 104 14v-393q0 -38 4.5 -61.5t21 -38.5t50.5 -15q61 0 98 51.5t37 129.5v207q0 46 -17 67
t-59 21v21q31 -3 62 -3q63 0 104 14v-411z" />
    <glyph glyph-name="fi" unicode="fi" horiz-adv-x="619" 
d="M441.5 774q35.5 -8 57.5 -22q34 -21 34 -55q0 -27 -19 -46t-45 -19t-45 19t-19 45q0 18 9 33t24 23q-23 15 -73 15q-99 0 -142 -77q-15 -26 -21 -65.5t-6 -110.5h161q63 0 98.5 2.5t67.5 9.5v-433q0 -41 17 -56.5t59 -15.5v-21q-92 4 -121 4t-121 -4v21q42 0 59 15.5
t17 56.5v313q0 46 -17 67t-59 21h-161v-401q0 -41 21.5 -56.5t64.5 -15.5v-21l-22 1q-87 3 -109 3q-29 0 -121 -4v21q42 0 59 15.5t17 56.5v401h-80v20h80q0 135 72 203q31 29 78 47t109 18q41 0 76.5 -8z" />
    <glyph glyph-name="fl" unicode="fl" horiz-adv-x="621" 
d="M523 93q0 -41 17 -56.5t59 -15.5v-21q-92 4 -121 4t-121 -4v21q42 0 59 15.5t17 56.5v557q0 31 -6.5 50t-20.5 33q-18 18 -44.5 26t-51.5 8q-50 0 -79 -31q-21 -21 -28 -52t-7 -76v-94h127v-20h-127v-401q0 -41 21.5 -56.5t64.5 -15.5v-21l-22 1q-87 3 -109 3
q-29 0 -121 -4v21q42 0 59 15.5t17 56.5v401h-80v20h80q0 85 12.5 136.5t51.5 85.5q27 23 62 34.5t73 11.5q18 0 58 -6q42 -6 70 -6q49 0 90 14v-691z" />
    <glyph glyph-name="f_f" unicode="ff" horiz-adv-x="653" 
d="M715 693q0 -23 -15 -38t-38 -15t-39 14.5t-16 39.5q0 21 11.5 34t30.5 17q-3 10 -16 16t-33 6q-22 0 -39 -10t-26 -27q-11 -20 -14.5 -59t-3.5 -131v-26h107v-20h-107v-391q0 -46 26.5 -64t79.5 -18v-21l-24 1q-102 3 -130 3q-26 0 -118 -4v21q42 0 59 15.5t17 56.5v401
h-231v-401q0 -41 17 -56.5t59 -15.5v-21q-92 4 -120 4q-30 0 -122 -4v21q42 0 59 15.5t17 56.5v401h-80v20h80q0 111 45 163q25 30 65 47.5t87 17.5t84 -19t56 -55q12 38 35 64q20 23 51 36.5t68 13.5q52 0 87 -27q31 -25 31 -62zM437 643q-13 36 -46.5 58.5t-83.5 22.5
q-57 0 -84 -38t-27 -121v-51h231q0 82 10 129z" />
    <glyph glyph-name="f_f_i" unicode="ffi" horiz-adv-x="940" 
d="M861 36.5q17 -15.5 59 -15.5v-21q-92 4 -121 4t-121 -4v21q42 0 59 15.5t17 56.5v313q0 46 -17 67t-59 21h-161v-401q0 -41 21.5 -56.5t64.5 -15.5v-21l-22 1q-87 3 -109 3q-29 0 -121 -4v21q42 0 59 15.5t17 56.5v401h-231v-401q0 -41 17 -56.5t59 -15.5v-21
q-92 4 -120 4q-30 0 -122 -4v21q42 0 59 15.5t17 56.5v401h-80v20h80q0 106 49 163q27 30 67.5 47.5t90.5 17.5q101 0 151 -68q16 25 35 43q31 29 78 47t109 18q41 0 76.5 -8t57.5 -22q34 -21 34 -55q0 -27 -19 -46t-45 -19t-45 19t-19 45q0 18 9 33t24 23q-23 15 -73 15
q-99 0 -142 -77q-15 -26 -21 -65.5t-6 -110.5h161q63 0 98.5 2.5t67.5 9.5v-433q0 -41 17 -56.5zM455 657q-21 30 -55 48.5t-75 18.5q-129 0 -129 -159v-51h231q0 87 28 143z" />
    <glyph glyph-name="f_f_l" unicode="ffl" horiz-adv-x="942" 
d="M861 36.5q17 -15.5 59 -15.5v-21q-92 4 -121 4t-121 -4v21q42 0 59 15.5t17 56.5v557q0 31 -6.5 50t-20.5 33q-18 18 -44.5 26t-51.5 8q-50 0 -79 -31q-21 -21 -28 -52t-7 -76v-94h127v-20h-127v-401q0 -41 21.5 -56.5t64.5 -15.5v-21l-22 1q-87 3 -109 3q-29 0 -121 -4
v21q42 0 59 15.5t17 56.5v401h-231v-401q0 -41 17 -56.5t59 -15.5v-21q-92 4 -120 4q-30 0 -122 -4v21q42 0 59 15.5t17 56.5v401h-80v20h80q0 106 49 163q27 30 67.5 47.5t90.5 17.5q90 0 140 -54q13 26 38 48q27 23 62 34.5t73 11.5q20 0 60 -6q42 -6 65 -6q52 0 93 14
v-691q0 -41 17 -56.5zM431 602.5q4 37.5 14 66.5q-22 26 -53 40.5t-67 14.5q-129 0 -129 -159v-51h231q0 51 4 88.5z" />
    <glyph glyph-name="f_b.liga" unicode="fb" horiz-adv-x="896" 
d="M796.5 459q52.5 -70 52.5 -202q0 -87 -30 -148t-80.5 -92t-112.5 -31q-37 0 -71.5 15t-60.5 43l-71 -60l-17 7q7 25 7 58v601q0 30 -7 49.5t-20 33.5q-17 17 -41 25.5t-46 8.5q-41 0 -69 -28q-21 -21 -27.5 -53.5t-6.5 -77.5v-94h127v-20h-127v-401q0 -41 21.5 -56.5
t64.5 -15.5v-21l-22 1q-87 3 -109 3q-29 0 -121 -4v21q42 0 59 15.5t17 56.5v401h-80v20h80q0 86 12.5 136.5t51.5 85.5q52 46 127 46q16 0 52 -4q40 -6 71 -6q52 0 83 12v-362q22 51 63.5 79t92.5 28q85 0 137.5 -70zM718.5 69.5q33.5 60.5 33.5 187.5q0 122 -30 182
t-92 60q-42 0 -77 -32.5t-50 -91.5v-317q23 -24 53 -36.5t62 -12.5q67 0 100.5 60.5z" />
    <glyph glyph-name="f_f_b.liga" unicode="ffb" horiz-adv-x="1217" 
d="M1117.5 459q52.5 -70 52.5 -202q0 -87 -30 -148t-80.5 -92t-112.5 -31q-37 0 -71.5 15t-60.5 43l-71 -60l-17 7q7 25 7 58v601q0 30 -7 49.5t-20 33.5q-17 17 -41 25.5t-46 8.5q-41 0 -69 -28q-21 -21 -27.5 -53.5t-6.5 -77.5v-94h127v-20h-127v-401q0 -41 21.5 -56.5
t64.5 -15.5v-21l-22 1q-87 3 -109 3q-29 0 -121 -4v21q42 0 59 15.5t17 56.5v401h-231v-401q0 -41 17 -56.5t59 -15.5v-21q-92 4 -120 4q-30 0 -122 -4v21q42 0 59 15.5t17 56.5v401h-80v20h80q0 106 49 163q27 30 67.5 47.5t90.5 17.5q90 0 140 -54q16 29 38 48
q52 46 127 46q16 0 52 -4q40 -6 71 -6q52 0 83 12v-362q22 51 63.5 79t92.5 28q85 0 137.5 -70zM431 603q4 37 14 66q-22 26 -53 40.5t-67 14.5q-129 0 -129 -159v-51h231q0 52 4 89zM1039.5 69.5q33.5 60.5 33.5 187.5q0 122 -30 182t-92 60q-42 0 -77 -32.5t-50 -91.5
v-317q23 -24 53 -36.5t62 -12.5q67 0 100.5 60.5z" />
    <glyph glyph-name="f_f_h.liga" unicode="ffh" horiz-adv-x="1226" 
d="M1152 36.5q17 -15.5 59 -15.5v-21q-92 4 -120 4t-112 -4v21q37 0 51.5 15.5t14.5 56.5v289q0 56 -16 85.5t-65 29.5q-41 0 -72.5 -23t-49.5 -64.5t-18 -93.5v-223q0 -41 14.5 -56.5t51.5 -15.5v-21q-84 4 -112 4t-120 -4v21q42 0 59 15.5t17 56.5v557q0 30 -7 49.5
t-20 33.5q-17 17 -41 25.5t-46 8.5q-41 0 -69 -28q-21 -21 -27.5 -53.5t-6.5 -77.5v-94h127v-20h-127v-401q0 -41 21.5 -56.5t64.5 -15.5v-21l-22 1q-87 3 -109 3q-29 0 -121 -4v21q42 0 59 15.5t17 56.5v401h-231v-401q0 -41 17 -56.5t59 -15.5v-21q-92 4 -120 4
q-30 0 -122 -4v21q42 0 59 15.5t17 56.5v401h-80v20h80q0 106 49 163q27 30 67.5 47.5t90.5 17.5q90 0 140 -54q16 29 38 48q52 46 127 46q16 0 52 -4q40 -6 71 -6q51 0 83 11v-374q25 63 69.5 91.5t100.5 28.5q70 0 106 -38q19 -20 27 -50t8 -81v-267q0 -41 17 -56.5z
M431 603q4 37 14 66q-22 26 -53 40.5t-67 14.5q-129 0 -129 -159v-51h231q0 52 4 89z" />
    <glyph glyph-name="f_f_j.liga" unicode="ffj" horiz-adv-x="920" 
d="M678 514q63 0 98.5 2.5t67.5 9.5v-411q0 -81 -11 -142t-42 -100q-23 -30 -55.5 -45.5t-65.5 -15.5q-25 0 -42 10q-25 15 -25 43q0 21 13 34t34 13q20 0 32.5 -13t12.5 -32q0 -23 -16 -40q28 3 44 15q15 11 23 31q8 21 8 62v471q0 46 -17 67t-59 21h-161v-391
q0 -46 26.5 -64t79.5 -18v-21l-24 1q-102 3 -130 3q-26 0 -118 -4v21q42 0 59 15.5t17 56.5v401h-231v-401q0 -41 17 -56.5t59 -15.5v-21q-92 4 -120 4q-30 0 -122 -4v21q42 0 59 15.5t17 56.5v401h-80v20h80q0 106 49 163q27 30 67.5 47.5t90.5 17.5q101 0 151 -68
q16 25 35 43q31 29 78 47t109 18q41 0 76.5 -8t57.5 -22q34 -21 34 -55q0 -27 -19 -46t-45 -19t-45 19t-19 45q0 18 9 33t24 23q-23 15 -73 15q-99 0 -142 -77q-15 -26 -21 -65.5t-6 -110.5h161zM455 657q-21 30 -55 48.5t-75 18.5q-129 0 -129 -159v-51h231q0 87 28 143z
" />
    <glyph glyph-name="f_f_k.liga" unicode="ffk" horiz-adv-x="1188" 
d="M1145 36q15 -12 36 -15v-21q-60 4 -81 4q-27 0 -111 -4v21q14 0 22.5 5.5t8.5 13.5t-6 15l-115 168q-17 25 -32.5 33.5t-42.5 10.5v-174q0 -41 14.5 -56.5t51.5 -15.5v-21q-84 4 -112 4t-120 -4v21q42 0 59 15.5t17 56.5v557q0 30 -7 49.5t-20 33.5q-17 17 -41 25.5
t-46 8.5q-41 0 -69 -28q-21 -21 -27.5 -53.5t-6.5 -77.5v-94h127v-20h-127v-401q0 -41 21.5 -56.5t64.5 -15.5v-21l-22 1q-87 3 -109 3q-29 0 -121 -4v21q42 0 59 15.5t17 56.5v401h-231v-401q0 -41 17 -56.5t59 -15.5v-21q-92 4 -120 4q-30 0 -122 -4v21q42 0 59 15.5
t17 56.5v401h-80v20h80q0 106 49 163q27 30 67.5 47.5t90.5 17.5q90 0 140 -54q16 29 38 48q52 46 127 46q16 0 52 -4q40 -6 71 -6q51 0 83 11v-495q29 4 48.5 13.5t37.5 27.5l74 77q32 33 32 55q0 17 -20.5 25.5t-53.5 8.5v20q70 -4 113 -4q47 0 87 4v-20q-49 -4 -90 -47
l-122 -128l181 -247q19 -25 34 -37zM431 603q4 37 14 66q-22 26 -53 40.5t-67 14.5q-129 0 -129 -159v-51h231q0 52 4 89z" />
    <glyph glyph-name="f_h.liga" unicode="fh" horiz-adv-x="905" 
d="M503 409q25 63 69.5 91.5t100.5 28.5q70 0 106 -38q19 -20 27 -50t8 -81v-267q0 -41 17 -56.5t59 -15.5v-21q-92 4 -120 4t-112 -4v21q37 0 51.5 15.5t14.5 56.5v289q0 56 -16 85.5t-65 29.5q-41 0 -72.5 -23t-49.5 -64.5t-18 -93.5v-223q0 -41 14.5 -56.5t51.5 -15.5
v-21q-84 4 -112 4t-120 -4v21q42 0 59 15.5t17 56.5v557q0 30 -7 49.5t-20 33.5q-17 17 -41 25.5t-46 8.5q-41 0 -69 -28q-21 -21 -27.5 -53.5t-6.5 -77.5v-94h127v-20h-127v-401q0 -41 21.5 -56.5t64.5 -15.5v-21l-22 1q-87 3 -109 3q-29 0 -121 -4v21q42 0 59 15.5
t17 56.5v401h-80v20h80q0 86 12.5 136.5t51.5 85.5q52 46 127 46q16 0 52 -4q40 -6 71 -6q51 0 83 11v-374z" />
    <glyph glyph-name="f_idieresis.liga" unicode="f&#xef;" horiz-adv-x="619" 
d="M540 36.5q17 -15.5 59 -15.5v-21q-92 4 -121 4t-121 -4v21q42 0 59 15.5t17 56.5v313q0 46 -17 67t-59 21h-161v-401q0 -41 21.5 -56.5t64.5 -15.5v-21l-22 1q-87 3 -109 3q-29 0 -121 -4v21q42 0 59 15.5t17 56.5v401h-80v20h80q0 89 11.5 136.5t39.5 81.5q42 50 128 50
q54 0 91.5 -25.5t38.5 -68.5v-3v0v-1v0q-1 -24 -18 -40.5t-40 -16.5q-24 0 -41 17t-17 41q0 23 17 40.5t41 17.5q-26 22 -71 22q-36 0 -58 -19.5t-27 -56.5q-5 -33 -5 -175h161q63 0 98.5 2.5t67.5 9.5v-433q0 -41 17 -56.5zM609.5 725.5q17.5 -17.5 17.5 -40.5
q0 -24 -17.5 -41t-40.5 -17q-24 0 -41 17t-17 41q0 23 17 40.5t41 17.5q23 0 40.5 -17.5z" />
    <glyph glyph-name="f_igrave.liga" unicode="f&#xec;" horiz-adv-x="619" 
d="M540 36.5q17 -15.5 59 -15.5v-21q-92 4 -121 4t-121 -4v21q42 0 59 15.5t17 56.5v313q0 46 -17 67t-59 21h-161v-401q0 -41 21.5 -56.5t64.5 -15.5v-21l-22 1q-87 3 -109 3q-29 0 -121 -4v21q42 0 59 15.5t17 56.5v401h-80v20h80q0 85 10.5 136.5t43.5 85.5q45 46 116 46
q33 0 60 -14q-4 8 -4 17q0 16 14 28q8 7 22 7q21 0 38 -22q17 -23 40 -69q32 -62 69 -121l-11 -9q-37 40 -97 93q-21 18 -37 34q-25 21 -47 31t-46 10q-43 0 -65 -42q-8 -17 -12 -44t-4 -73v-94h161q63 0 98.5 2.5t67.5 9.5v-433q0 -41 17 -56.5z" />
    <glyph glyph-name="f_j.liga" unicode="fj" horiz-adv-x="599" 
d="M441.5 774q35.5 -8 57.5 -22q34 -21 34 -55q0 -27 -19 -46t-45 -19t-45 19t-19 45q0 18 9 33t24 23q-23 15 -73 15q-99 0 -142 -77q-15 -26 -21 -65.5t-6 -110.5h161q63 0 98.5 2.5t67.5 9.5v-411q0 -81 -11 -142t-42 -100q-23 -30 -55.5 -45.5t-65.5 -15.5q-25 0 -43 10
q-24 14 -24 43q0 21 13 34t34 13q20 0 32.5 -13t12.5 -32q0 -23 -16 -40q25 3 41 13t25 31q9 24 9 64v471q0 46 -17 67t-59 21h-161v-391q0 -46 26.5 -64t79.5 -18v-21l-24 1q-102 3 -130 3q-26 0 -118 -4v21q42 0 59 15.5t17 56.5v401h-80v20h80q0 135 72 203q31 29 78 47
t109 18q41 0 76.5 -8z" />
    <glyph glyph-name="f_k.liga" unicode="fk" horiz-adv-x="867" 
d="M824 36q15 -12 36 -15v-21q-60 4 -81 4q-27 0 -111 -4v21q14 0 22.5 5.5t8.5 13.5t-6 15l-115 168q-17 25 -32.5 33.5t-42.5 10.5v-174q0 -41 14.5 -56.5t51.5 -15.5v-21q-84 4 -112 4t-120 -4v21q42 0 59 15.5t17 56.5v557q0 30 -7 49.5t-20 33.5q-17 17 -41 25.5
t-46 8.5q-41 0 -69 -28q-21 -21 -27.5 -53.5t-6.5 -77.5v-94h127v-20h-127v-401q0 -41 21.5 -56.5t64.5 -15.5v-21l-22 1q-87 3 -109 3q-29 0 -121 -4v21q42 0 59 15.5t17 56.5v401h-80v20h80q0 86 12.5 136.5t51.5 85.5q52 46 127 46q16 0 52 -4q40 -6 71 -6q51 0 83 11
v-495q29 4 48.5 13.5t37.5 27.5l74 77q32 33 32 55q0 17 -20.5 25.5t-53.5 8.5v20q70 -4 113 -4q47 0 87 4v-20q-49 -4 -90 -47l-122 -128l181 -247q19 -25 34 -37z" />
    <glyph glyph-name=".notdef" horiz-adv-x="562" 
d="M502 0h-442v772h442v-772zM96 742v-712h370v712h-370z" />
    <glyph glyph-name=".null" 
 />
    <glyph glyph-name="nonmarkingreturn" unicode="&#xd;" horiz-adv-x="249" 
 />
    <glyph glyph-name="NULL" 
 />
    <glyph glyph-name="NULL" 
 />
    <glyph glyph-name="space" unicode=" " horiz-adv-x="249" 
 />
    <glyph glyph-name="exclam" unicode="!" horiz-adv-x="262" 
d="M164 768q13 -14 13 -42q0 -52 -14 -178q-12 -122 -17.5 -196.5t-5.5 -155.5h-18q0 81 -5.5 155.5t-17.5 196.5q-14 126 -14 178q0 29 12.5 42.5t33.5 13.5q20 0 33 -14zM176 95q19 -19 19 -45t-19 -45t-45 -19t-45 19t-19 45t19 45t45 19t45 -19z" />
    <glyph glyph-name="quotedbl" unicode="&#x22;" horiz-adv-x="298" 
d="M120.5 717.5q10.5 -12.5 10.5 -33.5q0 -36 -6 -73t-7 -45q-7 -36 -16 -98h-14q-7 49 -15 90q-6 34 -10 65t-4 60q0 21 10 33.5t26 13.5q15 0 25.5 -12.5zM229.5 717.5q10.5 -12.5 10.5 -33.5q0 -36 -6 -73t-7 -45q-7 -36 -16 -98h-14q-7 49 -15 90q-6 34 -10 65t-4 60
q0 21 10 33.5t26 13.5q15 0 25.5 -12.5z" />
    <glyph glyph-name="numbersign" unicode="#" horiz-adv-x="637" 
d="M438 434l-32 -167h147l-4 -20h-147l-28 -146h-20l28 146h-167l-28 -146h-20l28 146h-147l4 20h147l32 167h-146l3 20h147l29 148h20l-29 -148h167l29 148h20l-29 -148h147l-3 -20h-148zM418 434h-167l-32 -167h167z" />
    <glyph glyph-name="dollar" unicode="$" horiz-adv-x="523" 
d="M436 49q-46 -48 -120 -60v-121h-20v119q-9 -1 -26 -1q-16 0 -38 2v-120h-20v123q-24 5 -42 12.5t-37 19.5q-22 14 -34 14q-9 0 -14 -10.5t-8 -33.5h-23q4 55 4 240h23q6 -85 37 -144t94 -76v324q-75 47 -114 93t-39 116q0 74 43 117.5t110 53.5v123h20v-121h15
q21 0 49 -4v125h20v-130q24 -9 53 -28q22 -14 34 -14q9 0 14 10.5t8 33.5h23q-5 -58 -5 -204h-23q-5 63 -30.5 112t-73.5 69v-297q57 -36 91.5 -65t54.5 -65.5t20 -85.5q0 -79 -46 -127zM232 698v-254q13 -9 41 -25l23 -14v290q-20 5 -40 5q-8 0 -24 -2zM154 513.5
q20 -29.5 58 -55.5v235q-36 -11 -57 -40t-21 -69q0 -41 20 -70.5zM296 9v275q-14 10 -59 38l-5 3v-317q20 -2 31 -2q17 0 33 3zM372 60q21 31 21 79q0 39 -19.5 70.5t-57.5 60.5v-255q35 14 56 45z" />
    <glyph glyph-name="percent" unicode="%" horiz-adv-x="742" 
d="M679 811l-585 -866l-19 13l585 866zM292.5 717.5q40.5 -43.5 40.5 -119.5q0 -75 -42 -121.5t-107 -46.5q-68 0 -108.5 43.5t-40.5 119.5q0 74 42 121t107 47q68 0 108.5 -43.5zM105 594q0 -72 21.5 -109t59.5 -37q76 0 76 148q0 72 -21 109.5t-59 37.5q-77 0 -77 -149z
M664.5 273.5q40.5 -43.5 40.5 -119.5q0 -75 -42 -121.5t-107 -46.5q-68 0 -108.5 43.5t-40.5 119.5q0 74 42 121t107 47q68 0 108.5 -43.5zM477 150q0 -72 21.5 -109t59.5 -37q76 0 76 148q0 72 -21 109.5t-59 37.5q-77 0 -77 -149z" />
    <glyph glyph-name="ampersand" unicode="&#x26;" horiz-adv-x="837" 
d="M775.5 685.5q41.5 -36.5 41.5 -98.5q0 -48 -26 -83.5t-69 -56.5q-38 -18 -148 -52q56 -24 82.5 -68.5t26.5 -101.5q0 -62 -37 -117t-106 -88.5t-162 -33.5q-87 0 -161.5 30.5t-118.5 87t-44 131.5q0 66 32.5 111.5t74.5 69t78 32.5q-49 21 -75 56t-26 73q0 33 19.5 61.5
t58 46t91.5 17.5q67 0 104 -30q18 -15 27.5 -33.5t9.5 -35.5q0 -24 -17 -38.5t-39 -14.5q-21 0 -36.5 13.5t-15.5 36.5q0 22 15 37.5t38 17.5q-5 13 -25.5 22.5t-50.5 9.5q-52 0 -84 -31.5t-32 -87.5q0 -67 51 -114q35 6 62 6q18 0 29 -6t11 -17q0 -9 -7.5 -14t-20.5 -5
q-16 0 -33 6t-40 16q-130 -39 -130 -164q0 -67 35 -116t96 -74.5t137 -25.5q71 0 131.5 22.5t96 64t35.5 96.5q0 40 -21 81t-80 64q-78 -24 -115 -38q-42 -16 -65 -36.5t-23 -50.5q0 -36 29.5 -58t62.5 -22q17 0 37 6t23 16q-19 4 -33 16t-14 35q0 24 15.5 38t39.5 14
t38.5 -15t14.5 -39q0 -40 -37 -63t-82 -23q-49 0 -86.5 29.5t-37.5 87.5q0 51 34.5 86.5t103.5 59.5l71 21q60 17 100 30t73 28q48 22 67 45t19 51q0 42 -34.5 71.5t-81.5 29.5q-25 0 -30 -9q13 -6 20.5 -19.5t7.5 -26.5q0 -21 -16.5 -35t-39.5 -14q-21 0 -37 13t-16 37
q0 36 33.5 52.5t76.5 16.5q63 0 104.5 -36.5z" />
    <glyph glyph-name="quotesingle" unicode="'" horiz-adv-x="189" 
d="M120.5 717.5q10.5 -12.5 10.5 -33.5q0 -36 -6 -73t-7 -45q-7 -36 -16 -98h-14q-7 49 -15 90q-6 34 -10 65t-4 60q0 21 10 33.5t26 13.5q15 0 25.5 -12.5z" />
    <glyph glyph-name="parenleft" unicode="(" horiz-adv-x="294" 
d="M101.5 586q-57.5 -124 -57.5 -274t57.5 -274t162.5 -220l14 13q-81 95 -115.5 210t-34.5 271t34.5 271t115.5 210l-14 13q-105 -96 -162.5 -220z" />
    <glyph glyph-name="parenright" unicode=")" horiz-adv-x="294" 
d="M192.5 586q57.5 -124 57.5 -274t-57.5 -274t-162.5 -220l-14 13q81 95 115.5 210t34.5 271t-34.5 271t-115.5 210l14 13q105 -96 162.5 -220z" />
    <glyph glyph-name="asterisk" unicode="*" horiz-adv-x="492" 
d="M433 429q0 -9 -5 -17q-9 -16 -28 -16q-15 0 -36 12q-15 9 -33 25t-37 36l-45 44q6 -26 15 -56q19 -69 20 -96q-1 -28 -12 -41t-27 -13q-15 0 -25 13t-10 41q0 17 5.5 42t13.5 54q7 22 15 56l-40 -40q-21 -21 -40.5 -39t-34.5 -27q-19 -11 -35 -11q-22 0 -31 17
q-4 7 -4 15q0 22 33 43q15 9 35 15.5t55 15.5q31 7 58 15q-45 13 -59 16q-27 8 -51 15.5t-39 15.5q-32 19 -32 43q0 9 5 17q9 16 28 16q15 0 36 -12q15 -9 34 -26t39 -38q18 -19 42 -42l-15 56q-10 36 -14.5 57.5t-4.5 39.5q0 28 11 41t26 13t25.5 -13t10.5 -41
q0 -17 -5.5 -42t-13.5 -54q-7 -22 -15 -56l40 40q21 21 40.5 39t34.5 27q19 11 35 11q23 0 31 -17q4 -7 4 -15q0 -24 -33 -43q-15 -9 -35 -15.5t-55 -15.5q-31 -7 -58 -15q46 -13 59 -16q27 -8 51 -15.5t39 -15.5q32 -19 32 -43z" />
    <glyph glyph-name="plus" unicode="+" horiz-adv-x="587" 
d="M312 370h232v-30h-232v-235h-36v235h-233v30h233v236h36v-236z" />
    <glyph glyph-name="comma" unicode="," horiz-adv-x="261" 
d="M185 82q17 -27 17 -66q0 -50 -25.5 -90t-77.5 -64l-9 18q31 13 53.5 41t22.5 57q0 12 -3 21q-16 -13 -37 -13q-27 0 -45.5 17.5t-18.5 46.5q0 27 18.5 45.5t45.5 18.5q39 0 59 -32z" />
    <glyph glyph-name="hyphen" unicode="-" horiz-adv-x="499" 
d="M430 240h-361v58h361v-58z" />
    <glyph glyph-name="period" unicode="." horiz-adv-x="252" 
d="M171 95q19 -19 19 -45t-19 -45t-45 -19t-45 19t-19 45t19 45t45 19t45 -19z" />
    <glyph glyph-name="slash" unicode="/" horiz-adv-x="372" 
d="M67 -14h-33l272 736h33z" />
    <glyph glyph-name="zero" unicode="0" horiz-adv-x="600" 
d="M430 496.5q55 -32.5 86 -92.5t31 -138q0 -80 -32 -143.5t-89.5 -100t-131.5 -36.5q-69 0 -124 32.5t-86.5 92.5t-31.5 139t31.5 142.5t89 100t132.5 36.5q70 0 125 -32.5zM219.5 480.5q-33.5 -30.5 -52 -89t-18.5 -138.5q0 -127 43 -188t111 -61q43 0 76.5 31t52 89.5
t18.5 138.5q0 126 -43 187t-111 61q-43 0 -76.5 -30.5z" />
    <glyph glyph-name="one" unicode="1" horiz-adv-x="370" 
d="M253 103q0 -47 21.5 -64.5t74.5 -17.5v-21q-108 4 -138 4q-28 0 -130 -3l-24 -1v21q53 0 79.5 18t26.5 64v242q0 48 -10 70.5t-33.5 30t-72.5 7.5v22q73 2 120.5 13t85.5 38v-423z" />
    <glyph glyph-name="two" unicode="2" horiz-adv-x="479" 
d="M354 496q40 -33 40 -93q0 -41 -21.5 -79.5t-52 -70.5t-80.5 -77q-41 -38 -61 -57.5t-36 -41.5h203q27 0 40.5 4.5t18.5 15t8 31.5h17q0 -92 4 -133q-22 5 -149 5h-234v17q17 18 58 57q57 53 95 95.5t65.5 96.5t27.5 115q0 108 -100 108q-82 0 -134 -94l-16 9
q26 54 74 89.5t123 35.5q70 0 110 -33z" />
    <glyph glyph-name="three" unicode="3" horiz-adv-x="451" 
d="M330.5 498q40.5 -31 40.5 -83q0 -55 -43.5 -99t-105.5 -66q77 -2 131 -41t54 -111t-55.5 -129t-141 -88.5t-173.5 -31.5v18q71 2 134 29.5t102 79t39 122.5q0 59 -29 97.5t-77 42.5q-4 -2 -20.5 -8.5t-26.5 -6.5q-16 0 -16 13q0 9 7.5 14t18.5 5q6 0 16.5 -1.5t18.5 -2.5
q39 30 58 67t19 77q0 46 -23 68t-64 22q-42 0 -76 -22.5t-57 -66.5l-17 8q58 125 183 125q63 0 103.5 -31z" />
    <glyph glyph-name="four" unicode="4" horiz-adv-x="494" 
d="M358 54v-195h-80v195h-261v21l325 454h16v-408h12q27 0 40.5 4.5t18.5 15t8 31.5h17q0 -84 4 -123q-13 3 -100 5zM278 121v286l-202 -286h202z" />
    <glyph glyph-name="five" unicode="5" horiz-adv-x="415" 
d="M338 419q-21 5 -139 5h-106l-12 -193q28 14 54 22t63 8q87 0 132 -42.5t45 -111.5q0 -74 -48.5 -132.5t-125 -90.5t-156.5 -32v18q61 1 114.5 27t87 77t33.5 123q0 63 -33 98.5t-93 35.5q-24 0 -41 -4t-41 -13l-10 6l19 298q20 -4 54 -4h113q27 0 40.5 4.5t18.5 15
t8 31.5h19q0 -102 4 -146z" />
    <glyph glyph-name="six" unicode="6" horiz-adv-x="517" 
d="M388 412q41 -26 66 -75.5t25 -116.5q0 -73 -29.5 -126t-79.5 -80.5t-111 -27.5q-96 0 -150 75t-54 209q0 140 53.5 237.5t130.5 149t155 66.5l4 -20q-61 -20 -109.5 -54t-85.5 -105t-47 -187q23 42 63 61.5t80 19.5q48 0 89 -26zM350 57q32 51 32 156q0 102 -30 149
t-78 47q-35 0 -69.5 -20.5t-51.5 -65.5q-1 -16 -1 -51q0 -144 34 -205t83 -61t81 51z" />
    <glyph glyph-name="seven" unicode="7" horiz-adv-x="406" 
d="M398 493q-15 -35 -52 -107q-39 -75 -63 -129.5t-41 -125t-17 -149.5q0 -20 2 -48q2 -22 2 -31q0 -23 -13 -37t-34 -14q-22 0 -33.5 16t-11.5 40q0 77 23.5 152t57 138.5t87.5 152.5l47 79h-237q-27 0 -40.5 -4.5t-18.5 -15t-8 -31.5h-17q0 99 -4 140q23 -5 149 -5h222
v-21z" />
    <glyph glyph-name="eight" unicode="8" horiz-adv-x="520" 
d="M393 332.5q31 -27.5 53.5 -66.5t22.5 -89q0 -56 -28 -99.5t-77 -67.5t-111 -24q-85 0 -143 43.5t-58 124.5q0 69 44 123t116 90q-61 50 -94 95t-33 104q0 46 24 81.5t66 55t93 19.5q71 0 118 -36t47 -101q0 -54 -33 -99t-94 -85q56 -41 87 -68.5zM189.5 675
q-26.5 -29 -26.5 -78q0 -57 32.5 -97.5t95.5 -87.5q62 59 62 160q0 60 -25 96t-71 36q-41 0 -67.5 -29zM348 39q36 35 36 96q0 47 -21.5 84.5t-51 64.5t-84.5 71q-87 -63 -87 -186q0 -71 29 -118t90 -47q53 0 89 35z" />
    <glyph glyph-name="nine" unicode="9" horiz-adv-x="509" 
d="M407 459.5q54 -69.5 54 -194.5q0 -127 -53.5 -216t-131 -136.5t-154.5 -60.5l-4 20q91 26 154 86t84 193q-23 -39 -62 -56.5t-77 -17.5q-48 0 -89 26t-66 75.5t-25 116.5q0 73 29.5 126t79.5 80.5t111 27.5q96 0 150 -69.5zM309.5 125q33.5 19 50.5 61q4 32 4 77
q0 133 -34 189.5t-83 56.5t-81 -51t-32 -156q0 -102 30 -149t78 -47q34 0 67.5 19z" />
    <glyph glyph-name="colon" unicode=":" horiz-adv-x="266" 
d="M178 509q19 -19 19 -45t-19 -45t-45 -19t-45 19t-19 45t19 45t45 19t45 -19zM178 95q19 -19 19 -45t-19 -45t-45 -19t-45 19t-19 45t19 45t45 19t45 -19z" />
    <glyph glyph-name="semicolon" unicode=";" horiz-adv-x="285" 
d="M196 82q17 -27 17 -66q0 -50 -25.5 -90t-77.5 -64l-9 18q31 13 53.5 41t22.5 57q0 12 -3 21q-16 -13 -37 -13q-27 0 -45.5 17.5t-18.5 46.5q0 27 18.5 45.5t45.5 18.5q39 0 59 -32zM189 509q19 -19 19 -45t-19 -45t-45 -19t-45 19t-19 45t19 45t45 19t45 -19z" />
    <glyph glyph-name="less" unicode="&#x3c;" horiz-adv-x="608" 
d="M534 546l-409 -191l409 -191l-17 -36l-487 227l487 227z" />
    <glyph glyph-name="equal" unicode="=" horiz-adv-x="647" 
d="M574 410h-501v30h501v-30zM574 270h-501v30h501v-30z" />
    <glyph glyph-name="greater" unicode="&#x3e;" horiz-adv-x="608" 
d="M74 546l409 -191l-409 -191l17 -36l487 227l-487 227z" />
    <glyph glyph-name="question" unicode="?" horiz-adv-x="459" 
d="M367.5 733.5q57.5 -48.5 57.5 -131.5q0 -82 -60.5 -139t-164.5 -83v-146h-20v155q92 34 124 80.5t32 113.5q0 91 -37.5 135t-102.5 44q-29 0 -55.5 -8t-42.5 -28q19 -4 30.5 -17t11.5 -34q0 -25 -16 -39.5t-39 -14.5t-38 15t-15 38q0 40 47 72q53 36 136 36
q95 0 152.5 -48.5zM236 95q19 -19 19 -45t-19 -45t-45 -19t-45 19t-19 45t19 45t45 19t45 -19z" />
    <glyph glyph-name="at" unicode="@" horiz-adv-x="878" 
d="M482 90q0 25 7 48.5t8 27.5q-29 -72 -66 -106t-88 -34q-54 0 -78.5 33t-24.5 88q0 74 35.5 152t91.5 128.5t111 50.5q61 0 72 -53l8 39q57 0 90 14l-84 -367q-6 -21 -6 -34q0 -14 7 -20t22 -6q42 0 98.5 42t97.5 120.5t41 180.5q0 131 -81.5 193.5t-209.5 62.5
q-120 0 -227.5 -69.5t-172 -186t-64.5 -249.5q0 -147 81.5 -217.5t218.5 -70.5q116 0 206 54l7 -13q-39 -27 -94 -43t-120 -16q-146 0 -232.5 75.5t-86.5 228.5q0 134 65 255t176 195.5t242 74.5q140 0 226 -68t86 -207q0 -107 -44.5 -190.5t-112 -130t-133.5 -46.5
q-72 0 -72 64zM454 113q39 57 64 155l26 126q-2 32 -17.5 46.5t-44.5 14.5q-42 0 -78 -45.5t-57.5 -116t-21.5 -140.5q0 -97 52 -97q38 0 77 57z" />
    <glyph glyph-name="A" unicode="A" horiz-adv-x="630" 
d="M636 20v-20q-40 3 -107 3q-86 0 -128 -3v20q38 2 54.5 9.5t16.5 27.5q0 17 -12 47l-61 164h-242l-41 -106q-20 -54 -20 -82q0 -31 21.5 -45t65.5 -15v-20q-57 3 -115 3q-45 0 -75 -3v20q50 12 79 87l235 606h16l244 -629q24 -62 69 -64zM391 288l-112 299l-114 -299h226z
" />
    <glyph glyph-name="B" unicode="B" horiz-adv-x="623" 
d="M531 310.5q47 -48.5 47 -116.5q0 -57 -29 -101t-83 -68.5t-128 -24.5q-27 0 -46 1q-64 2 -126 2q-82 0 -124 -3v20q36 2 52.5 8t22.5 23t6 55v496q0 38 -6 55t-22.5 23t-52.5 8v20q42 -3 122 -3l108 1q19 1 43 1q102 0 156.5 -43t54.5 -114q0 -58 -36.5 -104t-115.5 -70
v-2q110 -15 157 -63.5zM243.5 681q-15.5 -7 -21.5 -25t-6 -54v-226h67q82 0 114.5 44.5t32.5 118.5q0 75 -33 112t-107 37q-31 0 -46.5 -7zM478 198q0 79 -42.5 120t-135.5 41h-84v-253q0 -36 6 -53t21.5 -23.5t47.5 -6.5q187 0 187 175z" />
    <glyph glyph-name="C" unicode="C" horiz-adv-x="688" 
d="M473 705q42 -17 82 -48q11 -9 19 -9q20 0 26 60h23q-4 -65 -4 -230h-23q-11 65 -20 93.5t-30 54.5q-30 39 -76.5 58.5t-100.5 19.5q-65 0 -113.5 -43t-75.5 -122.5t-27 -186.5q0 -109 29 -187t80.5 -118.5t116.5 -40.5q50 0 97 19t74 57q20 28 29 60t17 98h23
q0 -172 4 -240h-23q-3 32 -8.5 45.5t-15.5 13.5q-8 0 -21 -8q-45 -32 -86 -48.5t-99 -16.5q-95 0 -166.5 43t-111 124.5t-39.5 194.5q0 110 40.5 195t113 132t164.5 47q60 0 102 -17z" />
    <glyph glyph-name="D" unicode="D" horiz-adv-x="723" 
d="M580 619.5q88 -88.5 88 -257.5q0 -109 -43 -191t-124.5 -126.5t-194.5 -44.5l-58 1q-56 2 -82 2q-82 0 -124 -3v20q36 2 52.5 8t22.5 23t6 55v496q0 38 -6 55t-22.5 23t-52.5 8v20q35 -3 97 -3l85 1q68 2 91 2q177 0 265 -88.5zM243.5 683q-15.5 -7 -21.5 -25t-6 -54
v-500q0 -36 6 -54t21.5 -25t47.5 -7q106 0 167 38.5t85.5 112.5t24.5 189t-27 187.5t-87.5 108.5t-163.5 36q-31 0 -46.5 -7z" />
    <glyph glyph-name="E" unicode="E" horiz-adv-x="609" 
d="M561 0q-68 3 -229 3q-192 0 -290 -3v20q36 2 52.5 8t22.5 23t6 55v496q0 38 -6 55t-22.5 23t-52.5 8v20q98 -3 290 -3q147 0 209 3q-7 -66 -7 -118q0 -39 3 -62h-23q-7 65 -18 96.5t-37 46t-79 14.5h-83q-36 0 -52.5 -5.5t-22.5 -22.5t-6 -55v-236h66q35 0 54 16.5
t25.5 39t10.5 56.5l3 20h23q-3 -42 -3 -94v-48q0 -51 6 -142h-23q-1 7 -6 48.5t-27.5 62.5t-62.5 21h-66v-240q0 -38 6 -55t22.5 -22.5t52.5 -5.5h73q62 0 94.5 16.5t47.5 53t22 107.5h23q-3 -27 -3 -72q0 -57 7 -128z" />
    <glyph glyph-name="F" unicode="F" horiz-adv-x="569" 
d="M534 580q0 -50 3 -82h-23q-8 77 -20 114.5t-42 55t-92 17.5h-63q-36 0 -52.5 -5.5t-22.5 -22.5t-6 -55v-246h73q35 0 54 16.5t25.5 39t10.5 56.5l3 20h23q-3 -42 -3 -94v-48q0 -51 6 -142h-23q-1 7 -6 48.5t-27.5 62.5t-62.5 21h-73v-230q0 -38 8 -55t28 -23t65 -8v-20
q-52 3 -147 3q-86 0 -128 -3v20q36 2 52.5 8t22.5 23t6 55v496q0 38 -6 55t-22.5 23t-52.5 8v20q98 -3 290 -3q147 0 209 3q-7 -71 -7 -128z" />
    <glyph glyph-name="G" unicode="G" horiz-adv-x="703" 
d="M473 705.5q38 -16.5 83 -48.5q13 -10 20 -10q19 0 25 61h23q-4 -65 -4 -230h-23q-9 53 -19 87.5t-31 60.5q-29 36 -75.5 57t-97.5 21q-66 0 -116 -43t-77 -122.5t-27 -185.5q0 -180 57.5 -263.5t180.5 -83.5q60 0 104 31q18 12 23.5 23.5t5.5 31.5v96q0 42 -8 61t-28 26
t-65 9v20q52 -3 141 -3q68 0 104 3v-20q-23 -2 -33.5 -8t-14 -23t-3.5 -55v-198h-20q-1 20 -8 38.5t-19 18.5q-6 0 -12 -3t-21 -14q-35 -27 -72.5 -40.5t-83.5 -13.5q-103 0 -176.5 42.5t-112.5 122.5t-39 191q0 114 41.5 200.5t114.5 133t166 46.5q59 0 97 -16.5z" />
    <glyph glyph-name="H" unicode="H" horiz-adv-x="757" 
d="M662.5 680q-16.5 -6 -22.5 -23t-6 -55v-496q0 -38 6 -55t22.5 -23t52.5 -8v-20q-42 3 -128 3q-81 0 -127 -3v20q36 2 52.5 8t22.5 23t6 55v240h-325v-240q0 -38 6 -55t22.5 -23t52.5 -8v-20q-46 3 -127 3q-86 0 -128 -3v20q36 2 52.5 8t22.5 23t6 55v496q0 38 -6 55
t-22.5 23t-52.5 8v20q42 -3 128 -3q80 0 127 3v-20q-36 -2 -52.5 -8t-22.5 -23t-6 -55v-236h325v236q0 38 -6 55t-22.5 23t-52.5 8v20q46 -3 127 -3q86 0 128 3v-20q-36 -2 -52.5 -8z" />
    <glyph glyph-name="I" unicode="I" horiz-adv-x="339" 
d="M297 688q-36 -2 -52.5 -8t-22.5 -23t-6 -55v-496q0 -38 6 -55t22.5 -23t52.5 -8v-20q-46 3 -127 3q-86 0 -128 -3v20q36 2 52.5 8t22.5 23t6 55v496q0 38 -6 55t-22.5 23t-52.5 8v20q42 -3 128 -3q80 0 127 3v-20z" />
    <glyph glyph-name="J" unicode="J" horiz-adv-x="326" 
d="M-20 -169q70 2 103.5 52t33.5 169v550q0 38 -6 55t-22.5 23t-52.5 8v20q42 -3 126 -3q82 0 129 3v-20q-36 -2 -52.5 -8t-22.5 -23t-6 -55v-366q0 -85 -3 -150.5t-14 -110.5q-18 -73 -73.5 -118t-139.5 -45v19z" />
    <glyph glyph-name="K" unicode="K" horiz-adv-x="655" 
d="M603.5 41.5q20.5 -14.5 50.5 -21.5v-20q-48 3 -120 3q-54 0 -103 -3v20q24 1 35 6t11 15t-10 24l-146 220q-29 44 -49 57.5t-56 15.5v-252q0 -38 6 -55t22.5 -23t52.5 -8v-20q-46 3 -127 3q-86 0 -128 -3v20q36 2 52.5 8t22.5 23t6 55v496q0 38 -6 55t-22.5 23t-52.5 8
v20q42 -3 128 -3q80 0 127 3v-20q-36 -2 -52.5 -8t-22.5 -23t-6 -55v-224q73 3 114 56l96 122q51 63 51 96q0 35 -62 36v20q57 -3 115 -3q55 0 85 3v-20q-33 -5 -62 -21.5t-56 -51.5l-163 -209l232 -325q17 -25 37.5 -39.5z" />
    <glyph glyph-name="L" unicode="L" horiz-adv-x="588" 
d="M297 688q-36 -2 -52.5 -8t-22.5 -23t-6 -55v-496q0 -38 6 -55t22.5 -22.5t52.5 -5.5h73q62 0 94.5 17.5t47.5 56.5t22 113h23q-3 -31 -3 -82q0 -57 7 -128q-68 3 -229 3q-192 0 -290 -3v20q36 2 52.5 8t22.5 23t6 55v496q0 38 -6 55t-22.5 23t-52.5 8v20q42 -3 128 -3
q80 0 127 3v-20z" />
    <glyph glyph-name="M" unicode="M" horiz-adv-x="871" 
d="M776.5 680q-16.5 -6 -22.5 -23t-6 -55v-496q0 -38 6 -55t22.5 -23t52.5 -8v-20q-46 3 -127 3q-86 0 -128 -3v20q36 2 52.5 8t22.5 23t6 55v536l-241 -647h-16l-252 649v-528q0 -39 6.5 -58t25.5 -27.5t59 -10.5v-20q-36 3 -102 3q-60 0 -93 -3v20q35 2 52 10.5t23 28
t6 57.5v486q0 38 -6 55t-22.5 23t-52.5 8v20q33 -3 93 -3q52 0 85 3l220 -579l215 576h47q81 0 127 3v-20q-36 -2 -52.5 -8z" />
    <glyph glyph-name="N" unicode="N" horiz-adv-x="706" 
d="M670 688q-35 -2 -52 -10.5t-23 -28t-6 -57.5v-597h-23l-420 649v-528q0 -39 6.5 -58t25.5 -27.5t59 -10.5v-20q-36 3 -102 3q-60 0 -93 -3v20q35 2 52 10.5t23 28t6 57.5v486q0 38 -6 55t-22.5 23t-52.5 8v20q33 -3 93 -3q45 0 78 3l353 -544v428q0 39 -6.5 58
t-25.5 27.5t-59 10.5v20q36 -3 102 -3q60 0 93 3v-20z" />
    <glyph glyph-name="O" unicode="O" horiz-adv-x="741" 
d="M537.5 679q71.5 -43 111 -124.5t39.5 -194.5q0 -110 -40.5 -195t-113 -132t-164.5 -47q-95 0 -166.5 43t-111 124.5t-39.5 194.5q0 110 40.5 195t113 132t164.5 47q95 0 166.5 -43zM254.5 659.5q-48.5 -44.5 -75 -124.5t-26.5 -183q0 -104 29.5 -183t79.5 -122t112 -43
q64 0 112.5 44.5t75 124.5t26.5 183q0 104 -29.5 183t-79.5 122t-112 43q-64 0 -112.5 -44.5z" />
    <glyph glyph-name="P" unicode="P" horiz-adv-x="585" 
d="M216 286v-180q0 -38 8 -55t28 -23t65 -8v-20q-52 3 -147 3q-86 0 -128 -3v20q36 2 52.5 8t22.5 23t6 55v496q0 38 -6 55t-22.5 23t-52.5 8v20q42 -3 122 -3l108 1q19 1 43 1q117 0 179 -53.5t62 -143.5q0 -55 -24.5 -105.5t-83 -84.5t-155.5 -34h-77zM243.5 681
q-15.5 -7 -21.5 -25t-6 -54v-296h67q98 0 135.5 52.5t37.5 140.5q0 97 -38.5 143t-127.5 46q-31 0 -46.5 -7z" />
    <glyph glyph-name="Q" unicode="Q" horiz-adv-x="741" 
d="M763 -29q-22 -76 -63 -114q-49 -45 -135 -45q-46 0 -90 14t-111 44q-74 32 -121 48l-24 7q-43 -15 -83 -15q-46 0 -46 20q0 21 54 21q35 0 75 -8q32 9 74 28q26 12 39 17q-85 8 -147.5 53t-97 123.5t-34.5 183.5q0 110 40.5 195t113 132t164.5 47q95 0 166.5 -43
t111 -124.5t39.5 -194.5q0 -104 -36 -185.5t-101 -130t-149 -56.5v-1q-24 -3 -41.5 -8.5t-46.5 -17.5q-36 -16 -60 -23q111 -22 188.5 -35t128.5 -13q71 0 112.5 20.5t64.5 66.5zM182.5 169q29.5 -79 79.5 -122t112 -43q64 0 112.5 44.5t75 124.5t26.5 183q0 104 -29.5 183
t-79.5 122t-112 43q-64 0 -112.5 -44.5t-75 -124.5t-26.5 -183q0 -104 29.5 -183z" />
    <glyph glyph-name="R" unicode="R" horiz-adv-x="648" 
d="M660 50q-23 -34 -46 -49t-61 -15q-41 0 -67.5 24t-39.5 84l-22 100q-12 52 -22.5 80t-31.5 45t-59 17h-95v-230q0 -38 6 -55t22.5 -23t52.5 -8v-20q-46 3 -127 3q-86 0 -128 -3v20q36 2 52.5 8t22.5 23t6 55v496q0 38 -6 55t-22.5 23t-52.5 8v20q42 -3 122 -3l108 1
q19 1 43 1q116 0 178.5 -48.5t62.5 -125.5q0 -39 -18.5 -78.5t-62 -71t-113.5 -42.5l12 -2q66 -11 96 -40t44 -92l25 -102q10 -46 21 -64t30 -18q17 0 28.5 9t26.5 29zM243.5 681q-15.5 -7 -21.5 -25t-6 -54v-246h67q99 0 136 44t37 122q0 82 -39 124t-127 42
q-31 0 -46.5 -7z" />
    <glyph glyph-name="S" unicode="S" horiz-adv-x="540" 
d="M325.5 709.5q25.5 -9.5 52.5 -27.5q22 -14 34 -14q9 0 14 10.5t8 33.5h23q-5 -58 -5 -204h-23q-6 81 -46.5 136.5t-117.5 55.5q-54 0 -88 -32.5t-34 -83.5q0 -38 17.5 -66t44.5 -48t77 -51l29 -18q63 -39 99.5 -68.5t58.5 -67.5t22 -89q0 -91 -60 -140.5t-152 -49.5
q-48 0 -78.5 10t-58.5 27q-22 14 -34 14q-9 0 -14 -10.5t-8 -33.5h-23q4 55 4 240h23q7 -101 50 -164t132 -63q54 0 92 33.5t38 99.5q0 56 -37.5 95t-118.5 88q-59 36 -95.5 64t-59.5 67.5t-23 92.5q0 84 54 128.5t134 44.5q44 0 69.5 -9.5z" />
    <glyph glyph-name="T" unicode="T" horiz-adv-x="621" 
d="M585 580q0 -50 3 -82h-23q-8 77 -20 114.5t-42 55t-92 17.5h-54v-569q0 -42 8 -61t28 -26t65 -9v-20q-52 3 -147 3q-100 0 -148 -3v20q45 2 65 9t28 26t8 61v569h-54q-62 0 -92 -17.5t-42 -55t-20 -114.5h-23q3 32 3 82q0 57 -7 128q83 -3 282 -3q198 0 281 3
q-7 -71 -7 -128z" />
    <glyph glyph-name="U" unicode="U" horiz-adv-x="682" 
d="M655 688q-35 -2 -52 -10.5t-23 -28t-6 -57.5v-301q0 -72 -9.5 -123.5t-31.5 -88.5q-25 -43 -73.5 -68t-109.5 -25q-110 0 -168 54q-44 41 -59 93t-15 155v314q0 38 -6 55t-22.5 23t-52.5 8v20q42 -3 128 -3q81 0 127 3v-20q-36 -2 -52.5 -8t-22.5 -23t-6 -55v-331
q0 -80 11 -133t45.5 -85t101.5 -32q106 0 149 68t43 191v312q0 54 -19.5 74t-71.5 22v20q36 -3 102 -3q60 0 93 3v-20z" />
    <glyph glyph-name="V" unicode="V" horiz-adv-x="630" 
d="M637 708v-20q-50 -12 -79 -87l-235 -606h-8h-8l-244 629q-24 62 -69 64v20q40 -3 107 -3q86 0 128 3v-20q-38 -2 -54.5 -9.5t-16.5 -27.5q0 -17 12 -47l181 -481l163 423q20 54 20 82q0 31 -21.5 45t-65.5 15v20q57 -3 115 -3q45 0 75 3z" />
    <glyph glyph-name="W" unicode="W" horiz-adv-x="905" 
d="M907 708v-20q-56 -13 -79 -87l-189 -606h-8h-8l-174 515l-159 -515h-8h-8l-212 629q-21 62 -69 64v20q41 -3 107 -3q72 0 108 3v-20q-27 -2 -38 -10t-11 -25q0 -16 11 -49l146 -446l122 387l-27 79q-20 62 -59 64v20q36 -3 97 -3q86 0 128 3v-20q-38 -2 -53 -8.5
t-15 -27.5q0 -18 10 -48l144 -445l123 387q16 49 16 81q0 33 -20 46.5t-65 14.5v20q57 -3 115 -3q45 0 75 3z" />
    <glyph glyph-name="X" unicode="X" horiz-adv-x="634" 
d="M592 32q13 -10 35 -11v-21q-68 4 -86 4q-33 0 -141 -4v21q39 0 55 3.5t16 12.5q0 8 -7 18l-171 262l-108 -161q-38 -57 -38 -88q0 -26 23 -36.5t66 -11.5v-20q-57 3 -135 3q-55 0 -85 -3v20q30 4 57.5 27t55.5 65l151 225l-196 300q-19 29 -32 39t-35 11v21q68 -4 86 -4
q67 0 141 4v-21q-36 0 -51.5 -5.5t-15.5 -16.5q0 -6 9 -22l156 -238l98 147q43 63 43 96q0 21 -19 30t-58 10v20q57 -3 115 -3q55 0 85 3v-20q-30 -4 -57.5 -27t-55.5 -65l-140 -209l207 -316q19 -29 32 -39z" />
    <glyph glyph-name="Y" unicode="Y" horiz-adv-x="591" 
d="M588 708v-20q-20 -5 -39 -25.5t-41 -63.5l-157 -311v-182q0 -38 6 -55t22.5 -23t52.5 -8v-20q-46 3 -127 3q-86 0 -128 -3v20q36 2 52.5 8t22.5 23t6 55v150l-203 375q-18 33 -31.5 44.5t-26.5 11.5v21q39 -3 88 -3q97 0 140 3v-21q-70 0 -70 -38q0 -15 10 -35l166 -319
l128 254q27 53 27 86q0 28 -22 40t-66 13v20q57 -3 115 -3q45 0 75 3z" />
    <glyph glyph-name="Z" unicode="Z" horiz-adv-x="594" 
d="M550 688l-399 -665h196q62 0 94.5 17.5t47.5 56.5t22 113h23q-3 -31 -3 -82q0 -57 7 -128q-74 3 -249 3q-171 0 -247 -3v20l402 665h-195q-62 0 -94.5 -17.5t-47.5 -56.5t-22 -113h-23q3 32 3 82q0 57 -7 128q74 -3 249 -3q170 0 243 3v-20z" />
    <glyph glyph-name="bracketleft" unicode="[" horiz-adv-x="296" 
d="M263 753h-81v-915h81v-19h-171v953h171v-19z" />
    <glyph glyph-name="backslash" unicode="\" horiz-adv-x="372" 
d="M305 -14h33l-272 736h-33z" />
    <glyph glyph-name="bracketright" unicode="]" horiz-adv-x="296" 
d="M33 753h81v-915h-81v-19h171v953h-171v-19z" />
    <glyph glyph-name="asciicircum" unicode="^" horiz-adv-x="536" 
d="M350.5 418.5q49.5 -51.5 113.5 -82.5l-8 -14q-60 22 -117 54.5t-91 65.5q-28 -33 -74 -65.5t-94 -54.5l-8 14q64 31 113.5 82.5t73.5 109.5h18q24 -58 73.5 -109.5z" />
    <glyph glyph-name="underscore" unicode="_" horiz-adv-x="591" 
d="M522 -155h-453v40h453v-40z" />
    <glyph glyph-name="grave" unicode="`" horiz-adv-x="283" 
d="M86 820q21 0 38 -22q17 -23 40 -69q32 -62 69 -121l-11 -9q-35 36 -64.5 63.5t-36.5 33.5q-37 30 -57 55q-14 19 -14 34q0 16 14 28q8 7 22 7z" />
    <glyph glyph-name="a" unicode="a" horiz-adv-x="498" 
d="M69.5 24.5q-30.5 31.5 -30.5 87.5q0 45 24.5 74t58 46t88.5 36q56 19 83 35t27 43v62q0 58 -24.5 79.5t-68.5 21.5q-70 0 -99 -36q20 -5 33.5 -21t13.5 -40q0 -25 -16 -39.5t-41 -14.5q-28 0 -42 17.5t-14 42.5q0 24 11.5 40t34.5 32q24 17 61 28t81 11q78 0 118 -37
q25 -23 33.5 -55.5t8.5 -85.5v-278q0 -25 7 -36t24 -11q12 0 22.5 5.5t22.5 15.5l11 -17q-26 -20 -44.5 -28.5t-46.5 -8.5q-48 0 -67 24t-19 65q-30 -50 -69 -69.5t-88 -19.5q-63 0 -93.5 31.5zM320 109v196q-9 -14 -25 -23t-49 -24q-38 -16 -61.5 -30.5t-40.5 -39.5
t-17 -64q0 -45 22 -68t58 -23q66 0 113 76z" />
    <glyph glyph-name="b" unicode="b" horiz-adv-x="563" 
d="M463.5 459q52.5 -70 52.5 -202q0 -87 -30 -148t-80.5 -92t-112.5 -31q-37 0 -71.5 15t-60.5 43l-71 -60l-17 7q7 25 7 58v614q0 46 -17 67t-59 21v21q32 -3 62 -3q63 0 104 14v-361q22 51 63.5 79t92.5 28q85 0 137.5 -70zM385.5 69.5q33.5 60.5 33.5 187.5
q0 122 -30 182t-92 60q-42 0 -77 -32.5t-50 -91.5v-317q23 -24 53 -36.5t62 -12.5q67 0 100.5 60.5z" />
    <glyph glyph-name="c" unicode="c" horiz-adv-x="486" 
d="M395 497q47 -31 47 -77q0 -26 -15 -41t-38 -15t-39 13.5t-16 36.5q0 21 12 35.5t30 19.5q-10 18 -35.5 30t-54.5 12q-37 0 -69 -23.5t-53 -78t-21 -143.5q0 -124 40 -180.5t104 -56.5q43 0 81.5 25t63.5 78l19 -7q-17 -57 -63.5 -98t-120.5 -41q-62 0 -112.5 32
t-79.5 92.5t-29 140.5q0 81 29.5 144t82.5 98.5t121 35.5q67 0 116 -32z" />
    <glyph glyph-name="d" unicode="d" horiz-adv-x="581" 
d="M501 42q17 -21 59 -21v-21q-31 3 -62 3q-63 0 -104 -14v89q-18 -45 -54 -68.5t-88 -23.5q-96 0 -150.5 69t-53.5 202q0 87 30.5 148.5t82 92.5t113.5 31q38 0 69.5 -14.5t50.5 -44.5v194q0 46 -17 67t-59 21v21q32 -3 62 -3q63 0 104 14v-675q0 -46 17 -67zM351 46
q31 30 43 85v298q-27 77 -112 77q-62 0 -100 -63.5t-37 -185.5q-1 -120 34 -180.5t102 -60.5q39 0 70 30z" />
    <glyph glyph-name="e" unicode="e" horiz-adv-x="506" 
d="M463 120q-18 -55 -67.5 -94.5t-119.5 -39.5q-71 0 -123 32.5t-79.5 91t-27.5 135.5q0 87 28 151t79 98.5t119 34.5q90 0 138.5 -54.5t48.5 -165.5h-313q-3 -28 -3 -64q0 -66 21.5 -115t57 -75.5t74.5 -26.5q48 0 85 23t62 77zM187 464q-34 -46 -42 -136h218
q2 78 -22.5 130t-72.5 52q-47 0 -81 -46z" />
    <glyph glyph-name="f" unicode="f" horiz-adv-x="332" 
d="M363 755q31 -25 31 -62q0 -23 -15 -38t-38 -15t-39 14.5t-16 39.5q0 21 11.5 34t30.5 17q-3 10 -16 16t-33 6q-22 0 -39 -10t-26 -27q-11 -20 -14.5 -59t-3.5 -131v-26h107v-20h-107v-391q0 -46 26.5 -64t79.5 -18v-21l-24 1q-102 3 -130 3q-26 0 -118 -4v21
q42 0 59 15.5t17 56.5v401h-80v20h80q0 88 11 136t40 82q20 23 51 36.5t68 13.5q52 0 87 -27z" />
    <glyph glyph-name="g" unicode="g" horiz-adv-x="528" 
d="M440.5 437q-12.5 12 -12.5 35q0 20 10 46q-26 -11 -41 -24.5t-27 -33.5q23 -35 23 -89q0 -79 -48 -118.5t-127 -39.5h-1q-33 -19 -50 -35t-17 -36q0 -32 48 -32h125q68 0 112.5 -29.5t44.5 -88.5q0 -48 -31 -89t-91 -66t-145 -25q-87 0 -145.5 26.5t-58.5 78.5
q0 34 27.5 59t76.5 39l6 -16q-22 -7 -35 -28t-13 -47q0 -46 41.5 -70.5t111.5 -24.5q77 0 132 29.5t55 91.5q0 36 -25.5 56t-90.5 20h-74q-59 0 -94.5 15t-35.5 60q0 31 22.5 59t74.5 55q-66 7 -105.5 46t-39.5 110q0 79 48 118.5t127 39.5q94 0 139 -52q19 27 48 44.5
t58 17.5q26 0 42 -15t16 -43t-15.5 -42t-34.5 -14q-18 0 -30.5 12zM278.5 262.5q20.5 31.5 20.5 108.5t-20.5 108.5t-60.5 31.5t-60.5 -31.5t-20.5 -108.5t20.5 -108.5t60.5 -31.5t60.5 31.5z" />
    <glyph glyph-name="h" unicode="h" horiz-adv-x="588" 
d="M186 409q25 63 69.5 91.5t100.5 28.5q70 0 106 -38q19 -20 27 -50t8 -81v-267q0 -41 17 -56.5t59 -15.5v-21q-92 4 -120 4t-112 -4v21q37 0 51.5 15.5t14.5 56.5v289q0 56 -16 85.5t-65 29.5q-41 0 -72.5 -23t-49.5 -64.5t-18 -93.5v-223q0 -41 14.5 -56.5t51.5 -15.5
v-21q-84 4 -112 4t-120 -4v21q42 0 59 15.5t17 56.5v570q0 46 -17 67t-59 21v21q32 -3 62 -3q63 0 104 14v-374z" />
    <glyph glyph-name="i" unicode="i" horiz-adv-x="293" 
d="M188 746q19 -19 19 -45t-19 -45t-45 -19t-45 19t-19 45t19 45t45 19t45 -19zM195 93q0 -41 17 -56.5t59 -15.5v-21q-92 4 -121 4t-121 -4v21q42 0 59 15.5t17 56.5v313q0 46 -17 67t-59 21v21q32 -3 62 -3q63 0 104 14v-433z" />
    <glyph glyph-name="j" unicode="j" horiz-adv-x="267" 
d="M-26 -173q61 3 92.5 53t31.5 139v387q0 46 -17 67t-59 21v21q31 -3 62 -3q63 0 104 14v-411q0 -166 -72 -242q-27 -28 -63.5 -44.5t-78.5 -16.5v15zM179 746q19 -19 19 -45t-19 -45t-45 -19t-45 19t-19 45t19 45t45 19t45 -19z" />
    <glyph glyph-name="k" unicode="k" horiz-adv-x="550" 
d="M507 36q15 -12 36 -15v-21q-60 4 -81 4q-27 0 -111 -4v21q14 0 22.5 5.5t8.5 13.5t-6 15l-115 168q-17 25 -32.5 33.5t-42.5 10.5v-174q0 -41 14.5 -56.5t51.5 -15.5v-21q-84 4 -111 4q-29 0 -121 -4v21q42 0 59 15.5t17 56.5v571q0 46 -17 67t-59 21v21q32 -3 62 -3
q63 0 104 14v-496q29 4 48.5 13.5t37.5 27.5l74 77q32 33 32 55q0 17 -20.5 25.5t-53.5 8.5v20q70 -4 113 -4q47 0 87 4v-20q-49 -4 -90 -47l-122 -128l181 -247q19 -25 34 -37z" />
    <glyph glyph-name="l" unicode="l" horiz-adv-x="286" 
d="M188 93q0 -41 17 -56.5t59 -15.5v-21q-92 4 -121 4t-121 -4v21q42 0 59 15.5t17 56.5v571q0 46 -17 67t-59 21v21q31 -3 62 -3q63 0 104 14v-691z" />
    <glyph glyph-name="m" unicode="m" horiz-adv-x="888" 
d="M814 36.5q17 -15.5 59 -15.5v-21q-92 4 -120 4t-112 -4v21q37 0 51.5 15.5t14.5 56.5v289q0 38 -4.5 61.5t-21 38.5t-50.5 15q-38 0 -69 -24t-48.5 -65.5t-17.5 -91.5v-223q0 -41 17 -56.5t59 -15.5v-21q-92 4 -120 4t-112 -4v21q37 0 51.5 15.5t14.5 56.5v289
q0 38 -4.5 61.5t-21 38.5t-50.5 15q-38 0 -69 -24t-48.5 -66t-17.5 -92v-222q0 -41 14.5 -56.5t51.5 -15.5v-21q-84 4 -112 4t-120 -4v21q42 0 59 15.5t17 56.5v313q0 46 -17 67t-59 21v21q32 -3 62 -3q63 0 104 14v-118q24 62 68 91.5t96 29.5q68 0 104 -38q25 -26 31 -80
q25 63 69 90.5t97 27.5q68 0 104 -38q18 -20 25.5 -51t7.5 -80v-267q0 -41 17 -56.5z" />
    <glyph glyph-name="n" unicode="n" horiz-adv-x="597" 
d="M471 491q19 -20 27 -50t8 -81v-267q0 -41 17 -56.5t59 -15.5v-21q-92 4 -120 4t-112 -4v21q37 0 51.5 15.5t14.5 56.5v289q0 56 -16 85.5t-65 29.5q-41 0 -73 -24t-49.5 -65.5t-17.5 -92.5v-222q0 -41 14.5 -56.5t51.5 -15.5v-21q-84 4 -112 4t-120 -4v21q42 0 59 15.5
t17 56.5v313q0 46 -17 67t-59 21v21q32 -3 62 -3q63 0 104 14v-118q25 64 69.5 92.5t100.5 28.5q70 0 106 -38z" />
    <glyph glyph-name="o" unicode="o" horiz-adv-x="548" 
d="M438.5 461.5q62.5 -67.5 62.5 -204.5t-62.5 -204t-164.5 -67t-164.5 67t-62.5 204t62.5 204.5t164.5 67.5t164.5 -67.5zM179 447.5q-35 -61.5 -35 -190.5t35 -190t95 -61t95 61t35 190t-35 190.5t-95 61.5t-95 -61.5z" />
    <glyph glyph-name="p" unicode="p" horiz-adv-x="581" 
d="M443.5 500q42.5 -29 66.5 -85t24 -134q0 -77 -24.5 -144t-76 -109t-128.5 -42q-38 0 -69 15t-48 39v-128q0 -41 24 -56.5t72 -15.5v-21l-23 1q-93 3 -121 3q-24 0 -108 -4v21q37 0 51.5 13.5t14.5 48.5v504q0 46 -17 67t-59 21v21q31 -3 62 -3q63 0 104 14v-106
q22 52 64 80.5t96 28.5q53 0 95.5 -29zM437 267q0 232 -116 232q-45 0 -81 -32.5t-52 -93.5v-300q14 -29 41 -46.5t65 -17.5q143 0 143 258z" />
    <glyph glyph-name="q" unicode="q" horiz-adv-x="563" 
d="M497.5 -146.5q14.5 -13.5 51.5 -13.5v-21q-84 4 -108 4q-28 0 -121 -3l-23 -1v21q48 0 72 15.5t24 56.5v172q-20 -47 -56.5 -72.5t-83.5 -25.5q-59 0 -105.5 30t-73.5 91t-27 150q0 88 28 149.5t76.5 92t109.5 30.5q51 0 85 -17.5t56 -55.5l71 75l17 -7q-7 -25 -7 -58
v-564q0 -35 14.5 -48.5zM349.5 46q30.5 30 43.5 85v309q-19 33 -51 49.5t-73 16.5q-60 0 -92.5 -62t-32.5 -187q0 -120 35.5 -180.5t102.5 -60.5q37 0 67.5 30z" />
    <glyph glyph-name="r" unicode="r" horiz-adv-x="445" 
d="M405.5 506q25.5 -23 25.5 -56q0 -26 -15.5 -44.5t-41.5 -18.5q-22 0 -37.5 14t-15.5 38q0 33 34 54q-7 10 -21 10q-39 0 -71 -30.5t-50 -74.5t-18 -83v-212q0 -46 26.5 -64t79.5 -18v-21l-24 1q-102 3 -130 3q-26 0 -118 -4v21q42 0 59 15.5t17 56.5v313q0 46 -17 67
t-59 21v21q32 -3 62 -3q63 0 104 14v-125q18 50 57.5 89t87.5 39q40 0 65.5 -23z" />
    <glyph glyph-name="s" unicode="s" horiz-adv-x="447" 
d="M272 518q28 -11 45 -26q11 -8 18 -8q18 0 22 44h23q-4 -49 -4 -170h-23q-11 66 -42.5 109t-93.5 43q-36 0 -59 -20.5t-23 -56.5q0 -35 24 -58.5t77 -56.5q9 -5 27 -17q46 -30 74 -53t45.5 -53t17.5 -69q0 -66 -49.5 -103t-121.5 -37q-45 0 -79 14q-22 11 -41 27
q-4 4 -9 4q-7 0 -12.5 -10t-8.5 -28h-23q4 57 4 200h23q11 -94 40 -140.5t99 -46.5q35 0 62 23t27 72q0 39 -26.5 66t-86.5 65q-49 31 -75.5 51t-44.5 49t-18 68q0 63 42 96t106 33q36 0 64 -11z" />
    <glyph glyph-name="t" unicode="t" horiz-adv-x="354" 
d="M190 514h148v-20h-148v-387q0 -45 16.5 -65t47.5 -20t53 25t37 82l20 -5q-25 -138 -130 -138q-34 0 -56 8t-39 25q-22 22 -30.5 54t-8.5 86v335h-96v20h96v153q56 2 90 14v-167z" />
    <glyph glyph-name="u" unicode="u" horiz-adv-x="581" 
d="M483 108q0 -46 17 -67t59 -21v-21q-31 3 -62 3q-63 0 -104 -14v118q-24 -62 -68 -91t-96 -29q-68 0 -104 38q-18 20 -25.5 51t-7.5 80v251q0 46 -17 67t-59 21v21q31 -3 62 -3q63 0 104 14v-393q0 -38 4.5 -61.5t21 -38.5t50.5 -15q38 0 69 24t48.5 65.5t17.5 91.5v207
q0 46 -17 67t-59 21v21q31 -3 62 -3q63 0 104 14v-418z" />
    <glyph glyph-name="v" unicode="v" horiz-adv-x="489" 
d="M486 515v-20q-20 -2 -35.5 -18t-29.5 -52l-164 -430h-17l-184 443q-15 34 -29 45t-29 11v21q52 -4 88 -4q77 0 130 4v-21q-37 0 -54 -5.5t-17 -28.5q0 -14 11 -44l123 -304l110 289q11 30 11 47q0 23 -17.5 33.5t-56.5 13.5v20q52 -3 84 -3q44 0 76 3z" />
    <glyph glyph-name="w" unicode="w" horiz-adv-x="770" 
d="M767 515v-20q-21 -3 -37 -18.5t-28 -51.5l-145 -430h-17l-158 402l-143 -402h-17l-164 443q-14 35 -28.5 45.5t-29.5 10.5v21q39 -6 88 -6q50 0 130 6v-21q-37 0 -53.5 -6t-16.5 -31q0 -18 10 -47l100 -288l144 397h23l153 -404l94 286q9 27 9 45q0 24 -17 35t-57 14v20
q53 -3 84 -3q44 0 76 3z" />
    <glyph glyph-name="x" unicode="x" horiz-adv-x="519" 
d="M474.5 35.5q12.5 -10.5 31.5 -14.5v-21q-52 4 -71 4q-34 0 -118 -4v21q16 0 27.5 6t11.5 16q0 7 -4 12l-114 166l-73 -95q-28 -37 -28 -60q0 -21 19.5 -32.5t54.5 -13.5v-20q-52 3 -114 3q-44 0 -76 -3v20q20 2 40.5 18t47.5 52l115 151l-139 203q-20 29 -32 38.5
t-30 11.5v21q52 -4 71 -4q34 0 118 4v-21q-16 0 -27.5 -6t-11.5 -16q0 -7 4 -12l107 -156l69 97q30 43 30 63q0 14 -13.5 21.5t-43.5 9.5v20q52 -3 84 -3q44 0 76 3v-20q-41 -5 -88 -70l-101 -140l147 -214q18 -25 30.5 -35.5z" />
    <glyph glyph-name="y" unicode="y" horiz-adv-x="504" 
d="M494 515v-20q-20 -2 -35.5 -18t-29.5 -52l-164 -430l-34 -87q-19 -49 -43 -70q-15 -14 -36 -20t-42 -6q-30 0 -49 16t-19 44q0 24 14 38.5t39 14.5q22 0 36.5 -12.5t14.5 -34.5q0 -30 -27 -45q2 -1 6 -1q55 0 85 78l35 91l-181 437q-17 34 -34 45t-34 11v21q43 -6 98 -6
q50 0 130 6v-21q-36 0 -52.5 -6t-16.5 -29q0 -21 12 -49l120 -298l111 289q11 30 11 46q0 23 -18 34t-57 14v20q53 -3 84 -3q44 0 76 3z" />
    <glyph glyph-name="z" unicode="z" horiz-adv-x="476" 
d="M150 15h110q62 0 97 38.5t42 122.5h23q0 -131 4 -180q-79 4 -186 4q-95 0 -202 -5l289 505h-110q-67 0 -99.5 -37.5t-39.5 -123.5h-23q0 131 -4 180q79 -4 186 -4q95 0 202 5z" />
    <glyph glyph-name="braceleft" unicode="{" horiz-adv-x="304" 
d="M278 763q-35 -1 -51 -15t-22.5 -57.5t-6.5 -139.5q0 -123 -38 -177.5t-105 -74.5q66 -19 104.5 -74t38.5 -178q0 -100 6.5 -144t22.5 -57.5t51 -14.5v-19q-65 0 -101.5 20.5t-52.5 71t-16 143.5q0 96 -6.5 146.5t-22.5 72t-47 24.5h-5v18h5q31 2 47 23.5t22.5 72
t6.5 147.5q0 89 16 138.5t52.5 71t101.5 21.5v-19z" />
    <glyph glyph-name="bar" unicode="|" horiz-adv-x="222" 
d="M131 -195h-40v1053h40v-1053z" />
    <glyph glyph-name="braceright" unicode="}" horiz-adv-x="304" 
d="M26 763q35 -1 51 -15t22.5 -57.5t6.5 -139.5q0 -123 38 -177.5t105 -74.5q-66 -19 -104.5 -74t-38.5 -178q0 -100 -6.5 -144t-22.5 -57.5t-51 -14.5v-19q65 0 101.5 20.5t52.5 71t16 143.5q0 96 6.5 146.5t22.5 72t47 24.5h5v18h-5q-31 2 -47 23.5t-22.5 72t-6.5 147.5
q0 89 -16 138.5t-52.5 71t-101.5 21.5v-19z" />
    <glyph glyph-name="asciitilde" unicode="~" horiz-adv-x="649" 
d="M276.5 355.5q28.5 -9.5 69.5 -29.5q39 -19 66 -28.5t57 -9.5q66 0 90 58l17 -5q-6 -48 -46 -77t-95 -29q-33 0 -61.5 9.5t-69.5 29.5q-39 19 -66 28.5t-57 9.5q-66 0 -90 -58l-17 5q6 48 46 77t95 29q33 0 61.5 -9.5z" />
    <glyph glyph-name="uni00A0" unicode="&#xa0;" horiz-adv-x="249" 
 />
    <glyph glyph-name="exclamdown" unicode="&#xa1;" horiz-adv-x="249" 
d="M170 510q19 -19 19 -45t-19 -45t-45 -19t-45 19t-19 45t19 45t45 19t45 -19zM138.5 185q5.5 -64 17.5 -166q14 -107 14 -151q0 -29 -12.5 -42.5t-33.5 -13.5q-20 0 -33 14t-13 42q0 44 14 151q12 102 17.5 166t5.5 133h18q0 -69 5.5 -133z" />
    <glyph glyph-name="cent" unicode="&#xa2;" horiz-adv-x="474" 
d="M379 29.5q-44 -40.5 -114 -43.5v-167h-22v167q-59 4 -106.5 36.5t-75 91.5t-27.5 137q0 76 26.5 136.5t73.5 97.5t109 43v180h22v-179h2q67 0 116 -32q47 -31 47 -77q0 -26 -15 -41t-38 -15t-39 13.5t-16 36.5q0 21 12 35.5t30 19.5q-10 18 -35.5 30t-54.5 12
q-37 0 -69 -23.5t-53 -78t-21 -143.5q0 -124 40 -180.5t104 -56.5q43 0 81.5 25t63.5 78l19 -7q-16 -55 -60 -95.5z" />
    <glyph glyph-name="sterling" unicode="&#xa3;" horiz-adv-x="602" 
d="M532.5 181q37.5 -33 37.5 -84q0 -45 -29 -78t-80 -33q-33 0 -61 12t-69 37q-5 3 -28 16.5t-44 20.5q-22 8 -49 8q-28 0 -55 -10q-23 -40 -50.5 -62t-53.5 -22q-8 0 -12 2t-4 8q0 15 29 40t61 37q7 32 9 69.5t2 115.5v39h-77v20h77v80h-77v20h77v22q0 136 51.5 216.5
t170.5 80.5q59 0 94 -27q30 -24 30 -55q0 -21 -14 -35t-33 -14q-18 0 -32 13t-14 32q0 16 8.5 28.5t24.5 18.5q-2 10 -21.5 17t-40.5 7q-60 0 -88.5 -34.5t-35.5 -86.5t-7 -135v-48h145v-20h-145v-80h145v-20h-145q-2 -59 -17.5 -106t-47.5 -103q43 20 86 20q23 0 43.5 -5.5
t53.5 -16.5q36 -12 59 -17.5t49 -5.5q34 0 51 16.5t17 40.5q0 34 -23 56t-62 30l4 16q53 -8 90.5 -41z" />
    <glyph glyph-name="currency" unicode="&#xa4;" horiz-adv-x="535" 
d="M460 464l-45 -45q42 -53 42 -119q0 -67 -42 -119l44 -43l-28 -29l-44 44q-53 -42 -119 -42q-69 0 -119 41l-43 -43l-29 29l43 43q-42 52 -42 119t43 120l-44 44l28 28l44 -44q24 20 55 31t64 11q66 0 119 -43l45 45zM193.5 432q-34.5 -21 -54.5 -56t-20 -76t20.5 -76
t54.5 -55.5t74 -20.5t74 20.5t54 55.5t20 76q0 40 -20 75.5t-54 56.5t-74 21t-74.5 -21z" />
    <glyph glyph-name="yen" unicode="&#xa5;" horiz-adv-x="647" 
d="M618 708v-20q-20 -5 -39 -25.5t-41 -63.5l-153 -303h136v-20h-140v-80h140v-20h-140v-70q0 -38 6 -55t22.5 -23t52.5 -8v-20q-46 3 -127 3q-86 0 -128 -3v20q36 2 52.5 8t22.5 23t6 55v70h-140v20h140v60l-11 20h-129v20h118l-181 335q-18 33 -31.5 44.5t-26.5 11.5v21
q39 -3 88 -3q97 0 140 3v-21q-70 0 -70 -38q0 -15 10 -35l166 -318h1l127 253q27 53 27 86q0 28 -22 40t-66 13v20q57 -3 115 -3q45 0 75 3z" />
    <glyph glyph-name="brokenbar" unicode="&#xa6;" horiz-adv-x="224" 
d="M132 384h-40v474h40v-474zM132 -195h-40v521h40v-521z" />
    <glyph glyph-name="section" unicode="&#xa7;" horiz-adv-x="508" 
d="M405.5 45q18.5 -34 18.5 -76q0 -70 -48 -113.5t-128 -43.5q-47 0 -89 17q-36 15 -56.5 39.5t-20.5 50.5q0 23 14 38.5t39 15.5q23 0 39 -15t16 -38q0 -19 -10.5 -33t-32.5 -20q8 -19 38 -27.5t60 -8.5q56 0 82.5 30t26.5 69q0 34 -20.5 64t-50 54t-77.5 57l-18 12
q-80 55 -113.5 96t-33.5 99q0 110 115 173q-35 31 -53 64.5t-18 75.5q0 70 48 113.5t128 43.5q47 0 89 -17q36 -15 56.5 -39.5t20.5 -50.5q0 -23 -14 -38.5t-39 -15.5q-23 0 -39 15t-16 38q0 19 10.5 33t32.5 20q-9 19 -38.5 27.5t-58.5 8.5q-57 0 -83.5 -29.5t-26.5 -69.5
q0 -34 20.5 -64t50 -54t77.5 -57l18 -12q80 -55 113.5 -96t33.5 -99q0 -107 -117 -171q36 -32 54.5 -66zM340 121q37 21 55.5 50t18.5 61q0 45 -36 82t-108 86q-7 5 -41.5 28.5t-59.5 45.5q-37 -21 -55.5 -50.5t-18.5 -61.5q0 -45 36 -82t108 -86q74 -51 101 -73z" />
    <glyph glyph-name="dieresis" unicode="&#xa8;" horiz-adv-x="428" 
d="M148.5 725.5q17.5 -17.5 17.5 -40.5q0 -24 -17.5 -41t-40.5 -17q-24 0 -41 17t-17 41q0 23 17 40.5t41 17.5q23 0 40.5 -17.5zM360.5 725.5q17.5 -17.5 17.5 -40.5q0 -24 -17.5 -41t-40.5 -17q-24 0 -41 17t-17 41q0 23 17 40.5t41 17.5q23 0 40.5 -17.5z" />
    <glyph glyph-name="copyright" unicode="&#xa9;" horiz-adv-x="894" 
d="M646.5 728.5q91.5 -53.5 145 -145t53.5 -199.5t-53.5 -199.5t-145 -145t-199.5 -53.5t-199.5 53.5t-145 145t-53.5 199.5t53.5 199.5t145 145t199.5 53.5t199.5 -53.5zM267.5 700.5q-82.5 -49.5 -130.5 -133.5t-48 -183t48 -183t130.5 -133.5t179.5 -49.5t179.5 49.5
t130.5 133.5t48 183t-48 183t-130.5 133.5t-179.5 49.5t-179.5 -49.5zM529.5 647q31.5 -9 54.5 -26q42 -29 42 -74q0 -26 -15 -41t-38 -15t-39 14.5t-16 39.5q0 21 11.5 34t30.5 17q-10 18 -35.5 30t-54.5 12q-50 0 -86 -39q-57 -62 -57 -209q0 -121 40 -177.5t103 -56.5
q44 0 82.5 25t63.5 78l19 -7q-17 -57 -63.5 -98t-119.5 -41q-63 0 -113.5 32t-79.5 92t-29 141t29.5 144.5t82.5 98.5t122 35q34 0 65.5 -9z" />
    <glyph glyph-name="ordfeminine" unicode="&#xaa;" horiz-adv-x="463" 
d="M318 692q29 -30 29 -97v-163q0 -21 5.5 -29t19.5 -8q24 0 41 17l11 -15q-39 -37 -90 -37q-36 0 -50.5 12t-16.5 35q-48 -47 -117 -47q-37 0 -65 20t-28 58q0 39 31.5 61.5t98.5 47.5q39 15 59.5 27t20.5 29v18q0 44 -17 63t-51 19q-18 0 -38 -5t-36 -16q14 -4 24 -16.5
t10 -30.5q0 -19 -13 -31.5t-31 -12.5q-22 0 -35 12.5t-13 32.5q0 40 48 63t110 23q64 0 93 -30zM251.5 556q-11.5 -8 -40.5 -21q-38 -17 -55 -35t-17 -44q0 -27 15 -44t40 -17q38 0 73 32v145q-4 -8 -15.5 -16z" />
    <glyph glyph-name="guillemotleft" unicode="&#xab;" horiz-adv-x="502" 
d="M279 522q-35 -93 -75.5 -153t-96.5 -108q54 -47 95 -110t77 -158l-17 -7q-43 95 -98 161.5t-132 109.5v1q77 43 132 109.5t98 161.5zM454 522q-35 -93 -75.5 -153t-96.5 -108q54 -47 95 -110t77 -158l-17 -7q-43 95 -98 161.5t-132 109.5v1q77 43 132 109.5t98 161.5z
" />
    <glyph glyph-name="logicalnot" unicode="&#xac;" horiz-adv-x="656" 
d="M583 165h-36v175h-465v30h501v-205z" />
    <glyph glyph-name="uni00AD" unicode="&#xad;" horiz-adv-x="499" 
 />
    <glyph glyph-name="registered" unicode="&#xae;" horiz-adv-x="678" 
d="M479 744.5q64 -37.5 101.5 -101.5t37.5 -140t-37.5 -140t-101.5 -101.5t-140 -37.5t-140 37.5t-101.5 101.5t-37.5 140t37.5 140t101.5 101.5t140 37.5t140 -37.5zM458.5 289.5q54.5 33.5 86 90t31.5 123.5t-31.5 123.5t-86 90t-119.5 33.5t-119.5 -33.5t-86 -90
t-31.5 -123.5t31.5 -123.5t86 -90t119.5 -33.5t119.5 33.5zM488 372l10 -7q-6 -12 -16.5 -16.5t-27.5 -4.5q-25 0 -37.5 9.5t-17.5 31.5l-17 74q-4 20 -11 29t-24 12.5t-53 4.5v-101q0 -23 4 -29t19 -8v-15l-51 1l-52 -1v15q15 2 19 8t4 29v219q0 23 -4 29.5t-19 8.5v15
q12 -1 48 -1l86 1q57 0 86.5 -20.5t29.5 -58.5q0 -68 -98 -85q40 -4 57 -17.5t23 -40.5l12 -57q1 -4 3 -14t5.5 -14.5t9.5 -4.5q8 0 12 8zM301 654.5q-7 -6.5 -7 -26.5v-107h24q49 0 66.5 17t17.5 49q0 38 -16 56t-54 18q-24 0 -31 -6.5z" />
    <glyph glyph-name="macron" unicode="&#xaf;" horiz-adv-x="412" 
d="M362 687h-312v25h312v-25z" />
    <glyph glyph-name="degree" unicode="&#xb0;" horiz-adv-x="333" 
d="M252.5 787q35.5 -33 35.5 -87t-35.5 -87.5t-86.5 -33.5q-50 0 -85.5 33.5t-35.5 87.5t35.5 87t85.5 33q51 0 86.5 -33zM99.5 775q-29.5 -28 -29.5 -76q0 -49 29 -76t67 -27t67.5 27t29.5 76q0 48 -30 76t-67 28t-66.5 -28z" />
    <glyph glyph-name="plusminus" unicode="&#xb1;" horiz-adv-x="597" 
d="M554 0h-501v30h501v-30zM312 370h232v-30h-232v-235h-36v235h-233v30h233v236h36v-236z" />
    <glyph glyph-name="uni00B2" unicode="&#xb2;" horiz-adv-x="338" 
d="M246.5 736q27.5 -19 27.5 -56q0 -38 -26 -67.5t-76 -67.5q-4 -3 -25 -19t-35 -32h132q22 0 30.5 7.5t16.5 26.5l17 -3q-13 -52 -15 -90q-12 3 -38 3h-220v20q17 14 40 31q44 34 70 57t46 54.5t20 66.5q0 54 -65 54q-61 0 -95 -54l-15 8q19 34 53.5 57t84.5 23
q45 0 72.5 -19z" />
    <glyph glyph-name="uni00B3" unicode="&#xb3;" horiz-adv-x="324" 
d="M241.5 737q27.5 -19 27.5 -54q0 -33 -25.5 -57.5t-67.5 -36.5q49 -1 82.5 -24.5t33.5 -65.5q0 -44 -38.5 -78.5t-99 -53.5t-122.5 -19v17q51 1 97 19.5t74 49t28 65.5q0 34 -20 55.5t-53 23.5q-5 -3 -16.5 -8.5t-19.5 -5.5q-16 0 -16 12q0 10 11.5 12.5t32.5 1.5
q30 13 43 33.5t13 40.5q0 26 -18.5 42t-49.5 16q-30 0 -54.5 -13.5t-40.5 -40.5l-15 8q19 35 54 57.5t86 22.5q46 0 73.5 -19z" />
    <glyph glyph-name="acute" unicode="&#xb4;" horiz-adv-x="283" 
d="M233 785q0 -15 -14 -34q-20 -25 -57 -55q-7 -6 -36.5 -33.5t-64.5 -63.5l-11 9q37 59 69 121q23 46 40 69q16 22 38 22q14 0 22 -7q14 -12 14 -28z" />
    <glyph glyph-name="paragraph" unicode="&#xb6;" horiz-adv-x="645" 
d="M474 707l70 -1q40 0 60 2v-19q-46 -2 -61.5 -17.5t-15.5 -50.5v-696q0 -38 6 -55t22.5 -23t52.5 -8v-20q-47 3 -127 3q-100 0 -148 -3v20q42 2 63.5 11t29.5 28.5t8 56.5v52q-210 0 -304.5 100.5t-94.5 272.5q0 102 42.5 181t123.5 123.5t192 44.5q31 0 81 -2z
M424.5 613.5q-7.5 -42.5 -13.5 -109t-7 -138.5q-102 0 -191 -6t-89 -9q0 -4 87.5 -9t192.5 -5q1 -75 7 -141t13.5 -107t10.5 -41v608q-3 0 -10.5 -42.5z" />
    <glyph glyph-name="periodcentered" unicode="&#xb7;" horiz-adv-x="264" 
d="M177 313q19 -19 19 -45t-19 -45t-45 -19t-45 19t-19 45t19 45t45 19t45 -19z" />
    <glyph glyph-name="cedilla" unicode="&#xb8;" horiz-adv-x="296" 
d="M126 -72q30 7 59 7q28 0 44.5 -12.5t16.5 -34.5q0 -38 -35 -57t-78 -19q-50 0 -83 11l4 18q21 -3 38 -3q36 0 63 10.5t27 34.5q0 28 -42 28q-28 0 -49 -7l34 102h27z" />
    <glyph glyph-name="uni00B9" unicode="&#xb9;" horiz-adv-x="263" 
d="M178 507q0 -28 15 -38.5t52 -10.5v-21q-38 2 -97 2q-65 0 -107 -2v21q37 0 55.5 10.5t18.5 38.5v129q0 29 -7 42.5t-23.5 18t-50.5 4.5v21q51 1 84 8t60 23v-246z" />
    <glyph glyph-name="ordmasculine" unicode="&#xba;" horiz-adv-x="454" 
d="M313 701q41 -21 66 -62t25 -98t-25 -98t-66 -62t-86 -21t-86 21t-66 62t-25 98t25 98t66 62t86 21t86 -21zM159.5 663.5q-26.5 -40.5 -26.5 -122.5t26.5 -122.5t67.5 -40.5t67.5 40.5t26.5 122.5t-26.5 122.5t-67.5 40.5t-67.5 -40.5z" />
    <glyph glyph-name="guillemotright" unicode="&#xbb;" horiz-adv-x="501" 
d="M163 366.5q55 -66.5 132 -109.5v-1q-77 -43 -132 -109.5t-98 -161.5l-17 7q35 93 75.5 153t96.5 108q-54 47 -95 110t-77 158l17 7q43 -95 98 -161.5zM338 366.5q55 -66.5 132 -109.5v-1q-77 -43 -132 -109.5t-98 -161.5l-17 7q35 93 75.5 153t96.5 108q-54 47 -95 110
t-77 158l17 7q43 -95 98 -161.5z" />
    <glyph glyph-name="onequarter" unicode="&#xbc;" horiz-adv-x="693" 
d="M668 811l-585 -866l-19 13l585 866zM194 507q0 -28 15 -38.5t52 -10.5v-21q-38 2 -97 2q-65 0 -107 -2v21q37 0 55.5 10.5t18.5 38.5v129q0 29 -7 42.5t-23.5 18t-50.5 4.5v21q51 1 84 8t60 23v-246zM621 90q-13 -43 -14 -75q-12 3 -38 3h-20v-117h-56v117h-194v21
l229 264h21v-244h8q22 0 30.5 7.5t16.5 26.5zM493 59v179l-155 -179h155z" />
    <glyph glyph-name="onehalf" unicode="&#xbd;" horiz-adv-x="700" 
d="M652 811l-585 -866l-19 13l585 866zM202 507q0 -28 15 -38.5t52 -10.5v-21q-38 2 -97 2q-65 0 -107 -2v21q37 0 55.5 10.5t18.5 38.5v129q0 29 -7 42.5t-23.5 18t-50.5 4.5v21q51 1 84 8t60 23v-246zM599.5 299q27.5 -19 27.5 -56q0 -38 -26 -67.5t-76 -67.5
q-4 -3 -25 -19t-35 -32h132q22 0 30.5 7.5t16.5 26.5l17 -3q-13 -53 -15 -90q-12 3 -38 3h-220v20q17 14 40 31q44 34 70 57t46 54.5t20 66.5q0 54 -65 54q-61 0 -95 -54l-15 8q19 34 53.5 57t84.5 23q45 0 72.5 -19z" />
    <glyph glyph-name="threequarters" unicode="&#xbe;" horiz-adv-x="744" 
d="M715 811l-585 -866l-19 13l585 866zM264.5 737q27.5 -19 27.5 -54q0 -33 -25.5 -57.5t-67.5 -36.5q49 -1 82.5 -24.5t33.5 -65.5q0 -44 -38.5 -78.5t-99 -53.5t-122.5 -19v17q51 1 97 19.5t74 49t28 65.5q0 34 -20 55.5t-53 23.5q-5 -3 -16.5 -8.5t-19.5 -5.5
q-16 0 -16 12q0 10 11.5 12.5t32.5 1.5q30 13 43 33.5t13 40.5q0 26 -18.5 42t-49.5 16q-30 0 -54.5 -13.5t-40.5 -40.5l-15 8q19 35 54 57.5t86 22.5q46 0 73.5 -19zM668 90q-13 -43 -14 -75q-12 3 -38 3h-20v-117h-56v117h-194v21l229 264h21v-244h8q22 0 30.5 7.5
t16.5 26.5zM540 59v179l-155 -179h155z" />
    <glyph glyph-name="questiondown" unicode="&#xbf;" horiz-adv-x="453" 
d="M310 511q19 -19 19 -45t-19 -45t-45 -19t-45 19t-19 45t19 45t45 19t45 -19zM276 185q-92 -32 -124 -76t-32 -108q0 -86 37.5 -127.5t102.5 -41.5q70 0 98 26q-19 4 -30.5 17t-11.5 34q0 25 16 39.5t39 14.5t38 -15t15 -38q0 -41 -47 -69q-49 -29 -136 -29
q-95 0 -152.5 45.5t-57.5 124.5t60.5 133.5t164.5 78.5v126h20v-135z" />
    <glyph glyph-name="Agrave" unicode="&#xc0;" horiz-adv-x="630" 
d="M636 20v-20q-40 3 -107 3q-86 0 -128 -3v20q38 2 54.5 9.5t16.5 27.5q0 17 -12 47l-61 164h-242l-41 -106q-20 -54 -20 -82q0 -31 21.5 -45t65.5 -15v-20q-57 3 -115 3q-45 0 -75 -3v20q50 12 79 87l235 606h16l244 -629q24 -62 69 -64zM391 288l-112 299l-114 -299h226z
M274 875q7 -6 36.5 -32.5t70.5 -57.5l-7 -13q-54 27 -129 57q-51 19 -72 32q-27 17 -27 39q0 10 6 19q12 17 31 17q14 0 30 -10q24 -16 61 -51z" />
    <glyph glyph-name="Aacute" unicode="&#xc1;" horiz-adv-x="630" 
d="M636 20v-20q-40 3 -107 3q-86 0 -128 -3v20q38 2 54.5 9.5t16.5 27.5q0 17 -12 47l-61 164h-242l-41 -106q-20 -54 -20 -82q0 -31 21.5 -45t65.5 -15v-20q-57 3 -115 3q-45 0 -75 -3v20q50 12 79 87l235 606h16l244 -629q24 -62 69 -64zM391 288l-112 299l-114 -299h226z
M451 936q19 0 31 -17q6 -9 6 -19q0 -22 -27 -39q-21 -13 -72 -32q-75 -30 -129 -57l-7 13q41 31 70.5 57.5t36.5 32.5q37 35 61 51q16 10 30 10z" />
    <glyph glyph-name="Acircumflex" unicode="&#xc2;" horiz-adv-x="630" 
d="M636 20v-20q-40 3 -107 3q-86 0 -128 -3v20q38 2 54.5 9.5t16.5 27.5q0 17 -12 47l-61 164h-242l-41 -106q-20 -54 -20 -82q0 -31 21.5 -45t65.5 -15v-20q-57 3 -115 3q-45 0 -75 -3v20q50 12 79 87l235 606h16l244 -629q24 -62 69 -64zM391 288l-112 299l-114 -299h226z
M396.5 841.5q49.5 -35.5 113.5 -57.5l-5 -14q-60 13 -118.5 32t-92.5 38q-28 -19 -75.5 -38t-95.5 -32l-5 14q64 22 113.5 57.5t73.5 74.5h18q24 -39 73.5 -74.5z" />
    <glyph glyph-name="Atilde" unicode="&#xc3;" horiz-adv-x="630" 
d="M636 20v-20q-40 3 -107 3q-86 0 -128 -3v20q38 2 54.5 9.5t16.5 27.5q0 17 -12 47l-61 164h-242l-41 -106q-20 -54 -20 -82q0 -31 21.5 -45t65.5 -15v-20q-57 3 -115 3q-45 0 -75 -3v20q50 12 79 87l235 606h16l244 -629q24 -62 69 -64zM391 288l-112 299l-114 -299h226z
M280 892q22 -10 53 -30q35 -20 53.5 -28.5t40.5 -8.5q46 0 62 56l15 -3q-4 -48 -36 -77t-75 -29q-25 0 -47 10t-53 30q-35 20 -53.5 28.5t-40.5 8.5q-23 0 -38 -12.5t-24 -43.5l-15 3q4 48 36 77t75 29q25 0 47 -10z" />
    <glyph glyph-name="Adieresis" unicode="&#xc4;" horiz-adv-x="630" 
d="M636 20v-20q-40 3 -107 3q-86 0 -128 -3v20q38 2 54.5 9.5t16.5 27.5q0 17 -12 47l-61 164h-242l-41 -106q-20 -54 -20 -82q0 -31 21.5 -45t65.5 -15v-20q-57 3 -115 3q-45 0 -75 -3v20q50 12 79 87l235 606h16l244 -629q24 -62 69 -64zM391 288l-112 299l-114 -299h226z
M248.5 870.5q17.5 -17.5 17.5 -40.5q0 -24 -17.5 -41t-40.5 -17q-24 0 -41 17t-17 41q0 23 17 40.5t41 17.5q23 0 40.5 -17.5zM460.5 870.5q17.5 -17.5 17.5 -40.5q0 -24 -17.5 -41t-40.5 -17q-24 0 -41 17t-17 41q0 23 17 40.5t41 17.5q23 0 40.5 -17.5z" />
    <glyph glyph-name="Aring" unicode="&#xc5;" horiz-adv-x="630" 
d="M636 20v-20q-40 3 -107 3q-86 0 -128 -3v20q38 2 54.5 9.5t16.5 27.5q0 17 -12 47l-61 164h-242l-41 -106q-20 -54 -20 -82q0 -31 21.5 -45t65.5 -15v-20q-57 3 -115 3q-45 0 -75 -3v20q50 12 79 87l235 606h16l244 -629q24 -62 69 -64zM391 288l-112 299l-114 -299h226z
M382.5 900q28.5 -25 28.5 -66t-28.5 -66.5t-68.5 -25.5t-68 25.5t-28 66.5t28 66t68 25t68.5 -25zM267 884.5q-21 -19.5 -21 -51.5q0 -33 20.5 -51.5t47.5 -18.5t48 18.5t21 51.5t-21 52t-48 19q-26 0 -47 -19.5z" />
    <glyph glyph-name="AE" unicode="&#xc6;" horiz-adv-x="854" 
d="M806 0q-62 3 -209 3q-157 0 -240 -3v20q28 2 40 8t16.5 23t4.5 55v240h-175l-146 -242q-18 -31 -18 -49q0 -17 17 -25t52 -10v-20q-30 3 -91 3q-41 0 -67 -3v20q16 1 32.5 15.5t36.5 48.5l350 578q-7 14 -23 19t-49 7v20q62 -2 99 -2l40 66h24l-40 -66q55 -1 137 -1
q133 0 189 3q-7 -66 -7 -118q0 -39 3 -62h-23q-5 65 -14 96.5t-29 46t-61 14.5h-63q-36 0 -52.5 -5.5t-22.5 -22.5t-6 -55v-236h73q40 0 53 25.5t16 52t4 34.5h23q-3 -37 -3 -81v-41q0 -43 6 -122h-23q-1 6 -4.5 41t-21.5 53t-50 18h-73v-240q0 -38 6 -55t22.5 -22.5
t52.5 -5.5h73q48 0 70 16t30 50t14 111h23q-3 -27 -3 -72q0 -57 7 -128zM418 366v236q0 23 -1 32l-162 -268h163z" />
    <glyph glyph-name="Ccedilla" unicode="&#xc7;" horiz-adv-x="688" 
d="M473 705q42 -17 82 -48q11 -9 19 -9q20 0 26 60h23q-4 -65 -4 -230h-23q-11 65 -20 93.5t-30 54.5q-30 39 -76.5 58.5t-100.5 19.5q-65 0 -113.5 -43t-75.5 -122.5t-27 -186.5q0 -109 29 -187t80.5 -118.5t116.5 -40.5q50 0 97 19t74 57q20 28 29 60t17 98h23
q0 -172 4 -240h-23q-3 32 -8.5 45.5t-15.5 13.5q-8 0 -21 -8q-45 -32 -86 -48.5t-99 -16.5q-95 0 -166.5 43t-111 124.5t-39.5 194.5q0 110 40.5 195t113 132t164.5 47q60 0 102 -17zM359 -72q30 7 59 7q28 0 44.5 -12.5t16.5 -34.5q0 -38 -35 -57t-78 -19q-50 0 -83 11
l4 18q21 -3 38 -3q36 0 63 10.5t27 34.5q0 28 -42 28q-28 0 -49 -7l34 101h27z" />
    <glyph glyph-name="Egrave" unicode="&#xc8;" horiz-adv-x="609" 
d="M561 0q-68 3 -229 3q-192 0 -290 -3v20q36 2 52.5 8t22.5 23t6 55v496q0 38 -6 55t-22.5 23t-52.5 8v20q98 -3 290 -3q147 0 209 3q-7 -66 -7 -118q0 -39 3 -62h-23q-7 65 -18 96.5t-37 46t-79 14.5h-83q-36 0 -52.5 -5.5t-22.5 -22.5t-6 -55v-236h66q35 0 54 16.5
t25.5 39t10.5 56.5l3 20h23q-3 -42 -3 -94v-48q0 -51 6 -142h-23q-1 7 -6 48.5t-27.5 62.5t-62.5 21h-66v-240q0 -38 6 -55t22.5 -22.5t52.5 -5.5h73q62 0 94.5 16.5t47.5 53t22 107.5h23q-3 -27 -3 -72q0 -57 7 -128zM266 875q7 -6 36.5 -32.5t70.5 -57.5l-7 -13
q-54 27 -129 57q-51 19 -72 32q-27 17 -27 39q0 10 6 19q12 17 31 17q14 0 30 -10q24 -16 61 -51z" />
    <glyph glyph-name="Eacute" unicode="&#xc9;" horiz-adv-x="609" 
d="M561 0q-68 3 -229 3q-192 0 -290 -3v20q36 2 52.5 8t22.5 23t6 55v496q0 38 -6 55t-22.5 23t-52.5 8v20q98 -3 290 -3q147 0 209 3q-7 -66 -7 -118q0 -39 3 -62h-23q-7 65 -18 96.5t-37 46t-79 14.5h-83q-36 0 -52.5 -5.5t-22.5 -22.5t-6 -55v-236h66q35 0 54 16.5
t25.5 39t10.5 56.5l3 20h23q-3 -42 -3 -94v-48q0 -51 6 -142h-23q-1 7 -6 48.5t-27.5 62.5t-62.5 21h-66v-240q0 -38 6 -55t22.5 -22.5t52.5 -5.5h73q62 0 94.5 16.5t47.5 53t22 107.5h23q-3 -27 -3 -72q0 -57 7 -128zM443 936q19 0 31 -17q6 -9 6 -19q0 -22 -27 -39
q-21 -13 -72 -32q-75 -30 -129 -57l-7 13q41 31 70.5 57.5t36.5 32.5q37 35 61 51q16 10 30 10z" />
    <glyph glyph-name="Ecircumflex" unicode="&#xca;" horiz-adv-x="609" 
d="M561 0q-68 3 -229 3q-192 0 -290 -3v20q36 2 52.5 8t22.5 23t6 55v496q0 38 -6 55t-22.5 23t-52.5 8v20q98 -3 290 -3q147 0 209 3q-7 -66 -7 -118q0 -39 3 -62h-23q-7 65 -18 96.5t-37 46t-79 14.5h-83q-36 0 -52.5 -5.5t-22.5 -22.5t-6 -55v-236h66q35 0 54 16.5
t25.5 39t10.5 56.5l3 20h23q-3 -42 -3 -94v-48q0 -51 6 -142h-23q-1 7 -6 48.5t-27.5 62.5t-62.5 21h-66v-240q0 -38 6 -55t22.5 -22.5t52.5 -5.5h73q62 0 94.5 16.5t47.5 53t22 107.5h23q-3 -27 -3 -72q0 -57 7 -128zM388.5 841.5q49.5 -35.5 113.5 -57.5l-5 -14
q-60 13 -118.5 32t-92.5 38q-28 -19 -75.5 -38t-95.5 -32l-5 14q64 22 113.5 57.5t73.5 74.5h18q24 -39 73.5 -74.5z" />
    <glyph glyph-name="Edieresis" unicode="&#xcb;" horiz-adv-x="609" 
d="M561 0q-68 3 -229 3q-192 0 -290 -3v20q36 2 52.5 8t22.5 23t6 55v496q0 38 -6 55t-22.5 23t-52.5 8v20q98 -3 290 -3q147 0 209 3q-7 -66 -7 -118q0 -39 3 -62h-23q-7 65 -18 96.5t-37 46t-79 14.5h-83q-36 0 -52.5 -5.5t-22.5 -22.5t-6 -55v-236h66q35 0 54 16.5
t25.5 39t10.5 56.5l3 20h23q-3 -42 -3 -94v-48q0 -51 6 -142h-23q-1 7 -6 48.5t-27.5 62.5t-62.5 21h-66v-240q0 -38 6 -55t22.5 -22.5t52.5 -5.5h73q62 0 94.5 16.5t47.5 53t22 107.5h23q-3 -27 -3 -72q0 -57 7 -128zM240.5 870.5q17.5 -17.5 17.5 -40.5q0 -24 -17.5 -41
t-40.5 -17q-24 0 -41 17t-17 41q0 23 17 40.5t41 17.5q23 0 40.5 -17.5zM452.5 870.5q17.5 -17.5 17.5 -40.5q0 -24 -17.5 -41t-40.5 -17q-24 0 -41 17t-17 41q0 23 17 40.5t41 17.5q23 0 40.5 -17.5z" />
    <glyph glyph-name="Igrave" unicode="&#xcc;" horiz-adv-x="339" 
d="M297 688q-36 -2 -52.5 -8t-22.5 -23t-6 -55v-496q0 -38 6 -55t22.5 -23t52.5 -8v-20q-46 3 -127 3q-86 0 -128 -3v20q36 2 52.5 8t22.5 23t6 55v496q0 38 -6 55t-22.5 23t-52.5 8v20q42 -3 128 -3q80 0 127 3v-20zM130 875q7 -6 36.5 -32.5t70.5 -57.5l-7 -13
q-54 27 -129 57q-51 19 -72 32q-27 17 -27 39q0 10 6 19q12 17 31 17q14 0 30 -10q24 -16 61 -51z" />
    <glyph glyph-name="Iacute" unicode="&#xcd;" horiz-adv-x="339" 
d="M297 688q-36 -2 -52.5 -8t-22.5 -23t-6 -55v-496q0 -38 6 -55t22.5 -23t52.5 -8v-20q-46 3 -127 3q-86 0 -128 -3v20q36 2 52.5 8t22.5 23t6 55v496q0 38 -6 55t-22.5 23t-52.5 8v20q42 -3 128 -3q80 0 127 3v-20zM307 936q19 0 31 -17q6 -9 6 -19q0 -22 -27 -39
q-21 -13 -72 -32q-75 -30 -129 -57l-7 13q41 31 70.5 57.5t36.5 32.5q37 35 61 51q16 10 30 10z" />
    <glyph glyph-name="Icircumflex" unicode="&#xce;" horiz-adv-x="339" 
d="M297 688q-36 -2 -52.5 -8t-22.5 -23t-6 -55v-496q0 -38 6 -55t22.5 -23t52.5 -8v-20q-46 3 -127 3q-86 0 -128 -3v20q36 2 52.5 8t22.5 23t6 55v496q0 38 -6 55t-22.5 23t-52.5 8v20q42 -3 128 -3q80 0 127 3v-20zM252.5 841.5q49.5 -35.5 113.5 -57.5l-5 -14
q-60 13 -118.5 32t-92.5 38q-28 -19 -75.5 -38t-95.5 -32l-5 14q64 22 113.5 57.5t73.5 74.5h18q24 -39 73.5 -74.5z" />
    <glyph glyph-name="Idieresis" unicode="&#xcf;" horiz-adv-x="339" 
d="M297 688q-36 -2 -52.5 -8t-22.5 -23t-6 -55v-496q0 -38 6 -55t22.5 -23t52.5 -8v-20q-46 3 -127 3q-86 0 -128 -3v20q36 2 52.5 8t22.5 23t6 55v496q0 38 -6 55t-22.5 23t-52.5 8v20q42 -3 128 -3q80 0 127 3v-20zM104.5 870.5q17.5 -17.5 17.5 -40.5q0 -24 -17.5 -41
t-40.5 -17q-24 0 -41 17t-17 41q0 23 17 40.5t41 17.5q23 0 40.5 -17.5zM316.5 870.5q17.5 -17.5 17.5 -40.5q0 -24 -17.5 -41t-40.5 -17q-24 0 -41 17t-17 41q0 23 17 40.5t41 17.5q23 0 40.5 -17.5z" />
    <glyph glyph-name="Eth" unicode="&#xd0;" horiz-adv-x="723" 
d="M580 619.5q88 -88.5 88 -257.5q0 -109 -43 -191t-124.5 -126.5t-194.5 -44.5l-58 1q-56 2 -82 2q-82 0 -124 -3v20q36 2 52.5 8t22.5 23t6 55v496q0 38 -6 55t-22.5 23t-52.5 8v20q35 -3 97 -3l85 1q68 2 91 2q177 0 265 -88.5zM243.5 683q-15.5 -7 -21.5 -25t-6 -54
v-500q0 -36 6 -54t21.5 -25t47.5 -7q106 0 167 38.5t85.5 112.5t24.5 189t-27 187.5t-87.5 108.5t-163.5 36q-31 0 -46.5 -7zM363 346h-354v20h354v-20z" />
    <glyph glyph-name="Ntilde" unicode="&#xd1;" horiz-adv-x="706" 
d="M670 688q-35 -2 -52 -10.5t-23 -28t-6 -57.5v-597h-23l-420 649v-528q0 -39 6.5 -58t25.5 -27.5t59 -10.5v-20q-36 3 -102 3q-60 0 -93 -3v20q35 2 52 10.5t23 28t6 57.5v486q0 38 -6 55t-22.5 23t-52.5 8v20q33 -3 93 -3q45 0 78 3l353 -544v428q0 39 -6.5 58
t-25.5 27.5t-59 10.5v20q36 -3 102 -3q60 0 93 3v-20zM340 892q22 -10 53 -30q35 -20 53.5 -28.5t40.5 -8.5q46 0 62 56l15 -3q-4 -48 -36 -77t-75 -29q-25 0 -47 10t-53 30q-35 20 -53.5 28.5t-40.5 8.5q-23 0 -38 -12.5t-24 -43.5l-15 3q4 48 36 77t75 29q25 0 47 -10z
" />
    <glyph glyph-name="Ograve" unicode="&#xd2;" horiz-adv-x="741" 
d="M537.5 679q71.5 -43 111 -124.5t39.5 -194.5q0 -110 -40.5 -195t-113 -132t-164.5 -47q-95 0 -166.5 43t-111 124.5t-39.5 194.5q0 110 40.5 195t113 132t164.5 47q95 0 166.5 -43zM254.5 659.5q-48.5 -44.5 -75 -124.5t-26.5 -183q0 -104 29.5 -183t79.5 -122t112 -43
q64 0 112.5 44.5t75 124.5t26.5 183q0 104 -29.5 183t-79.5 122t-112 43q-64 0 -112.5 -44.5zM329 875q7 -6 36.5 -32.5t70.5 -57.5l-7 -13q-54 27 -129 57q-51 19 -72 32q-27 17 -27 39q0 10 6 19q12 17 31 17q14 0 30 -10q24 -16 61 -51z" />
    <glyph glyph-name="Oacute" unicode="&#xd3;" horiz-adv-x="741" 
d="M537.5 679q71.5 -43 111 -124.5t39.5 -194.5q0 -110 -40.5 -195t-113 -132t-164.5 -47q-95 0 -166.5 43t-111 124.5t-39.5 194.5q0 110 40.5 195t113 132t164.5 47q95 0 166.5 -43zM254.5 659.5q-48.5 -44.5 -75 -124.5t-26.5 -183q0 -104 29.5 -183t79.5 -122t112 -43
q64 0 112.5 44.5t75 124.5t26.5 183q0 104 -29.5 183t-79.5 122t-112 43q-64 0 -112.5 -44.5zM506 936q19 0 31 -17q6 -9 6 -19q0 -22 -27 -39q-21 -13 -72 -32q-75 -30 -129 -57l-7 13q41 31 70.5 57.5t36.5 32.5q37 35 61 51q16 10 30 10z" />
    <glyph glyph-name="Ocircumflex" unicode="&#xd4;" horiz-adv-x="741" 
d="M537.5 679q71.5 -43 111 -124.5t39.5 -194.5q0 -110 -40.5 -195t-113 -132t-164.5 -47q-95 0 -166.5 43t-111 124.5t-39.5 194.5q0 110 40.5 195t113 132t164.5 47q95 0 166.5 -43zM254.5 659.5q-48.5 -44.5 -75 -124.5t-26.5 -183q0 -104 29.5 -183t79.5 -122t112 -43
q64 0 112.5 44.5t75 124.5t26.5 183q0 104 -29.5 183t-79.5 122t-112 43q-64 0 -112.5 -44.5zM451.5 841.5q49.5 -35.5 113.5 -57.5l-5 -14q-60 13 -118.5 32t-92.5 38q-28 -19 -75.5 -38t-95.5 -32l-5 14q64 22 113.5 57.5t73.5 74.5h18q24 -39 73.5 -74.5z" />
    <glyph glyph-name="Otilde" unicode="&#xd5;" horiz-adv-x="741" 
d="M537.5 679q71.5 -43 111 -124.5t39.5 -194.5q0 -110 -40.5 -195t-113 -132t-164.5 -47q-95 0 -166.5 43t-111 124.5t-39.5 194.5q0 110 40.5 195t113 132t164.5 47q95 0 166.5 -43zM254.5 659.5q-48.5 -44.5 -75 -124.5t-26.5 -183q0 -104 29.5 -183t79.5 -122t112 -43
q64 0 112.5 44.5t75 124.5t26.5 183q0 104 -29.5 183t-79.5 122t-112 43q-64 0 -112.5 -44.5zM335 892q22 -10 53 -30q35 -20 53.5 -28.5t40.5 -8.5q46 0 62 56l15 -3q-4 -48 -36 -77t-75 -29q-25 0 -47 10t-53 30q-35 20 -53.5 28.5t-40.5 8.5q-23 0 -38 -12.5t-24 -43.5
l-15 3q4 48 36 77t75 29q25 0 47 -10z" />
    <glyph glyph-name="Odieresis" unicode="&#xd6;" horiz-adv-x="741" 
d="M537.5 679q71.5 -43 111 -124.5t39.5 -194.5q0 -110 -40.5 -195t-113 -132t-164.5 -47q-95 0 -166.5 43t-111 124.5t-39.5 194.5q0 110 40.5 195t113 132t164.5 47q95 0 166.5 -43zM254.5 659.5q-48.5 -44.5 -75 -124.5t-26.5 -183q0 -104 29.5 -183t79.5 -122t112 -43
q64 0 112.5 44.5t75 124.5t26.5 183q0 104 -29.5 183t-79.5 122t-112 43q-64 0 -112.5 -44.5zM303.5 870.5q17.5 -17.5 17.5 -40.5q0 -24 -17.5 -41t-40.5 -17q-24 0 -41 17t-17 41q0 23 17 40.5t41 17.5q23 0 40.5 -17.5zM515.5 870.5q17.5 -17.5 17.5 -40.5
q0 -24 -17.5 -41t-40.5 -17q-24 0 -41 17t-17 41q0 23 17 40.5t41 17.5q23 0 40.5 -17.5z" />
    <glyph glyph-name="multiply" unicode="&#xd7;" horiz-adv-x="510" 
d="M256 377l173 173l22 -22l-173 -172l173 -173l-22 -22l-173 173l-174 -174l-22 22l174 173l-175 175l22 22z" />
    <glyph glyph-name="Oslash" unicode="&#xd8;" horiz-adv-x="741" 
d="M661 525.5q27 -72.5 27 -165.5q0 -110 -40.5 -195t-113 -132t-164.5 -47q-115 0 -194 62l-82 -121l-21 14l84 123q-50 47 -77 119t-27 165q0 110 40.5 195t113 132t164.5 47q115 0 194 -62l78 113l19 -13l-79 -115q51 -47 78 -119.5zM254.5 659.5q-48.5 -44.5 -75 -124.5
t-26.5 -183q0 -136 50 -230l321 487q-30 46 -70.5 70.5t-86.5 24.5q-64 0 -112.5 -44.5zM486.5 48.5q48.5 44.5 75 124.5t26.5 183q0 137 -51 231l-319 -489q29 -45 69.5 -69.5t86.5 -24.5q64 0 112.5 44.5z" />
    <glyph glyph-name="Ugrave" unicode="&#xd9;" horiz-adv-x="682" 
d="M655 688q-35 -2 -52 -10.5t-23 -28t-6 -57.5v-301q0 -72 -9.5 -123.5t-31.5 -88.5q-25 -43 -73.5 -68t-109.5 -25q-110 0 -168 54q-44 41 -59 93t-15 155v314q0 38 -6 55t-22.5 23t-52.5 8v20q42 -3 128 -3q81 0 127 3v-20q-36 -2 -52.5 -8t-22.5 -23t-6 -55v-331
q0 -80 11 -133t45.5 -85t101.5 -32q106 0 149 68t43 191v312q0 54 -19.5 74t-71.5 22v20q36 -3 102 -3q60 0 93 3v-20zM312 875q7 -6 36.5 -32.5t70.5 -57.5l-7 -13q-54 27 -129 57q-51 19 -72 32q-27 17 -27 39q0 10 6 19q12 17 31 17q14 0 30 -10q24 -16 61 -51z" />
    <glyph glyph-name="Uacute" unicode="&#xda;" horiz-adv-x="682" 
d="M655 688q-35 -2 -52 -10.5t-23 -28t-6 -57.5v-301q0 -72 -9.5 -123.5t-31.5 -88.5q-25 -43 -73.5 -68t-109.5 -25q-110 0 -168 54q-44 41 -59 93t-15 155v314q0 38 -6 55t-22.5 23t-52.5 8v20q42 -3 128 -3q81 0 127 3v-20q-36 -2 -52.5 -8t-22.5 -23t-6 -55v-331
q0 -80 11 -133t45.5 -85t101.5 -32q106 0 149 68t43 191v312q0 54 -19.5 74t-71.5 22v20q36 -3 102 -3q60 0 93 3v-20zM489 936q19 0 31 -17q6 -9 6 -19q0 -22 -27 -39q-21 -13 -72 -32q-75 -30 -129 -57l-7 13q41 31 70.5 57.5t36.5 32.5q37 35 61 51q16 10 30 10z" />
    <glyph glyph-name="Ucircumflex" unicode="&#xdb;" horiz-adv-x="682" 
d="M655 688q-35 -2 -52 -10.5t-23 -28t-6 -57.5v-301q0 -72 -9.5 -123.5t-31.5 -88.5q-25 -43 -73.5 -68t-109.5 -25q-110 0 -168 54q-44 41 -59 93t-15 155v314q0 38 -6 55t-22.5 23t-52.5 8v20q42 -3 128 -3q81 0 127 3v-20q-36 -2 -52.5 -8t-22.5 -23t-6 -55v-331
q0 -80 11 -133t45.5 -85t101.5 -32q106 0 149 68t43 191v312q0 54 -19.5 74t-71.5 22v20q36 -3 102 -3q60 0 93 3v-20zM434.5 841.5q49.5 -35.5 113.5 -57.5l-5 -14q-60 13 -118.5 32t-92.5 38q-28 -19 -75.5 -38t-95.5 -32l-5 14q64 22 113.5 57.5t73.5 74.5h18
q24 -39 73.5 -74.5z" />
    <glyph glyph-name="Udieresis" unicode="&#xdc;" horiz-adv-x="682" 
d="M655 688q-35 -2 -52 -10.5t-23 -28t-6 -57.5v-301q0 -72 -9.5 -123.5t-31.5 -88.5q-25 -43 -73.5 -68t-109.5 -25q-110 0 -168 54q-44 41 -59 93t-15 155v314q0 38 -6 55t-22.5 23t-52.5 8v20q42 -3 128 -3q81 0 127 3v-20q-36 -2 -52.5 -8t-22.5 -23t-6 -55v-331
q0 -80 11 -133t45.5 -85t101.5 -32q106 0 149 68t43 191v312q0 54 -19.5 74t-71.5 22v20q36 -3 102 -3q60 0 93 3v-20zM286.5 870.5q17.5 -17.5 17.5 -40.5q0 -24 -17.5 -41t-40.5 -17q-24 0 -41 17t-17 41q0 23 17 40.5t41 17.5q23 0 40.5 -17.5zM498.5 870.5
q17.5 -17.5 17.5 -40.5q0 -24 -17.5 -41t-40.5 -17q-24 0 -41 17t-17 41q0 23 17 40.5t41 17.5q23 0 40.5 -17.5z" />
    <glyph glyph-name="Yacute" unicode="&#xdd;" horiz-adv-x="591" 
d="M588 708v-20q-20 -5 -39 -25.5t-41 -63.5l-157 -311v-182q0 -38 6 -55t22.5 -23t52.5 -8v-20q-46 3 -127 3q-86 0 -128 -3v20q36 2 52.5 8t22.5 23t6 55v150l-203 375q-18 33 -31.5 44.5t-26.5 11.5v21q39 -3 88 -3q97 0 140 3v-21q-70 0 -70 -38q0 -15 10 -35l166 -319
l128 254q27 53 27 86q0 28 -22 40t-66 13v20q57 -3 115 -3q45 0 75 3zM441 936q19 0 31 -17q6 -9 6 -19q0 -22 -27 -39q-21 -13 -72 -32q-75 -30 -129 -57l-7 13q41 31 70.5 57.5t36.5 32.5q37 35 61 51q16 10 30 10z" />
    <glyph glyph-name="Thorn" unicode="&#xde;" horiz-adv-x="580" 
d="M216 138v-32q0 -38 6 -55t22.5 -23t52.5 -8v-20q-46 3 -127 3q-86 0 -128 -3v20q36 2 52.5 8t22.5 23t6 55v496q0 38 -6 55t-22.5 23t-52.5 8v20q42 -3 128 -3q80 0 127 3v-20q-36 -2 -52.5 -8t-22.5 -23t-6 -55v-45l92 2q78 0 132.5 -25.5t81.5 -69.5t27 -100
q0 -57 -24.5 -108t-83 -84.5t-155.5 -33.5h-70zM216 539v-381h60q98 0 135.5 54t37.5 146t-39 137t-127 45q-45 0 -67 -1z" />
    <glyph glyph-name="germandbls" unicode="&#xdf;" horiz-adv-x="584" 
d="M425 744q46 -38 46 -105q0 -48 -29 -90.5t-68.5 -72.5t-72.5 -43q65 -15 120 -51t88 -89.5t33 -117.5q0 -57 -25 -100t-66.5 -66t-89.5 -23q-46 0 -84 22.5t-38 63.5q0 24 14 39t38 15q23 0 38 -13t15 -36q0 -39 -43 -52q3 -9 18 -16.5t34 -7.5q40 0 70 37.5t30 117.5
q0 91 -42.5 167t-123.5 101q-24 -15 -37 -15q-8 0 -14 4.5t-6 12.5q0 9 6 14t17 5q15 0 36 -8q49 38 70.5 85t21.5 113q0 63 -25 97.5t-73 34.5q-38 0 -67 -30.5t-29 -112.5v-635q-41 14 -104 14q-30 0 -62 -3v21q42 0 59 21t17 67v429q0 128 52 186t145 58q85 0 131 -38z
" />
    <glyph glyph-name="agrave" unicode="&#xe0;" horiz-adv-x="498" 
d="M69.5 24.5q-30.5 31.5 -30.5 87.5q0 45 24.5 74t58 46t88.5 36q56 19 83 35t27 43v62q0 58 -24.5 79.5t-68.5 21.5q-70 0 -99 -36q20 -5 33.5 -21t13.5 -40q0 -25 -16 -39.5t-41 -14.5q-28 0 -42 17.5t-14 42.5q0 24 11.5 40t34.5 32q24 17 61 28t81 11q78 0 118 -37
q25 -23 33.5 -55.5t8.5 -85.5v-278q0 -25 7 -36t24 -11q12 0 22.5 5.5t22.5 15.5l11 -17q-26 -20 -44.5 -28.5t-46.5 -8.5q-48 0 -67 24t-19 65q-30 -50 -69 -69.5t-88 -19.5q-63 0 -93.5 31.5zM320 109v196q-9 -14 -25 -23t-49 -24q-38 -16 -61.5 -30.5t-40.5 -39.5
t-17 -64q0 -45 22 -68t58 -23q66 0 113 76zM145 820q21 0 38 -22q17 -23 40 -69q32 -62 69 -121l-11 -9q-35 36 -64.5 63.5t-36.5 33.5q-37 30 -57 55q-14 19 -14 34q0 16 14 28q8 7 22 7z" />
    <glyph glyph-name="aacute" unicode="&#xe1;" horiz-adv-x="498" 
d="M69.5 24.5q-30.5 31.5 -30.5 87.5q0 45 24.5 74t58 46t88.5 36q56 19 83 35t27 43v62q0 58 -24.5 79.5t-68.5 21.5q-70 0 -99 -36q20 -5 33.5 -21t13.5 -40q0 -25 -16 -39.5t-41 -14.5q-28 0 -42 17.5t-14 42.5q0 24 11.5 40t34.5 32q24 17 61 28t81 11q78 0 118 -37
q25 -23 33.5 -55.5t8.5 -85.5v-278q0 -25 7 -36t24 -11q12 0 22.5 5.5t22.5 15.5l11 -17q-26 -20 -44.5 -28.5t-46.5 -8.5q-48 0 -67 24t-19 65q-30 -50 -69 -69.5t-88 -19.5q-63 0 -93.5 31.5zM320 109v196q-9 -14 -25 -23t-49 -24q-38 -16 -61.5 -30.5t-40.5 -39.5
t-17 -64q0 -45 22 -68t58 -23q66 0 113 76zM367 785q0 -15 -14 -34q-20 -25 -57 -55q-7 -6 -36.5 -33.5t-64.5 -63.5l-11 9q37 59 69 121q23 46 40 69q16 22 38 22q14 0 22 -7q14 -12 14 -28z" />
    <glyph glyph-name="acircumflex" unicode="&#xe2;" horiz-adv-x="498" 
d="M69.5 24.5q-30.5 31.5 -30.5 87.5q0 45 24.5 74t58 46t88.5 36q56 19 83 35t27 43v62q0 58 -24.5 79.5t-68.5 21.5q-70 0 -99 -36q20 -5 33.5 -21t13.5 -40q0 -25 -16 -39.5t-41 -14.5q-28 0 -42 17.5t-14 42.5q0 24 11.5 40t34.5 32q24 17 61 28t81 11q78 0 118 -37
q25 -23 33.5 -55.5t8.5 -85.5v-278q0 -25 7 -36t24 -11q12 0 22.5 5.5t22.5 15.5l11 -17q-26 -20 -44.5 -28.5t-46.5 -8.5q-48 0 -67 24t-19 65q-30 -50 -69 -69.5t-88 -19.5q-63 0 -93.5 31.5zM320 109v196q-9 -14 -25 -23t-49 -24q-38 -16 -61.5 -30.5t-40.5 -39.5
t-17 -64q0 -45 22 -68t58 -23q66 0 113 76zM320.5 704.5q44.5 -46.5 101.5 -74.5l-8 -14q-54 19 -105.5 46t-82.5 54q-25 -27 -65.5 -54t-82.5 -46l-8 14q57 28 101.5 74.5t65.5 97.5h18q21 -51 65.5 -97.5z" />
    <glyph glyph-name="atilde" unicode="&#xe3;" horiz-adv-x="498" 
d="M69.5 24.5q-30.5 31.5 -30.5 87.5q0 45 24.5 74t58 46t88.5 36q56 19 83 35t27 43v62q0 58 -24.5 79.5t-68.5 21.5q-70 0 -99 -36q20 -5 33.5 -21t13.5 -40q0 -25 -16 -39.5t-41 -14.5q-28 0 -42 17.5t-14 42.5q0 24 11.5 40t34.5 32q24 17 61 28t81 11q78 0 118 -37
q25 -23 33.5 -55.5t8.5 -85.5v-278q0 -25 7 -36t24 -11q12 0 22.5 5.5t22.5 15.5l11 -17q-26 -20 -44.5 -28.5t-46.5 -8.5q-48 0 -67 24t-19 65q-30 -50 -69 -69.5t-88 -19.5q-63 0 -93.5 31.5zM320 109v196q-9 -14 -25 -23t-49 -24q-38 -16 -61.5 -30.5t-40.5 -39.5
t-17 -64q0 -45 22 -68t58 -23q66 0 113 76zM216 758.5q19 -9.5 40 -26.5q20 -15 34.5 -22.5t32.5 -7.5q45 0 77 53l14 -7q-15 -53 -46.5 -78t-71.5 -25q-26 0 -44 9t-41 27q-21 16 -35 23.5t-32 7.5q-44 0 -77 -54l-14 7q15 53 46.5 78t72.5 25q25 0 44 -9.5z" />
    <glyph glyph-name="adieresis" unicode="&#xe4;" horiz-adv-x="498" 
d="M69.5 24.5q-30.5 31.5 -30.5 87.5q0 45 24.5 74t58 46t88.5 36q56 19 83 35t27 43v62q0 58 -24.5 79.5t-68.5 21.5q-70 0 -99 -36q20 -5 33.5 -21t13.5 -40q0 -25 -16 -39.5t-41 -14.5q-28 0 -42 17.5t-14 42.5q0 24 11.5 40t34.5 32q24 17 61 28t81 11q78 0 118 -37
q25 -23 33.5 -55.5t8.5 -85.5v-278q0 -25 7 -36t24 -11q12 0 22.5 5.5t22.5 15.5l11 -17q-26 -20 -44.5 -28.5t-46.5 -8.5q-48 0 -67 24t-19 65q-30 -50 -69 -69.5t-88 -19.5q-63 0 -93.5 31.5zM320 109v196q-9 -14 -25 -23t-49 -24q-38 -16 -61.5 -30.5t-40.5 -39.5
t-17 -64q0 -45 22 -68t58 -23q66 0 113 76zM181.5 725.5q17.5 -17.5 17.5 -40.5q0 -24 -17.5 -41t-40.5 -17q-24 0 -41 17t-17 41q0 23 17 40.5t41 17.5q23 0 40.5 -17.5zM393.5 725.5q17.5 -17.5 17.5 -40.5q0 -24 -17.5 -41t-40.5 -17q-24 0 -41 17t-17 41q0 23 17 40.5
t41 17.5q23 0 40.5 -17.5z" />
    <glyph glyph-name="aring" unicode="&#xe5;" horiz-adv-x="498" 
d="M69.5 24.5q-30.5 31.5 -30.5 87.5q0 45 24.5 74t58 46t88.5 36q56 19 83 35t27 43v62q0 58 -24.5 79.5t-68.5 21.5q-70 0 -99 -36q20 -5 33.5 -21t13.5 -40q0 -25 -16 -39.5t-41 -14.5q-28 0 -42 17.5t-14 42.5q0 24 11.5 40t34.5 32q24 17 61 28t81 11q78 0 118 -37
q25 -23 33.5 -55.5t8.5 -85.5v-278q0 -25 7 -36t24 -11q12 0 22.5 5.5t22.5 15.5l11 -17q-26 -20 -44.5 -28.5t-46.5 -8.5q-48 0 -67 24t-19 65q-30 -50 -69 -69.5t-88 -19.5q-63 0 -93.5 31.5zM320 109v196q-9 -14 -25 -23t-49 -24q-38 -16 -61.5 -30.5t-40.5 -39.5
t-17 -64q0 -45 22 -68t58 -23q66 0 113 76zM314.5 766q28.5 -25 28.5 -66t-28.5 -66.5t-68.5 -25.5t-68 25.5t-28 66.5t28 66t68 25t68.5 -25zM199 750.5q-21 -19.5 -21 -51.5q0 -33 20.5 -51.5t47.5 -18.5t48 18.5t21 51.5t-21 52t-48 19q-26 0 -47 -19.5z" />
    <glyph glyph-name="ae" unicode="&#xe6;" horiz-adv-x="745" 
d="M622 51q32 23 54 77l20 -8q-17 -55 -60.5 -94.5t-106.5 -39.5q-69 0 -116 33t-70 96q-39 -73 -83 -97.5t-97 -24.5q-63 0 -93.5 31.5t-30.5 87.5q0 45 24.5 74t58 46t88.5 36q56 19 83 35t27 43v62q0 58 -24.5 79.5t-68.5 21.5q-70 0 -99 -36q20 -5 33.5 -21t13.5 -40
q0 -25 -16 -39.5t-41 -14.5q-28 0 -42 17.5t-14 42.5q0 24 11.5 40t34.5 32q24 17 61 28t81 11q78 0 118 -37q11 -11 18 -24q52 61 139 61q85 0 131 -54.5t46 -165.5h-291q-3 -28 -3 -64q0 -66 20 -115.5t52 -75.5t69 -26q41 0 73 23zM446.5 464q-30.5 -46 -36.5 -136h196
q2 78 -20 130t-65 52q-44 0 -74.5 -46zM320 305q-9 -14 -25 -23t-49 -24q-38 -16 -61.5 -30.5t-40.5 -39.5t-17 -64q0 -45 22 -68t58 -23q66 0 113 76v196z" />
    <glyph glyph-name="ccedilla" unicode="&#xe7;" horiz-adv-x="486" 
d="M395 497q47 -31 47 -77q0 -26 -15 -41t-38 -15t-39 13.5t-16 36.5q0 21 12 35.5t30 19.5q-10 18 -35.5 30t-54.5 12q-37 0 -69 -23.5t-53 -78t-21 -143.5q0 -124 40 -180.5t104 -56.5q43 0 81.5 25t63.5 78l19 -7q-17 -57 -63.5 -98t-120.5 -41q-62 0 -112.5 32
t-79.5 92.5t-29 140.5q0 81 29.5 144t82.5 98.5t121 35.5q67 0 116 -32zM239 -72q30 7 59 7q28 0 44.5 -12.5t16.5 -34.5q0 -38 -35 -57t-78 -19q-50 0 -83 11l4 18q21 -3 38 -3q36 0 63 10.5t27 34.5q0 28 -42 28q-28 0 -49 -7l34 102h27z" />
    <glyph glyph-name="egrave" unicode="&#xe8;" horiz-adv-x="506" 
d="M463 120q-18 -55 -67.5 -94.5t-119.5 -39.5q-71 0 -123 32.5t-79.5 91t-27.5 135.5q0 87 28 151t79 98.5t119 34.5q90 0 138.5 -54.5t48.5 -165.5h-313q-3 -28 -3 -64q0 -66 21.5 -115t57 -75.5t74.5 -26.5q48 0 85 23t62 77zM187 464q-34 -46 -42 -136h218
q2 78 -22.5 130t-72.5 52q-47 0 -81 -46zM170 820q21 0 38 -22q17 -23 40 -69q32 -62 69 -121l-11 -9q-35 36 -64.5 63.5t-36.5 33.5q-37 30 -57 55q-14 19 -14 34q0 16 14 28q8 7 22 7z" />
    <glyph glyph-name="eacute" unicode="&#xe9;" horiz-adv-x="506" 
d="M463 120q-18 -55 -67.5 -94.5t-119.5 -39.5q-71 0 -123 32.5t-79.5 91t-27.5 135.5q0 87 28 151t79 98.5t119 34.5q90 0 138.5 -54.5t48.5 -165.5h-313q-3 -28 -3 -64q0 -66 21.5 -115t57 -75.5t74.5 -26.5q48 0 85 23t62 77zM187 464q-34 -46 -42 -136h218
q2 78 -22.5 130t-72.5 52q-47 0 -81 -46zM392 785q0 -15 -14 -34q-20 -25 -57 -55q-7 -6 -36.5 -33.5t-64.5 -63.5l-11 9q37 59 69 121q23 46 40 69q16 22 38 22q14 0 22 -7q14 -12 14 -28z" />
    <glyph glyph-name="ecircumflex" unicode="&#xea;" horiz-adv-x="506" 
d="M463 120q-18 -55 -67.5 -94.5t-119.5 -39.5q-71 0 -123 32.5t-79.5 91t-27.5 135.5q0 87 28 151t79 98.5t119 34.5q90 0 138.5 -54.5t48.5 -165.5h-313q-3 -28 -3 -64q0 -66 21.5 -115t57 -75.5t74.5 -26.5q48 0 85 23t62 77zM187 464q-34 -46 -42 -136h218
q2 78 -22.5 130t-72.5 52q-47 0 -81 -46zM345.5 704.5q44.5 -46.5 101.5 -74.5l-8 -14q-54 19 -105.5 46t-82.5 54q-25 -27 -65.5 -54t-82.5 -46l-8 14q57 28 101.5 74.5t65.5 97.5h18q21 -51 65.5 -97.5z" />
    <glyph glyph-name="edieresis" unicode="&#xeb;" horiz-adv-x="506" 
d="M463 120q-18 -55 -67.5 -94.5t-119.5 -39.5q-71 0 -123 32.5t-79.5 91t-27.5 135.5q0 87 28 151t79 98.5t119 34.5q90 0 138.5 -54.5t48.5 -165.5h-313q-3 -28 -3 -64q0 -66 21.5 -115t57 -75.5t74.5 -26.5q48 0 85 23t62 77zM187 464q-34 -46 -42 -136h218
q2 78 -22.5 130t-72.5 52q-47 0 -81 -46zM206.5 725.5q17.5 -17.5 17.5 -40.5q0 -24 -17.5 -41t-40.5 -17q-24 0 -41 17t-17 41q0 23 17 40.5t41 17.5q23 0 40.5 -17.5zM418.5 725.5q17.5 -17.5 17.5 -40.5q0 -24 -17.5 -41t-40.5 -17q-24 0 -41 17t-17 41q0 23 17 40.5
t41 17.5q23 0 40.5 -17.5z" />
    <glyph glyph-name="igrave" unicode="&#xec;" horiz-adv-x="293" 
d="M195 93q0 -41 17 -56.5t59 -15.5v-21q-92 4 -121 4t-121 -4v21q42 0 59 15.5t17 56.5v313q0 46 -17 67t-59 21v21q32 -3 62 -3q63 0 104 14v-433zM40 820q21 0 38 -22q17 -23 40 -69q32 -62 69 -121l-11 -9q-35 36 -64.5 63.5t-36.5 33.5q-37 30 -57 55q-14 19 -14 34
q0 16 14 28q8 7 22 7z" />
    <glyph glyph-name="iacute" unicode="&#xed;" horiz-adv-x="293" 
d="M195 93q0 -41 17 -56.5t59 -15.5v-21q-92 4 -121 4t-121 -4v21q42 0 59 15.5t17 56.5v313q0 46 -17 67t-59 21v21q32 -3 62 -3q63 0 104 14v-433zM262 785q0 -15 -14 -34q-20 -25 -57 -55q-7 -6 -36.5 -33.5t-64.5 -63.5l-11 9q37 59 69 121q23 46 40 69q16 22 38 22
q14 0 22 -7q14 -12 14 -28z" />
    <glyph glyph-name="icircumflex" unicode="&#xee;" horiz-adv-x="293" 
d="M195 93q0 -41 17 -56.5t59 -15.5v-21q-92 4 -121 4t-121 -4v21q42 0 59 15.5t17 56.5v313q0 46 -17 67t-59 21v21q32 -3 62 -3q63 0 104 14v-433zM215.5 704.5q44.5 -46.5 101.5 -74.5l-8 -14q-54 19 -105.5 46t-82.5 54q-25 -27 -65.5 -54t-82.5 -46l-8 14
q57 28 101.5 74.5t65.5 97.5h18q21 -51 65.5 -97.5z" />
    <glyph glyph-name="idieresis" unicode="&#xef;" horiz-adv-x="293" 
d="M195 93q0 -41 17 -56.5t59 -15.5v-21q-92 4 -121 4t-121 -4v21q42 0 59 15.5t17 56.5v313q0 46 -17 67t-59 21v21q32 -3 62 -3q63 0 104 14v-433zM76.5 725.5q17.5 -17.5 17.5 -40.5q0 -24 -17.5 -41t-40.5 -17q-24 0 -41 17t-17 41q0 23 17 40.5t41 17.5
q23 0 40.5 -17.5zM288.5 725.5q17.5 -17.5 17.5 -40.5q0 -24 -17.5 -41t-40.5 -17q-24 0 -41 17t-17 41q0 23 17 40.5t41 17.5q23 0 40.5 -17.5z" />
    <glyph glyph-name="eth" unicode="&#xf0;" horiz-adv-x="554" 
d="M498 302q0 -103 -31.5 -174t-83.5 -106.5t-113 -35.5q-102 0 -163 69.5t-61 199.5q0 69 25.5 132t74.5 102.5t118 39.5q81 0 120 -52q-28 117 -106 193l-181 -88l-9 18l174 85q-53 44 -132 80l8 17q92 -37 156 -82l141 69l9 -18l-132 -64q186 -142 186 -385zM364 74.5
q39 68.5 39 227.5q0 23 -2 63q-10 83 -45.5 113t-84.5 30q-58 0 -93 -60.5t-35 -194.5q0 -127 34.5 -187t87.5 -60q60 0 99 68.5z" />
    <glyph glyph-name="ntilde" unicode="&#xf1;" horiz-adv-x="597" 
d="M471 491q19 -20 27 -50t8 -81v-267q0 -41 17 -56.5t59 -15.5v-21q-92 4 -120 4t-112 -4v21q37 0 51.5 15.5t14.5 56.5v289q0 56 -16 85.5t-65 29.5q-41 0 -73 -24t-49.5 -65.5t-17.5 -92.5v-222q0 -41 14.5 -56.5t51.5 -15.5v-21q-84 4 -112 4t-120 -4v21q42 0 59 15.5
t17 56.5v313q0 46 -17 67t-59 21v21q32 -3 62 -3q63 0 104 14v-118q25 64 69.5 92.5t100.5 28.5q70 0 106 -38zM276 758.5q19 -9.5 40 -26.5q20 -15 34.5 -22.5t32.5 -7.5q45 0 77 53l14 -7q-15 -53 -46.5 -78t-71.5 -25q-26 0 -44 9t-41 27q-21 16 -35 23.5t-32 7.5
q-44 0 -77 -54l-14 7q15 53 46.5 78t72.5 25q25 0 44 -9.5z" />
    <glyph glyph-name="ograve" unicode="&#xf2;" horiz-adv-x="548" 
d="M438.5 461.5q62.5 -67.5 62.5 -204.5t-62.5 -204t-164.5 -67t-164.5 67t-62.5 204t62.5 204.5t164.5 67.5t164.5 -67.5zM179 447.5q-35 -61.5 -35 -190.5t35 -190t95 -61t95 61t35 190t-35 190.5t-95 61.5t-95 -61.5zM176 820q21 0 38 -22q17 -23 40 -69q32 -62 69 -121
l-11 -9q-35 36 -64.5 63.5t-36.5 33.5q-37 30 -57 55q-14 19 -14 34q0 16 14 28q8 7 22 7z" />
    <glyph glyph-name="oacute" unicode="&#xf3;" horiz-adv-x="548" 
d="M438.5 461.5q62.5 -67.5 62.5 -204.5t-62.5 -204t-164.5 -67t-164.5 67t-62.5 204t62.5 204.5t164.5 67.5t164.5 -67.5zM179 447.5q-35 -61.5 -35 -190.5t35 -190t95 -61t95 61t35 190t-35 190.5t-95 61.5t-95 -61.5zM398 785q0 -15 -14 -34q-20 -25 -57 -55
q-7 -6 -36.5 -33.5t-64.5 -63.5l-11 9q37 59 69 121q23 46 40 69q16 22 38 22q14 0 22 -7q14 -12 14 -28z" />
    <glyph glyph-name="ocircumflex" unicode="&#xf4;" horiz-adv-x="548" 
d="M438.5 461.5q62.5 -67.5 62.5 -204.5t-62.5 -204t-164.5 -67t-164.5 67t-62.5 204t62.5 204.5t164.5 67.5t164.5 -67.5zM179 447.5q-35 -61.5 -35 -190.5t35 -190t95 -61t95 61t35 190t-35 190.5t-95 61.5t-95 -61.5zM351.5 704.5q44.5 -46.5 101.5 -74.5l-8 -14
q-54 19 -105.5 46t-82.5 54q-25 -27 -65.5 -54t-82.5 -46l-8 14q57 28 101.5 74.5t65.5 97.5h18q21 -51 65.5 -97.5z" />
    <glyph glyph-name="otilde" unicode="&#xf5;" horiz-adv-x="548" 
d="M438.5 461.5q62.5 -67.5 62.5 -204.5t-62.5 -204t-164.5 -67t-164.5 67t-62.5 204t62.5 204.5t164.5 67.5t164.5 -67.5zM179 447.5q-35 -61.5 -35 -190.5t35 -190t95 -61t95 61t35 190t-35 190.5t-95 61.5t-95 -61.5zM247 758.5q19 -9.5 40 -26.5q20 -15 34.5 -22.5
t32.5 -7.5q45 0 77 53l14 -7q-15 -53 -46.5 -78t-71.5 -25q-26 0 -44 9t-41 27q-21 16 -35 23.5t-32 7.5q-44 0 -77 -54l-14 7q15 53 46.5 78t72.5 25q25 0 44 -9.5z" />
    <glyph glyph-name="odieresis" unicode="&#xf6;" horiz-adv-x="548" 
d="M438.5 461.5q62.5 -67.5 62.5 -204.5t-62.5 -204t-164.5 -67t-164.5 67t-62.5 204t62.5 204.5t164.5 67.5t164.5 -67.5zM179 447.5q-35 -61.5 -35 -190.5t35 -190t95 -61t95 61t35 190t-35 190.5t-95 61.5t-95 -61.5zM212.5 725.5q17.5 -17.5 17.5 -40.5q0 -24 -17.5 -41
t-40.5 -17q-24 0 -41 17t-17 41q0 23 17 40.5t41 17.5q23 0 40.5 -17.5zM424.5 725.5q17.5 -17.5 17.5 -40.5q0 -24 -17.5 -41t-40.5 -17q-24 0 -41 17t-17 41q0 23 17 40.5t41 17.5q23 0 40.5 -17.5z" />
    <glyph glyph-name="divide" unicode="&#xf7;" horiz-adv-x="649" 
d="M363.5 538q16.5 -16 16.5 -39t-16.5 -39t-39.5 -16t-39 16t-16 39t16.5 39t38.5 16q23 0 39.5 -16zM574 340h-501v30h501v-30zM363.5 250q16.5 -16 16.5 -39t-16.5 -39.5t-39.5 -16.5t-39 16.5t-16 39.5t16.5 39t38.5 16q23 0 39.5 -16z" />
    <glyph glyph-name="oslash" unicode="&#xf8;" horiz-adv-x="548" 
d="M432 468q69 -71 69 -211q0 -137 -62.5 -204t-164.5 -67q-83 0 -140 44l-70 -103l-21 14l72 106q-68 70 -68 210q0 137 62.5 204.5t164.5 67.5q85 0 140 -45l71 103l19 -13zM179 447.5q-35 -61.5 -35 -190.5q0 -93 19 -153l211 333q-33 72 -100 72q-60 0 -95 -61.5z
M369 67q35 61 35 190q0 93 -19 153l-210 -335q33 -69 99 -69q60 0 95 61z" />
    <glyph glyph-name="ugrave" unicode="&#xf9;" horiz-adv-x="581" 
d="M483 108q0 -46 17 -67t59 -21v-21q-31 3 -62 3q-63 0 -104 -14v118q-24 -62 -68 -91t-96 -29q-68 0 -104 38q-18 20 -25.5 51t-7.5 80v251q0 46 -17 67t-59 21v21q31 -3 62 -3q63 0 104 14v-393q0 -38 4.5 -61.5t21 -38.5t50.5 -15q38 0 69 24t48.5 65.5t17.5 91.5v207
q0 46 -17 67t-59 21v21q31 -3 62 -3q63 0 104 14v-418zM179 820q21 0 38 -22q17 -23 40 -69q32 -62 69 -121l-11 -9q-35 36 -64.5 63.5t-36.5 33.5q-37 30 -57 55q-14 19 -14 34q0 16 14 28q8 7 22 7z" />
    <glyph glyph-name="uacute" unicode="&#xfa;" horiz-adv-x="581" 
d="M483 108q0 -46 17 -67t59 -21v-21q-31 3 -62 3q-63 0 -104 -14v118q-24 -62 -68 -91t-96 -29q-68 0 -104 38q-18 20 -25.5 51t-7.5 80v251q0 46 -17 67t-59 21v21q31 -3 62 -3q63 0 104 14v-393q0 -38 4.5 -61.5t21 -38.5t50.5 -15q38 0 69 24t48.5 65.5t17.5 91.5v207
q0 46 -17 67t-59 21v21q31 -3 62 -3q63 0 104 14v-418zM401 785q0 -15 -14 -34q-20 -25 -57 -55q-7 -6 -36.5 -33.5t-64.5 -63.5l-11 9q37 59 69 121q23 46 40 69q16 22 38 22q14 0 22 -7q14 -12 14 -28z" />
    <glyph glyph-name="ucircumflex" unicode="&#xfb;" horiz-adv-x="581" 
d="M483 108q0 -46 17 -67t59 -21v-21q-31 3 -62 3q-63 0 -104 -14v118q-24 -62 -68 -91t-96 -29q-68 0 -104 38q-18 20 -25.5 51t-7.5 80v251q0 46 -17 67t-59 21v21q31 -3 62 -3q63 0 104 14v-393q0 -38 4.5 -61.5t21 -38.5t50.5 -15q38 0 69 24t48.5 65.5t17.5 91.5v207
q0 46 -17 67t-59 21v21q31 -3 62 -3q63 0 104 14v-418zM354.5 704.5q44.5 -46.5 101.5 -74.5l-8 -14q-54 19 -105.5 46t-82.5 54q-25 -27 -65.5 -54t-82.5 -46l-8 14q57 28 101.5 74.5t65.5 97.5h18q21 -51 65.5 -97.5z" />
    <glyph glyph-name="udieresis" unicode="&#xfc;" horiz-adv-x="581" 
d="M483 108q0 -46 17 -67t59 -21v-21q-31 3 -62 3q-63 0 -104 -14v118q-24 -62 -68 -91t-96 -29q-68 0 -104 38q-18 20 -25.5 51t-7.5 80v251q0 46 -17 67t-59 21v21q31 -3 62 -3q63 0 104 14v-393q0 -38 4.5 -61.5t21 -38.5t50.5 -15q38 0 69 24t48.5 65.5t17.5 91.5v207
q0 46 -17 67t-59 21v21q31 -3 62 -3q63 0 104 14v-418zM215.5 725.5q17.5 -17.5 17.5 -40.5q0 -24 -17.5 -41t-40.5 -17q-24 0 -41 17t-17 41q0 23 17 40.5t41 17.5q23 0 40.5 -17.5zM427.5 725.5q17.5 -17.5 17.5 -40.5q0 -24 -17.5 -41t-40.5 -17q-24 0 -41 17t-17 41
q0 23 17 40.5t41 17.5q23 0 40.5 -17.5z" />
    <glyph glyph-name="yacute" unicode="&#xfd;" horiz-adv-x="504" 
d="M494 515v-20q-20 -2 -35.5 -18t-29.5 -52l-164 -430l-34 -87q-19 -49 -43 -70q-15 -14 -36 -20t-42 -6q-30 0 -49 16t-19 44q0 24 14 38.5t39 14.5q22 0 36.5 -12.5t14.5 -34.5q0 -30 -27 -45q2 -1 6 -1q55 0 85 78l35 91l-181 437q-17 34 -34 45t-34 11v21q43 -6 98 -6
q50 0 130 6v-21q-36 0 -52.5 -6t-16.5 -29q0 -21 12 -49l120 -298l111 289q11 30 11 46q0 23 -18 34t-57 14v20q53 -3 84 -3q44 0 76 3zM375 785q0 -15 -14 -34q-20 -25 -57 -55q-7 -6 -36.5 -33.5t-64.5 -63.5l-11 9q37 59 69 121q23 46 40 69q16 22 38 22q14 0 22 -7
q14 -12 14 -28z" />
    <glyph glyph-name="thorn" unicode="&#xfe;" horiz-adv-x="559" 
d="M421.5 500q42.5 -29 66.5 -85t24 -134q0 -77 -24.5 -144t-76 -109t-128.5 -42q-38 0 -69 15t-48 39v-128q0 -41 24 -56.5t72 -15.5v-21l-23 1q-93 3 -121 3q-24 0 -108 -4v21q37 0 51.5 13.5t14.5 48.5v761q0 46 -17 67t-59 21v21q32 -3 62 -3q63 0 104 14v-363
q22 52 64 80.5t96 28.5q53 0 95.5 -29zM415 267q0 232 -116 232q-45 0 -81 -32.5t-52 -93.5v-300q14 -29 41 -46.5t65 -17.5q143 0 143 258z" />
    <glyph glyph-name="ydieresis" unicode="&#xff;" horiz-adv-x="504" 
d="M494 515v-20q-20 -2 -35.5 -18t-29.5 -52l-164 -430l-34 -87q-19 -49 -43 -70q-15 -14 -36 -20t-42 -6q-30 0 -49 16t-19 44q0 24 14 38.5t39 14.5q22 0 36.5 -12.5t14.5 -34.5q0 -30 -27 -45q2 -1 6 -1q55 0 85 78l35 91l-181 437q-17 34 -34 45t-34 11v21q43 -6 98 -6
q50 0 130 6v-21q-36 0 -52.5 -6t-16.5 -29q0 -21 12 -49l120 -298l111 289q11 30 11 46q0 23 -18 34t-57 14v20q53 -3 84 -3q44 0 76 3zM189.5 725.5q17.5 -17.5 17.5 -40.5q0 -24 -17.5 -41t-40.5 -17q-24 0 -41 17t-17 41q0 23 17 40.5t41 17.5q23 0 40.5 -17.5z
M401.5 725.5q17.5 -17.5 17.5 -40.5q0 -24 -17.5 -41t-40.5 -17q-24 0 -41 17t-17 41q0 23 17 40.5t41 17.5q23 0 40.5 -17.5z" />
    <glyph glyph-name="Amacron" unicode="&#x100;" horiz-adv-x="630" 
d="M636 20v-20q-40 3 -107 3q-86 0 -128 -3v20q38 2 54.5 9.5t16.5 27.5q0 17 -12 47l-61 164h-242l-41 -106q-20 -54 -20 -82q0 -31 21.5 -45t65.5 -15v-20q-57 3 -115 3q-45 0 -75 -3v20q50 12 79 87l235 606h16l244 -629q24 -62 69 -64zM391 288l-112 299l-114 -299h226z
M490 819h-352v25h352v-25z" />
    <glyph glyph-name="amacron" unicode="&#x101;" horiz-adv-x="498" 
d="M69.5 24.5q-30.5 31.5 -30.5 87.5q0 45 24.5 74t58 46t88.5 36q56 19 83 35t27 43v62q0 58 -24.5 79.5t-68.5 21.5q-70 0 -99 -36q20 -5 33.5 -21t13.5 -40q0 -25 -16 -39.5t-41 -14.5q-28 0 -42 17.5t-14 42.5q0 24 11.5 40t34.5 32q24 17 61 28t81 11q78 0 118 -37
q25 -23 33.5 -55.5t8.5 -85.5v-278q0 -25 7 -36t24 -11q12 0 22.5 5.5t22.5 15.5l11 -17q-26 -20 -44.5 -28.5t-46.5 -8.5q-48 0 -67 24t-19 65q-30 -50 -69 -69.5t-88 -19.5q-63 0 -93.5 31.5zM320 109v196q-9 -14 -25 -23t-49 -24q-38 -16 -61.5 -30.5t-40.5 -39.5
t-17 -64q0 -45 22 -68t58 -23q66 0 113 76zM399 687h-312v25h312v-25z" />
    <glyph glyph-name="Abreve" unicode="&#x102;" horiz-adv-x="630" 
d="M636 20v-20q-40 3 -107 3q-86 0 -128 -3v20q38 2 54.5 9.5t16.5 27.5q0 17 -12 47l-61 164h-242l-41 -106q-20 -54 -20 -82q0 -31 21.5 -45t65.5 -15v-20q-57 3 -115 3q-45 0 -75 -3v20q50 12 79 87l235 606h16l244 -629q24 -62 69 -64zM391 288l-112 299l-114 -299h226z
M513 898q-29 -47 -79.5 -81.5t-119.5 -34.5t-119.5 34.5t-79.5 81.5l13 10q28 -27 74.5 -45.5t111.5 -18.5t112 19t75 46z" />
    <glyph glyph-name="abreve" unicode="&#x103;" horiz-adv-x="498" 
d="M69.5 24.5q-30.5 31.5 -30.5 87.5q0 45 24.5 74t58 46t88.5 36q56 19 83 35t27 43v62q0 58 -24.5 79.5t-68.5 21.5q-70 0 -99 -36q20 -5 33.5 -21t13.5 -40q0 -25 -16 -39.5t-41 -14.5q-28 0 -42 17.5t-14 42.5q0 24 11.5 40t34.5 32q24 17 61 28t81 11q78 0 118 -37
q25 -23 33.5 -55.5t8.5 -85.5v-278q0 -25 7 -36t24 -11q12 0 22.5 5.5t22.5 15.5l11 -17q-26 -20 -44.5 -28.5t-46.5 -8.5q-48 0 -67 24t-19 65q-30 -50 -69 -69.5t-88 -19.5q-63 0 -93.5 31.5zM320 109v196q-9 -14 -25 -23t-49 -24q-38 -16 -61.5 -30.5t-40.5 -39.5
t-17 -64q0 -45 22 -68t58 -23q66 0 113 76zM424 779q-25 -60 -70.5 -103t-108.5 -43t-108.5 43t-70.5 103l17 9q58 -96 162 -96t162 96z" />
    <glyph glyph-name="Aogonek" unicode="&#x104;" horiz-adv-x="630" 
d="M636 20v-20q-40 3 -107 3q-86 0 -128 -3v20q38 2 54.5 9.5t16.5 27.5q0 17 -12 47l-61 164h-242l-41 -106q-20 -54 -20 -82q0 -31 21.5 -45t65.5 -15v-20q-57 3 -115 3q-45 0 -75 -3v20q50 12 79 87l235 606h16l244 -629q24 -62 69 -64zM391 288l-112 299l-114 -299h226z
M545.5 -38.5q-24.5 -27.5 -24.5 -57.5q0 -20 11.5 -32t31.5 -12q18 0 34.5 9.5t26.5 23.5l15 -13q-45 -68 -113 -68q-36 0 -57.5 18t-21.5 47q0 39 36 71.5t102 54.5h38q-54 -14 -78.5 -41.5z" />
    <glyph glyph-name="aogonek" unicode="&#x105;" horiz-adv-x="498" 
d="M69.5 24.5q-30.5 31.5 -30.5 87.5q0 45 24.5 74t58 46t88.5 36q56 19 83 35t27 43v62q0 58 -24.5 79.5t-68.5 21.5q-70 0 -99 -36q20 -5 33.5 -21t13.5 -40q0 -25 -16 -39.5t-41 -14.5q-28 0 -42 17.5t-14 42.5q0 24 11.5 40t34.5 32q24 17 61 28t81 11q78 0 118 -37
q25 -23 33.5 -55.5t8.5 -85.5v-278q0 -25 7 -36t24 -11q12 0 22.5 5.5t22.5 15.5l11 -17q-26 -20 -44.5 -28.5t-46.5 -8.5q-48 0 -67 24t-19 65q-30 -50 -69 -69.5t-88 -19.5q-63 0 -93.5 31.5zM320 109v196q-9 -14 -25 -23t-49 -24q-38 -16 -61.5 -30.5t-40.5 -39.5
t-17 -64q0 -45 22 -68t58 -23q66 0 113 76zM444 -2q-87 -37 -87 -94q0 -20 11.5 -32t31.5 -12q18 0 34.5 9.5t26.5 23.5l15 -13q-45 -68 -113 -68q-36 0 -57.5 18t-21.5 47q0 39 36 71.5t102 54.5h32q-3 -3 -10 -5z" />
    <glyph glyph-name="Cacute" unicode="&#x106;" horiz-adv-x="688" 
d="M473 705q42 -17 82 -48q11 -9 19 -9q20 0 26 60h23q-4 -65 -4 -230h-23q-11 65 -20 93.5t-30 54.5q-30 39 -76.5 58.5t-100.5 19.5q-65 0 -113.5 -43t-75.5 -122.5t-27 -186.5q0 -109 29 -187t80.5 -118.5t116.5 -40.5q50 0 97 19t74 57q20 28 29 60t17 98h23
q0 -172 4 -240h-23q-3 32 -8.5 45.5t-15.5 13.5q-8 0 -21 -8q-45 -32 -86 -48.5t-99 -16.5q-95 0 -166.5 43t-111 124.5t-39.5 194.5q0 110 40.5 195t113 132t164.5 47q60 0 102 -17zM501 936q19 0 31 -17q6 -9 6 -19q0 -22 -27 -39q-21 -13 -72 -32q-75 -30 -129 -57l-7 13
q41 31 70.5 57.5t36.5 32.5q37 35 61 51q16 10 30 10z" />
    <glyph glyph-name="cacute" unicode="&#x107;" horiz-adv-x="486" 
d="M395 497q47 -31 47 -77q0 -26 -15 -41t-38 -15t-39 13.5t-16 36.5q0 21 12 35.5t30 19.5q-10 18 -35.5 30t-54.5 12q-37 0 -69 -23.5t-53 -78t-21 -143.5q0 -124 40 -180.5t104 -56.5q43 0 81.5 25t63.5 78l19 -7q-17 -57 -63.5 -98t-120.5 -41q-62 0 -112.5 32
t-79.5 92.5t-29 140.5q0 81 29.5 144t82.5 98.5t121 35.5q67 0 116 -32zM384 785q0 -15 -14 -34q-20 -25 -57 -55q-7 -6 -36.5 -33.5t-64.5 -63.5l-11 9q37 59 69 121q23 46 40 69q16 22 38 22q14 0 22 -7q14 -12 14 -28z" />
    <glyph glyph-name="Ccircumflex" unicode="&#x108;" horiz-adv-x="688" 
d="M473 705q42 -17 82 -48q11 -9 19 -9q20 0 26 60h23q-4 -65 -4 -230h-23q-11 65 -20 93.5t-30 54.5q-30 39 -76.5 58.5t-100.5 19.5q-65 0 -113.5 -43t-75.5 -122.5t-27 -186.5q0 -109 29 -187t80.5 -118.5t116.5 -40.5q50 0 97 19t74 57q20 28 29 60t17 98h23
q0 -172 4 -240h-23q-3 32 -8.5 45.5t-15.5 13.5q-8 0 -21 -8q-45 -32 -86 -48.5t-99 -16.5q-95 0 -166.5 43t-111 124.5t-39.5 194.5q0 110 40.5 195t113 132t164.5 47q60 0 102 -17zM446.5 841.5q49.5 -35.5 113.5 -57.5l-5 -14q-60 13 -118.5 32t-92.5 38
q-28 -19 -75.5 -38t-95.5 -32l-5 14q64 22 113.5 57.5t73.5 74.5h18q24 -39 73.5 -74.5z" />
    <glyph glyph-name="ccircumflex" unicode="&#x109;" horiz-adv-x="486" 
d="M395 497q47 -31 47 -77q0 -26 -15 -41t-38 -15t-39 13.5t-16 36.5q0 21 12 35.5t30 19.5q-10 18 -35.5 30t-54.5 12q-37 0 -69 -23.5t-53 -78t-21 -143.5q0 -124 40 -180.5t104 -56.5q43 0 81.5 25t63.5 78l19 -7q-17 -57 -63.5 -98t-120.5 -41q-62 0 -112.5 32
t-79.5 92.5t-29 140.5q0 81 29.5 144t82.5 98.5t121 35.5q67 0 116 -32zM337.5 704.5q44.5 -46.5 101.5 -74.5l-8 -14q-54 19 -105.5 46t-82.5 54q-25 -27 -65.5 -54t-82.5 -46l-8 14q57 28 101.5 74.5t65.5 97.5h18q21 -51 65.5 -97.5z" />
    <glyph glyph-name="Cdotaccent" unicode="&#x10a;" horiz-adv-x="688" 
d="M473 705q42 -17 82 -48q11 -9 19 -9q20 0 26 60h23q-4 -65 -4 -230h-23q-11 65 -20 93.5t-30 54.5q-30 39 -76.5 58.5t-100.5 19.5q-65 0 -113.5 -43t-75.5 -122.5t-27 -186.5q0 -109 29 -187t80.5 -118.5t116.5 -40.5q50 0 97 19t74 57q20 28 29 60t17 98h23
q0 -172 4 -240h-23q-3 32 -8.5 45.5t-15.5 13.5q-8 0 -21 -8q-45 -32 -86 -48.5t-99 -16.5q-95 0 -166.5 43t-111 124.5t-39.5 194.5q0 110 40.5 195t113 132t164.5 47q60 0 102 -17zM409 881q19 -19 19 -45t-19 -45t-45 -19t-45 19t-19 45t19 45t45 19t45 -19z" />
    <glyph glyph-name="cdotaccent" unicode="&#x10b;" horiz-adv-x="486" 
d="M395 497q47 -31 47 -77q0 -26 -15 -41t-38 -15t-39 13.5t-16 36.5q0 21 12 35.5t30 19.5q-10 18 -35.5 30t-54.5 12q-37 0 -69 -23.5t-53 -78t-21 -143.5q0 -124 40 -180.5t104 -56.5q43 0 81.5 25t63.5 78l19 -7q-17 -57 -63.5 -98t-120.5 -41q-62 0 -112.5 32
t-79.5 92.5t-29 140.5q0 81 29.5 144t82.5 98.5t121 35.5q67 0 116 -32zM322 746q19 -19 19 -45t-19 -45t-45 -19t-45 19t-19 45t19 45t45 19t45 -19z" />
    <glyph glyph-name="Ccaron" unicode="&#x10c;" horiz-adv-x="688" 
d="M473 705q42 -17 82 -48q11 -9 19 -9q20 0 26 60h23q-4 -65 -4 -230h-23q-11 65 -20 93.5t-30 54.5q-30 39 -76.5 58.5t-100.5 19.5q-65 0 -113.5 -43t-75.5 -122.5t-27 -186.5q0 -109 29 -187t80.5 -118.5t116.5 -40.5q50 0 97 19t74 57q20 28 29 60t17 98h23
q0 -172 4 -240h-23q-3 32 -8.5 45.5t-15.5 13.5q-8 0 -21 -8q-45 -32 -86 -48.5t-99 -16.5q-95 0 -166.5 43t-111 124.5t-39.5 194.5q0 110 40.5 195t113 132t164.5 47q60 0 102 -17zM557 912q-64 -22 -113.5 -57.5t-73.5 -74.5h-18q-24 39 -73.5 74.5t-113.5 57.5l5 14
q60 -13 118.5 -32t92.5 -38q28 19 75.5 38t95.5 32z" />
    <glyph glyph-name="ccaron" unicode="&#x10d;" horiz-adv-x="486" 
d="M395 497q47 -31 47 -77q0 -26 -15 -41t-38 -15t-39 13.5t-16 36.5q0 21 12 35.5t30 19.5q-10 18 -35.5 30t-54.5 12q-37 0 -69 -23.5t-53 -78t-21 -143.5q0 -124 40 -180.5t104 -56.5q43 0 81.5 25t63.5 78l19 -7q-17 -57 -63.5 -98t-120.5 -41q-62 0 -112.5 32
t-79.5 92.5t-29 140.5q0 81 29.5 144t82.5 98.5t121 35.5q67 0 116 -32zM429 788q-57 -28 -101.5 -74.5t-65.5 -97.5h-18q-21 51 -65.5 97.5t-101.5 74.5l8 14q54 -19 105.5 -46t82.5 -54q25 27 65.5 54t82.5 46z" />
    <glyph glyph-name="Dcaron" unicode="&#x10e;" horiz-adv-x="723" 
d="M580 619.5q88 -88.5 88 -257.5q0 -109 -43 -191t-124.5 -126.5t-194.5 -44.5l-58 1q-56 2 -82 2q-82 0 -124 -3v20q36 2 52.5 8t22.5 23t6 55v496q0 38 -6 55t-22.5 23t-52.5 8v20q35 -3 97 -3l85 1q68 2 91 2q177 0 265 -88.5zM243.5 683q-15.5 -7 -21.5 -25t-6 -54
v-500q0 -36 6 -54t21.5 -25t47.5 -7q106 0 167 38.5t85.5 112.5t24.5 189t-27 187.5t-87.5 108.5t-163.5 36q-31 0 -46.5 -7zM508 912q-64 -22 -113.5 -57.5t-73.5 -74.5h-18q-24 39 -73.5 74.5t-113.5 57.5l5 14q60 -13 118.5 -32t92.5 -38q28 19 75.5 38t95.5 32z" />
    <glyph glyph-name="dcaron" unicode="&#x10f;" horiz-adv-x="581" 
d="M501 42q17 -21 59 -21v-21q-31 3 -62 3q-63 0 -104 -14v89q-18 -45 -54 -68.5t-88 -23.5q-96 0 -150.5 69t-53.5 202q0 87 30.5 148.5t82 92.5t113.5 31q38 0 69.5 -14.5t50.5 -44.5v194q0 46 -17 67t-59 21v21q32 -3 62 -3q63 0 104 14v-675q0 -46 17 -67zM351 46
q31 30 43 85v298q-27 77 -112 77q-62 0 -100 -63.5t-37 -185.5q-1 -120 34 -180.5t102 -60.5q39 0 70 30zM622.5 766.5q1.5 -12.5 1.5 -23.5q0 -27 -15 -64.5t-52 -115.5l-14 4q20 113 20 145q0 21 -4 30.5t-16 9.5v21l16 -1q28 0 60 12q2 -5 3.5 -17.5z" />
    <glyph glyph-name="Dcroat" unicode="&#x110;" horiz-adv-x="723" 
d="M580 619.5q88 -88.5 88 -257.5q0 -109 -43 -191t-124.5 -126.5t-194.5 -44.5l-58 1q-56 2 -82 2q-82 0 -124 -3v20q36 2 52.5 8t22.5 23t6 55v496q0 38 -6 55t-22.5 23t-52.5 8v20q35 -3 97 -3l85 1q68 2 91 2q177 0 265 -88.5zM243.5 683q-15.5 -7 -21.5 -25t-6 -54
v-500q0 -36 6 -54t21.5 -25t47.5 -7q106 0 167 38.5t85.5 112.5t24.5 189t-27 187.5t-87.5 108.5t-163.5 36q-31 0 -46.5 -7zM363 346h-354v20h354v-20z" />
    <glyph glyph-name="dcroat" unicode="&#x111;" horiz-adv-x="581" 
d="M501 42q17 -21 59 -21v-21q-31 3 -62 3q-63 0 -104 -14v89q-18 -45 -54 -68.5t-88 -23.5q-96 0 -150.5 69t-53.5 202q0 87 30.5 148.5t82 92.5t113.5 31q38 0 69.5 -14.5t50.5 -44.5v194q0 46 -17 67t-59 21v21q32 -3 62 -3q63 0 104 14v-675q0 -46 17 -67zM351 46
q31 30 43 85v298q-27 77 -112 77q-62 0 -100 -63.5t-37 -185.5q-1 -120 34 -180.5t102 -60.5q39 0 70 30zM572 608h-354v20h354v-20z" />
    <glyph glyph-name="Emacron" unicode="&#x112;" horiz-adv-x="609" 
d="M561 0q-68 3 -229 3q-192 0 -290 -3v20q36 2 52.5 8t22.5 23t6 55v496q0 38 -6 55t-22.5 23t-52.5 8v20q98 -3 290 -3q147 0 209 3q-7 -66 -7 -118q0 -39 3 -62h-23q-7 65 -18 96.5t-37 46t-79 14.5h-83q-36 0 -52.5 -5.5t-22.5 -22.5t-6 -55v-236h66q35 0 54 16.5
t25.5 39t10.5 56.5l3 20h23q-3 -42 -3 -94v-48q0 -51 6 -142h-23q-1 7 -6 48.5t-27.5 62.5t-62.5 21h-66v-240q0 -38 6 -55t22.5 -22.5t52.5 -5.5h73q62 0 94.5 16.5t47.5 53t22 107.5h23q-3 -27 -3 -72q0 -57 7 -128zM482 819h-352v25h352v-25z" />
    <glyph glyph-name="emacron" unicode="&#x113;" horiz-adv-x="506" 
d="M463 120q-18 -55 -67.5 -94.5t-119.5 -39.5q-71 0 -123 32.5t-79.5 91t-27.5 135.5q0 87 28 151t79 98.5t119 34.5q90 0 138.5 -54.5t48.5 -165.5h-313q-3 -28 -3 -64q0 -66 21.5 -115t57 -75.5t74.5 -26.5q48 0 85 23t62 77zM187 464q-34 -46 -42 -136h218
q2 78 -22.5 130t-72.5 52q-47 0 -81 -46zM424 687h-312v25h312v-25z" />
    <glyph glyph-name="Ebreve" unicode="&#x114;" horiz-adv-x="609" 
d="M561 0q-68 3 -229 3q-192 0 -290 -3v20q36 2 52.5 8t22.5 23t6 55v496q0 38 -6 55t-22.5 23t-52.5 8v20q98 -3 290 -3q147 0 209 3q-7 -66 -7 -118q0 -39 3 -62h-23q-7 65 -18 96.5t-37 46t-79 14.5h-83q-36 0 -52.5 -5.5t-22.5 -22.5t-6 -55v-236h66q35 0 54 16.5
t25.5 39t10.5 56.5l3 20h23q-3 -42 -3 -94v-48q0 -51 6 -142h-23q-1 7 -6 48.5t-27.5 62.5t-62.5 21h-66v-240q0 -38 6 -55t22.5 -22.5t52.5 -5.5h73q62 0 94.5 16.5t47.5 53t22 107.5h23q-3 -27 -3 -72q0 -57 7 -128zM505 898q-29 -47 -79.5 -81.5t-119.5 -34.5
t-119.5 34.5t-79.5 81.5l13 10q28 -27 74.5 -45.5t111.5 -18.5t112 19t75 46z" />
    <glyph glyph-name="ebreve" unicode="&#x115;" horiz-adv-x="506" 
d="M463 120q-18 -55 -67.5 -94.5t-119.5 -39.5q-71 0 -123 32.5t-79.5 91t-27.5 135.5q0 87 28 151t79 98.5t119 34.5q90 0 138.5 -54.5t48.5 -165.5h-313q-3 -28 -3 -64q0 -66 21.5 -115t57 -75.5t74.5 -26.5q48 0 85 23t62 77zM187 464q-34 -46 -42 -136h218
q2 78 -22.5 130t-72.5 52q-47 0 -81 -46zM449 779q-25 -60 -70.5 -103t-108.5 -43t-108.5 43t-70.5 103l17 9q58 -96 162 -96t162 96z" />
    <glyph glyph-name="Edotaccent" unicode="&#x116;" horiz-adv-x="609" 
d="M561 0q-68 3 -229 3q-192 0 -290 -3v20q36 2 52.5 8t22.5 23t6 55v496q0 38 -6 55t-22.5 23t-52.5 8v20q98 -3 290 -3q147 0 209 3q-7 -66 -7 -118q0 -39 3 -62h-23q-7 65 -18 96.5t-37 46t-79 14.5h-83q-36 0 -52.5 -5.5t-22.5 -22.5t-6 -55v-236h66q35 0 54 16.5
t25.5 39t10.5 56.5l3 20h23q-3 -42 -3 -94v-48q0 -51 6 -142h-23q-1 7 -6 48.5t-27.5 62.5t-62.5 21h-66v-240q0 -38 6 -55t22.5 -22.5t52.5 -5.5h73q62 0 94.5 16.5t47.5 53t22 107.5h23q-3 -27 -3 -72q0 -57 7 -128zM351 881q19 -19 19 -45t-19 -45t-45 -19t-45 19t-19 45
t19 45t45 19t45 -19z" />
    <glyph glyph-name="edotaccent" unicode="&#x117;" horiz-adv-x="506" 
d="M463 120q-18 -55 -67.5 -94.5t-119.5 -39.5q-71 0 -123 32.5t-79.5 91t-27.5 135.5q0 87 28 151t79 98.5t119 34.5q90 0 138.5 -54.5t48.5 -165.5h-313q-3 -28 -3 -64q0 -66 21.5 -115t57 -75.5t74.5 -26.5q48 0 85 23t62 77zM187 464q-34 -46 -42 -136h218
q2 78 -22.5 130t-72.5 52q-47 0 -81 -46zM316 746q19 -19 19 -45t-19 -45t-45 -19t-45 19t-19 45t19 45t45 19t45 -19z" />
    <glyph glyph-name="Eogonek" unicode="&#x118;" horiz-adv-x="609" 
d="M561 0q-68 3 -229 3q-192 0 -290 -3v20q36 2 52.5 8t22.5 23t6 55v496q0 38 -6 55t-22.5 23t-52.5 8v20q98 -3 290 -3q147 0 209 3q-7 -66 -7 -118q0 -39 3 -62h-23q-7 65 -18 96.5t-37 46t-79 14.5h-83q-36 0 -52.5 -5.5t-22.5 -22.5t-6 -55v-236h66q35 0 54 16.5
t25.5 39t10.5 56.5l3 20h23q-3 -42 -3 -94v-48q0 -51 6 -142h-23q-1 7 -6 48.5t-27.5 62.5t-62.5 21h-66v-240q0 -38 6 -55t22.5 -22.5t52.5 -5.5h73q62 0 94.5 16.5t47.5 53t22 107.5h23q-3 -27 -3 -72q0 -57 7 -128zM482.5 -38.5q-24.5 -27.5 -24.5 -57.5q0 -20 11.5 -32
t31.5 -12q18 0 34.5 9.5t26.5 23.5l15 -13q-45 -68 -113 -68q-36 0 -57.5 18t-21.5 47q0 39 36 71.5t102 54.5h38q-54 -14 -78.5 -41.5z" />
    <glyph glyph-name="eogonek" unicode="&#x119;" horiz-adv-x="506" 
d="M463 120q-18 -55 -67.5 -94.5t-119.5 -39.5q-71 0 -123 32.5t-79.5 91t-27.5 135.5q0 87 28 151t79 98.5t119 34.5q90 0 138.5 -54.5t48.5 -165.5h-313q-3 -28 -3 -64q0 -66 21.5 -115t57 -75.5t74.5 -26.5q48 0 85 23t62 77zM187 464q-34 -46 -42 -136h218
q2 78 -22.5 130t-72.5 52q-47 0 -81 -46zM345 -2q-87 -37 -87 -94q0 -20 11.5 -32t31.5 -12q18 0 34.5 9.5t26.5 23.5l15 -13q-45 -68 -113 -68q-36 0 -57.5 18t-21.5 47q0 39 36 71.5t102 54.5h32q-3 -3 -10 -5z" />
    <glyph glyph-name="Ecaron" unicode="&#x11a;" horiz-adv-x="609" 
d="M561 0q-68 3 -229 3q-192 0 -290 -3v20q36 2 52.5 8t22.5 23t6 55v496q0 38 -6 55t-22.5 23t-52.5 8v20q98 -3 290 -3q147 0 209 3q-7 -66 -7 -118q0 -39 3 -62h-23q-7 65 -18 96.5t-37 46t-79 14.5h-83q-36 0 -52.5 -5.5t-22.5 -22.5t-6 -55v-236h66q35 0 54 16.5
t25.5 39t10.5 56.5l3 20h23q-3 -42 -3 -94v-48q0 -51 6 -142h-23q-1 7 -6 48.5t-27.5 62.5t-62.5 21h-66v-240q0 -38 6 -55t22.5 -22.5t52.5 -5.5h73q62 0 94.5 16.5t47.5 53t22 107.5h23q-3 -27 -3 -72q0 -57 7 -128zM499 912q-64 -22 -113.5 -57.5t-73.5 -74.5h-18
q-24 39 -73.5 74.5t-113.5 57.5l5 14q60 -13 118.5 -32t92.5 -38q28 19 75.5 38t95.5 32z" />
    <glyph glyph-name="ecaron" unicode="&#x11b;" horiz-adv-x="506" 
d="M463 120q-18 -55 -67.5 -94.5t-119.5 -39.5q-71 0 -123 32.5t-79.5 91t-27.5 135.5q0 87 28 151t79 98.5t119 34.5q90 0 138.5 -54.5t48.5 -165.5h-313q-3 -28 -3 -64q0 -66 21.5 -115t57 -75.5t74.5 -26.5q48 0 85 23t62 77zM187 464q-34 -46 -42 -136h218
q2 78 -22.5 130t-72.5 52q-47 0 -81 -46zM437 788q-57 -28 -101.5 -74.5t-65.5 -97.5h-18q-21 51 -65.5 97.5t-101.5 74.5l8 14q54 -19 105.5 -46t82.5 -54q25 27 65.5 54t82.5 46z" />
    <glyph glyph-name="Gcircumflex" unicode="&#x11c;" horiz-adv-x="703" 
d="M473 705.5q38 -16.5 83 -48.5q13 -10 20 -10q19 0 25 61h23q-4 -65 -4 -230h-23q-9 53 -19 87.5t-31 60.5q-29 36 -75.5 57t-97.5 21q-66 0 -116 -43t-77 -122.5t-27 -185.5q0 -180 57.5 -263.5t180.5 -83.5q60 0 104 31q18 12 23.5 23.5t5.5 31.5v96q0 42 -8 61t-28 26
t-65 9v20q52 -3 141 -3q68 0 104 3v-20q-23 -2 -33.5 -8t-14 -23t-3.5 -55v-198h-20q-1 20 -8 38.5t-19 18.5q-6 0 -12 -3t-21 -14q-35 -27 -72.5 -40.5t-83.5 -13.5q-103 0 -176.5 42.5t-112.5 122.5t-39 191q0 114 41.5 200.5t114.5 133t166 46.5q59 0 97 -16.5z
M443.5 841.5q49.5 -35.5 113.5 -57.5l-5 -14q-60 13 -118.5 32t-92.5 38q-28 -19 -75.5 -38t-95.5 -32l-5 14q64 22 113.5 57.5t73.5 74.5h18q24 -39 73.5 -74.5z" />
    <glyph glyph-name="gcircumflex" unicode="&#x11d;" horiz-adv-x="528" 
d="M440.5 437q-12.5 12 -12.5 35q0 20 10 46q-26 -11 -41 -24.5t-27 -33.5q23 -35 23 -89q0 -79 -48 -118.5t-127 -39.5h-1q-33 -19 -50 -35t-17 -36q0 -32 48 -32h125q68 0 112.5 -29.5t44.5 -88.5q0 -48 -31 -89t-91 -66t-145 -25q-87 0 -145.5 26.5t-58.5 78.5
q0 34 27.5 59t76.5 39l6 -16q-22 -7 -35 -28t-13 -47q0 -46 41.5 -70.5t111.5 -24.5q77 0 132 29.5t55 91.5q0 36 -25.5 56t-90.5 20h-74q-59 0 -94.5 15t-35.5 60q0 31 22.5 59t74.5 55q-66 7 -105.5 46t-39.5 110q0 79 48 118.5t127 39.5q94 0 139 -52q19 27 48 44.5
t58 17.5q26 0 42 -15t16 -43t-15.5 -42t-34.5 -14q-18 0 -30.5 12zM278.5 262.5q20.5 31.5 20.5 108.5t-20.5 108.5t-60.5 31.5t-60.5 -31.5t-20.5 -108.5t20.5 -108.5t60.5 -31.5t60.5 31.5zM313.5 704.5q44.5 -46.5 101.5 -74.5l-8 -14q-54 19 -105.5 46t-82.5 54
q-25 -27 -65.5 -54t-82.5 -46l-8 14q57 28 101.5 74.5t65.5 97.5h18q21 -51 65.5 -97.5z" />
    <glyph glyph-name="Gbreve" unicode="&#x11e;" horiz-adv-x="703" 
d="M473 705.5q38 -16.5 83 -48.5q13 -10 20 -10q19 0 25 61h23q-4 -65 -4 -230h-23q-9 53 -19 87.5t-31 60.5q-29 36 -75.5 57t-97.5 21q-66 0 -116 -43t-77 -122.5t-27 -185.5q0 -180 57.5 -263.5t180.5 -83.5q60 0 104 31q18 12 23.5 23.5t5.5 31.5v96q0 42 -8 61t-28 26
t-65 9v20q52 -3 141 -3q68 0 104 3v-20q-23 -2 -33.5 -8t-14 -23t-3.5 -55v-198h-20q-1 20 -8 38.5t-19 18.5q-6 0 -12 -3t-21 -14q-35 -27 -72.5 -40.5t-83.5 -13.5q-103 0 -176.5 42.5t-112.5 122.5t-39 191q0 114 41.5 200.5t114.5 133t166 46.5q59 0 97 -16.5zM560 898
q-29 -47 -79.5 -81.5t-119.5 -34.5t-119.5 34.5t-79.5 81.5l13 10q28 -27 74.5 -45.5t111.5 -18.5t112 19t75 46z" />
    <glyph glyph-name="gbreve" unicode="&#x11f;" horiz-adv-x="528" 
d="M440.5 437q-12.5 12 -12.5 35q0 20 10 46q-26 -11 -41 -24.5t-27 -33.5q23 -35 23 -89q0 -79 -48 -118.5t-127 -39.5h-1q-33 -19 -50 -35t-17 -36q0 -32 48 -32h125q68 0 112.5 -29.5t44.5 -88.5q0 -48 -31 -89t-91 -66t-145 -25q-87 0 -145.5 26.5t-58.5 78.5
q0 34 27.5 59t76.5 39l6 -16q-22 -7 -35 -28t-13 -47q0 -46 41.5 -70.5t111.5 -24.5q77 0 132 29.5t55 91.5q0 36 -25.5 56t-90.5 20h-74q-59 0 -94.5 15t-35.5 60q0 31 22.5 59t74.5 55q-66 7 -105.5 46t-39.5 110q0 79 48 118.5t127 39.5q94 0 139 -52q19 27 48 44.5
t58 17.5q26 0 42 -15t16 -43t-15.5 -42t-34.5 -14q-18 0 -30.5 12zM278.5 262.5q20.5 31.5 20.5 108.5t-20.5 108.5t-60.5 31.5t-60.5 -31.5t-20.5 -108.5t20.5 -108.5t60.5 -31.5t60.5 31.5zM417 779q-25 -60 -70.5 -103t-108.5 -43t-108.5 43t-70.5 103l17 9
q58 -96 162 -96t162 96z" />
    <glyph glyph-name="Gdotaccent" unicode="&#x120;" horiz-adv-x="703" 
d="M473 705.5q38 -16.5 83 -48.5q13 -10 20 -10q19 0 25 61h23q-4 -65 -4 -230h-23q-9 53 -19 87.5t-31 60.5q-29 36 -75.5 57t-97.5 21q-66 0 -116 -43t-77 -122.5t-27 -185.5q0 -180 57.5 -263.5t180.5 -83.5q60 0 104 31q18 12 23.5 23.5t5.5 31.5v96q0 42 -8 61t-28 26
t-65 9v20q52 -3 141 -3q68 0 104 3v-20q-23 -2 -33.5 -8t-14 -23t-3.5 -55v-198h-20q-1 20 -8 38.5t-19 18.5q-6 0 -12 -3t-21 -14q-35 -27 -72.5 -40.5t-83.5 -13.5q-103 0 -176.5 42.5t-112.5 122.5t-39 191q0 114 41.5 200.5t114.5 133t166 46.5q59 0 97 -16.5zM406 881
q19 -19 19 -45t-19 -45t-45 -19t-45 19t-19 45t19 45t45 19t45 -19z" />
    <glyph glyph-name="gdotaccent" unicode="&#x121;" horiz-adv-x="528" 
d="M440.5 437q-12.5 12 -12.5 35q0 20 10 46q-26 -11 -41 -24.5t-27 -33.5q23 -35 23 -89q0 -79 -48 -118.5t-127 -39.5h-1q-33 -19 -50 -35t-17 -36q0 -32 48 -32h125q68 0 112.5 -29.5t44.5 -88.5q0 -48 -31 -89t-91 -66t-145 -25q-87 0 -145.5 26.5t-58.5 78.5
q0 34 27.5 59t76.5 39l6 -16q-22 -7 -35 -28t-13 -47q0 -46 41.5 -70.5t111.5 -24.5q77 0 132 29.5t55 91.5q0 36 -25.5 56t-90.5 20h-74q-59 0 -94.5 15t-35.5 60q0 31 22.5 59t74.5 55q-66 7 -105.5 46t-39.5 110q0 79 48 118.5t127 39.5q94 0 139 -52q19 27 48 44.5
t58 17.5q26 0 42 -15t16 -43t-15.5 -42t-34.5 -14q-18 0 -30.5 12zM278.5 262.5q20.5 31.5 20.5 108.5t-20.5 108.5t-60.5 31.5t-60.5 -31.5t-20.5 -108.5t20.5 -108.5t60.5 -31.5t60.5 31.5zM284 746q19 -19 19 -45t-19 -45t-45 -19t-45 19t-19 45t19 45t45 19t45 -19z" />
    <glyph glyph-name="Gcommaaccent" unicode="&#x122;" horiz-adv-x="703" 
d="M473 705.5q38 -16.5 83 -48.5q13 -10 20 -10q19 0 25 61h23q-4 -65 -4 -230h-23q-9 53 -19 87.5t-31 60.5q-29 36 -75.5 57t-97.5 21q-66 0 -116 -43t-77 -122.5t-27 -185.5q0 -180 57.5 -263.5t180.5 -83.5q60 0 104 31q18 12 23.5 23.5t5.5 31.5v96q0 42 -8 61t-28 26
t-65 9v20q52 -3 141 -3q68 0 104 3v-20q-23 -2 -33.5 -8t-14 -23t-3.5 -55v-198h-20q-1 20 -8 38.5t-19 18.5q-6 0 -12 -3t-21 -14q-35 -27 -72.5 -40.5t-83.5 -13.5q-103 0 -176.5 42.5t-112.5 122.5t-39 191q0 114 41.5 200.5t114.5 133t166 46.5q59 0 97 -16.5zM417 -89
q18 -20 18 -50q0 -38 -18 -61.5t-64 -40.5l-7 18q26 8 44.5 24.5t17.5 38.5q-18 -16 -42 -16q-23 0 -37.5 14.5t-14.5 39.5q0 22 16.5 37.5t39.5 15.5q29 0 47 -20z" />
    <glyph glyph-name="gcommaaccent" unicode="&#x123;" horiz-adv-x="505" 
d="M440.5 437q-12.5 12 -12.5 35q0 20 10 46q-26 -11 -41 -24.5t-27 -33.5q23 -35 23 -89q0 -79 -48 -118.5t-127 -39.5h-1q-33 -19 -50 -35t-17 -36q0 -32 48 -32h125q68 0 112.5 -29.5t44.5 -88.5q0 -48 -31 -89t-91 -66t-145 -25q-87 0 -145.5 26.5t-58.5 78.5
q0 34 27.5 59t76.5 39l6 -16q-22 -7 -35 -28t-13 -47q0 -46 41.5 -70.5t111.5 -24.5q77 0 132 29.5t55 91.5q0 36 -25.5 56t-90.5 20h-74q-59 0 -94.5 15t-35.5 60q0 31 22.5 59t74.5 55q-66 7 -105.5 46t-39.5 110q0 79 48 118.5t127 39.5q94 0 139 -52q19 27 48 44.5
t58 17.5q26 0 42 -15t16 -43t-15.5 -42t-34.5 -14q-18 0 -30.5 12zM278.5 262.5q20.5 31.5 20.5 108.5t-20.5 108.5t-60.5 31.5t-60.5 -31.5t-20.5 -108.5t20.5 -108.5t60.5 -31.5t60.5 31.5zM185 658q-18 20 -18 50q0 38 18 61.5t64 40.5l7 -18q-26 -8 -44.5 -24.5
t-17.5 -38.5q18 16 42 16q23 0 37.5 -14.5t14.5 -39.5q0 -22 -16.5 -37.5t-39.5 -15.5q-29 0 -47 20z" />
    <glyph glyph-name="Hcircumflex" unicode="&#x124;" horiz-adv-x="757" 
d="M662.5 680q-16.5 -6 -22.5 -23t-6 -55v-496q0 -38 6 -55t22.5 -23t52.5 -8v-20q-42 3 -128 3q-81 0 -127 -3v20q36 2 52.5 8t22.5 23t6 55v240h-325v-240q0 -38 6 -55t22.5 -23t52.5 -8v-20q-46 3 -127 3q-86 0 -128 -3v20q36 2 52.5 8t22.5 23t6 55v496q0 38 -6 55
t-22.5 23t-52.5 8v20q42 -3 128 -3q80 0 127 3v-20q-36 -2 -52.5 -8t-22.5 -23t-6 -55v-236h325v236q0 38 -6 55t-22.5 23t-52.5 8v20q46 -3 127 -3q86 0 128 3v-20q-36 -2 -52.5 -8zM463.5 841.5q49.5 -35.5 113.5 -57.5l-5 -14q-60 13 -118.5 32t-92.5 38
q-28 -19 -75.5 -38t-95.5 -32l-5 14q64 22 113.5 57.5t73.5 74.5h18q24 -39 73.5 -74.5z" />
    <glyph glyph-name="hcircumflex" unicode="&#x125;" horiz-adv-x="588" 
d="M186 409q25 63 69.5 91.5t100.5 28.5q70 0 106 -38q19 -20 27 -50t8 -81v-267q0 -41 17 -56.5t59 -15.5v-21q-92 4 -120 4t-112 -4v21q37 0 51.5 15.5t14.5 56.5v289q0 56 -16 85.5t-65 29.5q-41 0 -72.5 -23t-49.5 -64.5t-18 -93.5v-223q0 -41 14.5 -56.5t51.5 -15.5
v-21q-84 4 -112 4t-120 -4v21q42 0 59 15.5t17 56.5v570q0 46 -17 67t-59 21v21q32 -3 62 -3q63 0 104 14v-374zM364.5 905.5q49.5 -35.5 113.5 -57.5l-5 -14q-60 13 -118.5 32t-92.5 38q-28 -19 -75.5 -38t-95.5 -32l-5 14q64 22 113.5 57.5t73.5 74.5h18
q24 -39 73.5 -74.5z" />
    <glyph glyph-name="Hbar" unicode="&#x126;" horiz-adv-x="757" 
d="M662.5 680q-16.5 -6 -22.5 -23t-6 -55v-496q0 -38 6 -55t22.5 -23t52.5 -8v-20q-42 3 -128 3q-81 0 -127 -3v20q36 2 52.5 8t22.5 23t6 55v240h-325v-240q0 -38 6 -55t22.5 -23t52.5 -8v-20q-46 3 -127 3q-86 0 -128 -3v20q36 2 52.5 8t22.5 23t6 55v496q0 38 -6 55
t-22.5 23t-52.5 8v20q42 -3 128 -3q80 0 127 3v-20q-36 -2 -52.5 -8t-22.5 -23t-6 -55v-236h325v236q0 38 -6 55t-22.5 23t-52.5 8v20q46 -3 127 -3q86 0 128 3v-20q-36 -2 -52.5 -8zM715 513h-673v20h673v-20z" />
    <glyph glyph-name="hbar" unicode="&#x127;" horiz-adv-x="588" 
d="M186 409q25 63 69.5 91.5t100.5 28.5q70 0 106 -38q19 -20 27 -50t8 -81v-267q0 -41 17 -56.5t59 -15.5v-21q-92 4 -120 4t-112 -4v21q37 0 51.5 15.5t14.5 56.5v289q0 56 -16 85.5t-65 29.5q-41 0 -72.5 -23t-49.5 -64.5t-18 -93.5v-223q0 -41 14.5 -56.5t51.5 -15.5
v-21q-84 4 -112 4t-120 -4v21q42 0 59 15.5t17 56.5v570q0 46 -17 67t-59 21v21q32 -3 62 -3q63 0 104 14v-374zM363 608h-354v20h354v-20z" />
    <glyph glyph-name="Itilde" unicode="&#x128;" horiz-adv-x="339" 
d="M297 688q-36 -2 -52.5 -8t-22.5 -23t-6 -55v-496q0 -38 6 -55t22.5 -23t52.5 -8v-20q-46 3 -127 3q-86 0 -128 -3v20q36 2 52.5 8t22.5 23t6 55v496q0 38 -6 55t-22.5 23t-52.5 8v20q42 -3 128 -3q80 0 127 3v-20zM136 892q22 -10 53 -30q35 -20 53.5 -28.5t40.5 -8.5
q46 0 62 56l15 -3q-4 -48 -36 -77t-75 -29q-25 0 -47 10t-53 30q-35 20 -53.5 28.5t-40.5 8.5q-23 0 -38 -12.5t-24 -43.5l-15 3q4 48 36 77t75 29q25 0 47 -10z" />
    <glyph glyph-name="itilde" unicode="&#x129;" horiz-adv-x="293" 
d="M195 93q0 -41 17 -56.5t59 -15.5v-21q-92 4 -121 4t-121 -4v21q42 0 59 15.5t17 56.5v313q0 46 -17 67t-59 21v21q32 -3 62 -3q63 0 104 14v-433zM111 758.5q19 -9.5 40 -26.5q20 -15 34.5 -22.5t32.5 -7.5q45 0 77 53l14 -7q-15 -53 -46.5 -78t-71.5 -25q-26 0 -44 9
t-41 27q-21 16 -35 23.5t-32 7.5q-44 0 -77 -54l-14 7q15 53 46.5 78t72.5 25q25 0 44 -9.5z" />
    <glyph glyph-name="Imacron" unicode="&#x12a;" horiz-adv-x="339" 
d="M297 688q-36 -2 -52.5 -8t-22.5 -23t-6 -55v-496q0 -38 6 -55t22.5 -23t52.5 -8v-20q-46 3 -127 3q-86 0 -128 -3v20q36 2 52.5 8t22.5 23t6 55v496q0 38 -6 55t-22.5 23t-52.5 8v20q42 -3 128 -3q80 0 127 3v-20zM346 819h-352v25h352v-25z" />
    <glyph glyph-name="imacron" unicode="&#x12b;" horiz-adv-x="293" 
d="M281 687h-292v25h292v-25zM195 93q0 -41 17 -56.5t59 -15.5v-21q-92 4 -121 4t-121 -4v21q42 0 59 15.5t17 56.5v313q0 46 -17 67t-59 21v21q32 -3 62 -3q63 0 104 14v-433z" />
    <glyph glyph-name="Ibreve" unicode="&#x12c;" horiz-adv-x="339" 
d="M297 688q-36 -2 -52.5 -8t-22.5 -23t-6 -55v-496q0 -38 6 -55t22.5 -23t52.5 -8v-20q-46 3 -127 3q-86 0 -128 -3v20q36 2 52.5 8t22.5 23t6 55v496q0 38 -6 55t-22.5 23t-52.5 8v20q42 -3 128 -3q80 0 127 3v-20zM369 898q-29 -47 -79.5 -81.5t-119.5 -34.5t-119.5 34.5
t-79.5 81.5l13 10q28 -27 74.5 -45.5t111.5 -18.5t112 19t75 46z" />
    <glyph glyph-name="ibreve" unicode="&#x12d;" horiz-adv-x="293" 
d="M195 93q0 -41 17 -56.5t59 -15.5v-21q-92 4 -121 4t-121 -4v21q42 0 59 15.5t17 56.5v313q0 46 -17 67t-59 21v21q32 -3 62 -3q63 0 104 14v-433zM319 779q-25 -60 -70.5 -103t-108.5 -43t-108.5 43t-70.5 103l17 9q58 -96 162 -96t162 96z" />
    <glyph glyph-name="Iogonek" unicode="&#x12e;" horiz-adv-x="339" 
d="M297 688q-36 -2 -52.5 -8t-22.5 -23t-6 -55v-496q0 -38 6 -55t22.5 -23t52.5 -8v-20q-46 3 -127 3q-86 0 -128 -3v20q36 2 52.5 8t22.5 23t6 55v496q0 38 -6 55t-22.5 23t-52.5 8v20q42 -3 128 -3q80 0 127 3v-20zM218.5 -38.5q-24.5 -27.5 -24.5 -57.5q0 -20 11.5 -32
t31.5 -12q18 0 34.5 9.5t26.5 23.5l15 -13q-45 -68 -113 -68q-36 0 -57.5 18t-21.5 47q0 39 36 71.5t102 54.5h38q-54 -14 -78.5 -41.5z" />
    <glyph glyph-name="iogonek" unicode="&#x12f;" horiz-adv-x="293" 
d="M186 746q19 -19 19 -45t-19 -45t-45 -19t-45 19t-19 45t19 45t45 19t45 -19zM195 93q0 -41 17 -56.5t59 -15.5v-21q-92 4 -121 4t-121 -4v21q42 0 59 15.5t17 56.5v313q0 46 -17 67t-59 21v21q32 -3 62 -3q63 0 104 14v-433zM250 -2q-87 -37 -87 -94q0 -20 11.5 -32
t31.5 -12q18 0 34.5 9.5t26.5 23.5l15 -13q-45 -68 -113 -68q-36 0 -57.5 18t-21.5 47q0 39 36 71.5t102 54.5h32q-3 -3 -10 -5z" />
    <glyph glyph-name="Idotaccent" unicode="&#x130;" horiz-adv-x="339" 
d="M297 688q-36 -2 -52.5 -8t-22.5 -23t-6 -55v-496q0 -38 6 -55t22.5 -23t52.5 -8v-20q-46 3 -127 3q-86 0 -128 -3v20q36 2 52.5 8t22.5 23t6 55v496q0 38 -6 55t-22.5 23t-52.5 8v20q42 -3 128 -3q80 0 127 3v-20zM215 940q19 -19 19 -45t-19 -45t-45 -19t-45 19t-19 45
t19 45t45 19t45 -19z" />
    <glyph glyph-name="dotlessi" unicode="&#x131;" horiz-adv-x="293" 
d="M195 93q0 -41 17 -56.5t59 -15.5v-21q-92 4 -121 4t-121 -4v21q42 0 59 15.5t17 56.5v313q0 46 -17 67t-59 21v21q32 -3 62 -3q63 0 104 14v-433z" />
    <glyph glyph-name="Jcircumflex" unicode="&#x134;" horiz-adv-x="326" 
d="M-20 -169q70 2 103.5 52t33.5 169v550q0 38 -6 55t-22.5 23t-52.5 8v20q42 -3 126 -3q82 0 129 3v-20q-36 -2 -52.5 -8t-22.5 -23t-6 -55v-366q0 -85 -3 -150.5t-14 -110.5q-18 -73 -73.5 -118t-139.5 -45v19zM246.5 841.5q49.5 -35.5 113.5 -57.5l-5 -14
q-60 13 -118.5 32t-92.5 38q-28 -19 -75.5 -38t-95.5 -32l-5 14q64 22 113.5 57.5t73.5 74.5h18q24 -39 73.5 -74.5z" />
    <glyph glyph-name="jcircumflex" unicode="&#x135;" horiz-adv-x="267" 
d="M-26 -173q61 3 92.5 53t31.5 139v387q0 46 -17 67t-59 21v21q31 -3 62 -3q63 0 104 14v-411q0 -166 -72 -242q-27 -28 -63.5 -44.5t-78.5 -16.5v15zM208.5 704.5q44.5 -46.5 101.5 -74.5l-8 -14q-54 19 -105.5 46t-82.5 54q-25 -27 -65.5 -54t-82.5 -46l-8 14
q57 28 101.5 74.5t65.5 97.5h18q21 -51 65.5 -97.5z" />
    <glyph glyph-name="Kcommaaccent" unicode="&#x136;" horiz-adv-x="655" 
d="M603.5 41.5q20.5 -14.5 50.5 -21.5v-20q-48 3 -120 3q-54 0 -103 -3v20q24 1 35 6t11 15t-10 24l-146 220q-29 44 -49 57.5t-56 15.5v-252q0 -38 6 -55t22.5 -23t52.5 -8v-20q-46 3 -127 3q-86 0 -128 -3v20q36 2 52.5 8t22.5 23t6 55v496q0 38 -6 55t-22.5 23t-52.5 8
v20q42 -3 128 -3q80 0 127 3v-20q-36 -2 -52.5 -8t-22.5 -23t-6 -55v-224q73 3 114 56l96 122q51 63 51 96q0 35 -62 36v20q57 -3 115 -3q55 0 85 3v-20q-33 -5 -62 -21.5t-56 -51.5l-163 -209l232 -325q17 -25 37.5 -39.5zM386 -89q18 -20 18 -50q0 -38 -18 -61.5
t-64 -40.5l-7 18q26 8 44.5 24.5t17.5 38.5q-18 -16 -42 -16q-23 0 -37.5 14.5t-14.5 39.5q0 22 16.5 37.5t39.5 15.5q29 0 47 -20z" />
    <glyph glyph-name="kcommaaccent" unicode="&#x137;" horiz-adv-x="550" 
d="M507 36q15 -12 36 -15v-21q-60 4 -81 4q-27 0 -111 -4v21q14 0 22.5 5.5t8.5 13.5t-6 15l-115 168q-17 25 -32.5 33.5t-42.5 10.5v-174q0 -41 14.5 -56.5t51.5 -15.5v-21q-84 4 -111 4q-29 0 -121 -4v21q42 0 59 15.5t17 56.5v571q0 46 -17 67t-59 21v21q32 -3 62 -3
q63 0 104 14v-496q29 4 48.5 13.5t37.5 27.5l74 77q32 33 32 55q0 17 -20.5 25.5t-53.5 8.5v20q70 -4 113 -4q47 0 87 4v-20q-49 -4 -90 -47l-122 -128l181 -247q19 -25 34 -37zM321 -89q18 -20 18 -50q0 -38 -18 -61.5t-64 -40.5l-7 18q26 8 44.5 24.5t17.5 38.5
q-18 -16 -42 -16q-23 0 -37.5 14.5t-14.5 39.5q0 22 16.5 37.5t39.5 15.5q29 0 47 -20z" />
    <glyph glyph-name="kgreenlandic" unicode="&#x138;" horiz-adv-x="563" 
d="M520.5 37.5q16.5 -13.5 31.5 -16.5v-21q-60 4 -81 4q-27 0 -111 -4v21q14 0 23 6t9 14q0 7 -7 14l-134 148q-17 20 -29.5 30t-26.5 11v-151q0 -41 14.5 -56.5t51.5 -15.5v-21q-84 4 -111 4q-29 0 -121 -4v21q42 0 59 15.5t17 56.5v313q0 46 -17 67t-59 21v21q32 -3 62 -3
q63 0 104 14v-261q25 4 42 14t36 30l119 131q14 15 14 28t-13.5 20t-39.5 7v20q53 -3 103 -3q41 0 67 3v-20q-28 -3 -47 -12t-43 -35l-146 -160l194 -212q23 -25 39.5 -38.5z" />
    <glyph glyph-name="Lacute" unicode="&#x139;" horiz-adv-x="588" 
d="M297 688q-36 -2 -52.5 -8t-22.5 -23t-6 -55v-496q0 -38 6 -55t22.5 -22.5t52.5 -5.5h73q62 0 94.5 17.5t47.5 56.5t22 113h23q-3 -31 -3 -82q0 -57 7 -128q-68 3 -229 3q-192 0 -290 -3v20q36 2 52.5 8t22.5 23t6 55v496q0 38 -6 55t-22.5 23t-52.5 8v20q42 -3 128 -3
q80 0 127 3v-20zM307 936q19 0 31 -17q6 -9 6 -19q0 -22 -27 -39q-21 -13 -72 -32q-75 -30 -129 -57l-7 13q41 31 70.5 57.5t36.5 32.5q37 35 61 51q16 10 30 10z" />
    <glyph glyph-name="lacute" unicode="&#x13a;" horiz-adv-x="286" 
d="M188 93q0 -41 17 -56.5t59 -15.5v-21q-92 4 -121 4t-121 -4v21q42 0 59 15.5t17 56.5v571q0 46 -17 67t-59 21v21q31 -3 62 -3q63 0 104 14v-691zM280 986q19 0 31 -17q6 -9 6 -19q0 -22 -27 -39q-21 -13 -72 -32q-75 -30 -129 -57l-7 13q41 31 70.5 57.5t36.5 32.5
q37 35 61 51q16 10 30 10z" />
    <glyph glyph-name="Lcommaaccent" unicode="&#x13b;" horiz-adv-x="588" 
d="M297 688q-36 -2 -52.5 -8t-22.5 -23t-6 -55v-496q0 -38 6 -55t22.5 -22.5t52.5 -5.5h73q62 0 94.5 17.5t47.5 56.5t22 113h23q-3 -31 -3 -82q0 -57 7 -128q-68 3 -229 3q-192 0 -290 -3v20q36 2 52.5 8t22.5 23t6 55v496q0 38 -6 55t-22.5 23t-52.5 8v20q42 -3 128 -3
q80 0 127 3v-20zM372 -89q18 -20 18 -50q0 -38 -18 -61.5t-64 -40.5l-7 18q26 8 44.5 24.5t17.5 38.5q-18 -16 -42 -16q-23 0 -37.5 14.5t-14.5 39.5q0 22 16.5 37.5t39.5 15.5q29 0 47 -20z" />
    <glyph glyph-name="lcommaaccent" unicode="&#x13c;" horiz-adv-x="286" 
d="M188 93q0 -41 17 -56.5t59 -15.5v-21q-92 4 -121 4t-121 -4v21q42 0 59 15.5t17 56.5v571q0 46 -17 67t-59 21v21q31 -3 62 -3q63 0 104 14v-691zM183 -89q18 -20 18 -50q0 -38 -18 -61.5t-64 -40.5l-7 18q26 8 44.5 24.5t17.5 38.5q-18 -16 -42 -16q-23 0 -37.5 14.5
t-14.5 39.5q0 22 16.5 37.5t39.5 15.5q29 0 47 -20z" />
    <glyph glyph-name="Lcaron" unicode="&#x13d;" horiz-adv-x="588" 
d="M297 688q-36 -2 -52.5 -8t-22.5 -23t-6 -55v-496q0 -38 6 -55t22.5 -22.5t52.5 -5.5h73q62 0 94.5 17.5t47.5 56.5t22 113h23q-3 -31 -3 -82q0 -57 7 -128q-68 3 -229 3q-192 0 -290 -3v20q36 2 52.5 8t22.5 23t6 55v496q0 38 -6 55t-22.5 23t-52.5 8v20q42 -3 128 -3
q80 0 127 3v-20zM476 678q0 -29 -19 -70.5t-68 -129.5l-14 4q20 128 20 165q0 21 -6 30.5t-24 9.5v21q16 -2 41 -2q35 0 65 8q5 -12 5 -36z" />
    <glyph glyph-name="lcaron" unicode="&#x13e;" horiz-adv-x="286" 
d="M188 93q0 -41 17 -56.5t59 -15.5v-21q-92 4 -121 4t-121 -4v21q42 0 59 15.5t17 56.5v571q0 46 -17 67t-59 21v21q31 -3 62 -3q63 0 104 14v-691zM352.5 766.5q1.5 -12.5 1.5 -23.5q0 -27 -15 -64.5t-52 -115.5l-14 4q20 113 20 145q0 21 -4 30.5t-16 9.5v21l16 -1
q28 0 60 12q2 -5 3.5 -17.5z" />
    <glyph glyph-name="Ldot" unicode="&#x13f;" horiz-adv-x="588" 
d="M297 688q-36 -2 -52.5 -8t-22.5 -23t-6 -55v-496q0 -38 6 -55t22.5 -22.5t52.5 -5.5h73q62 0 94.5 17.5t47.5 56.5t22 113h23q-3 -31 -3 -82q0 -57 7 -128q-68 3 -229 3q-192 0 -290 -3v20q36 2 52.5 8t22.5 23t6 55v496q0 38 -6 55t-22.5 23t-52.5 8v20q42 -3 128 -3
q80 0 127 3v-20zM515 479q19 -19 19 -45t-19 -45t-45 -19t-45 19t-19 45t19 45t45 19t45 -19z" />
    <glyph glyph-name="ldot" unicode="&#x140;" horiz-adv-x="426" 
d="M188 93q0 -41 17 -56.5t59 -15.5v-21q-92 4 -121 4t-121 -4v21q42 0 59 15.5t17 56.5v571q0 46 -17 67t-59 21v21q31 -3 62 -3q63 0 104 14v-691zM401 340q19 -19 19 -45t-19 -45t-45 -19t-45 19t-19 45t19 45t45 19t45 -19z" />
    <glyph glyph-name="Lslash" unicode="&#x141;" horiz-adv-x="588" 
d="M297 688q-36 -2 -52.5 -8t-22.5 -23t-6 -55v-496q0 -38 6 -55t22.5 -22.5t52.5 -5.5h73q62 0 94.5 17.5t47.5 56.5t22 113h23q-3 -31 -3 -82q0 -57 7 -128q-68 3 -229 3q-192 0 -290 -3v20q36 2 52.5 8t22.5 23t6 55v496q0 38 -6 55t-22.5 23t-52.5 8v20q42 -3 128 -3
q80 0 127 3v-20zM453 473v-23l-284 -165v10l-147 -85v23l147 85v-10z" />
    <glyph glyph-name="lslash" unicode="&#x142;" horiz-adv-x="286" 
d="M188 93q0 -41 17 -56.5t59 -15.5v-21q-92 4 -121 4t-121 -4v21q42 0 59 15.5t17 56.5v571q0 46 -17 67t-59 21v21q31 -3 62 -3q63 0 104 14v-691zM300 529v-30l-157 -137v10l-159 -138v30l159 138v-10z" />
    <glyph glyph-name="Nacute" unicode="&#x143;" horiz-adv-x="706" 
d="M670 688q-35 -2 -52 -10.5t-23 -28t-6 -57.5v-597h-23l-420 649v-528q0 -39 6.5 -58t25.5 -27.5t59 -10.5v-20q-36 3 -102 3q-60 0 -93 -3v20q35 2 52 10.5t23 28t6 57.5v486q0 38 -6 55t-22.5 23t-52.5 8v20q33 -3 93 -3q45 0 78 3l353 -544v428q0 39 -6.5 58
t-25.5 27.5t-59 10.5v20q36 -3 102 -3q60 0 93 3v-20zM511 936q19 0 31 -17q6 -9 6 -19q0 -22 -27 -39q-21 -13 -72 -32q-75 -30 -129 -57l-7 13q41 31 70.5 57.5t36.5 32.5q37 35 61 51q16 10 30 10z" />
    <glyph glyph-name="nacute" unicode="&#x144;" horiz-adv-x="597" 
d="M471 491q19 -20 27 -50t8 -81v-267q0 -41 17 -56.5t59 -15.5v-21q-92 4 -120 4t-112 -4v21q37 0 51.5 15.5t14.5 56.5v289q0 56 -16 85.5t-65 29.5q-41 0 -73 -24t-49.5 -65.5t-17.5 -92.5v-222q0 -41 14.5 -56.5t51.5 -15.5v-21q-84 4 -112 4t-120 -4v21q42 0 59 15.5
t17 56.5v313q0 46 -17 67t-59 21v21q32 -3 62 -3q63 0 104 14v-118q25 64 69.5 92.5t100.5 28.5q70 0 106 -38zM427 785q0 -15 -14 -34q-20 -25 -57 -55q-7 -6 -36.5 -33.5t-64.5 -63.5l-11 9q37 59 69 121q23 46 40 69q16 22 38 22q14 0 22 -7q14 -12 14 -28z" />
    <glyph glyph-name="Ncommaaccent" unicode="&#x145;" horiz-adv-x="706" 
d="M670 688q-35 -2 -52 -10.5t-23 -28t-6 -57.5v-597h-23l-420 649v-528q0 -39 6.5 -58t25.5 -27.5t59 -10.5v-20q-36 3 -102 3q-60 0 -93 -3v20q35 2 52 10.5t23 28t6 57.5v486q0 38 -6 55t-22.5 23t-52.5 8v20q33 -3 93 -3q45 0 78 3l353 -544v428q0 39 -6.5 58
t-25.5 27.5t-59 10.5v20q36 -3 102 -3q60 0 93 3v-20zM407 -89q18 -20 18 -50q0 -38 -18 -61.5t-64 -40.5l-7 18q26 8 44.5 24.5t17.5 38.5q-18 -16 -42 -16q-23 0 -37.5 14.5t-14.5 39.5q0 22 16.5 37.5t39.5 15.5q29 0 47 -20z" />
    <glyph glyph-name="ncommaaccent" unicode="&#x146;" horiz-adv-x="597" 
d="M471 491q19 -20 27 -50t8 -81v-267q0 -41 17 -56.5t59 -15.5v-21q-92 4 -120 4t-112 -4v21q37 0 51.5 15.5t14.5 56.5v289q0 56 -16 85.5t-65 29.5q-41 0 -73 -24t-49.5 -65.5t-17.5 -92.5v-222q0 -41 14.5 -56.5t51.5 -15.5v-21q-84 4 -112 4t-120 -4v21q42 0 59 15.5
t17 56.5v313q0 46 -17 67t-59 21v21q32 -3 62 -3q63 0 104 14v-118q25 64 69.5 92.5t100.5 28.5q70 0 106 -38zM356 -89q18 -20 18 -50q0 -38 -18 -61.5t-64 -40.5l-7 18q26 8 44.5 24.5t17.5 38.5q-18 -16 -42 -16q-23 0 -37.5 14.5t-14.5 39.5q0 22 16.5 37.5t39.5 15.5
q29 0 47 -20z" />
    <glyph glyph-name="Ncaron" unicode="&#x147;" horiz-adv-x="706" 
d="M670 688q-35 -2 -52 -10.5t-23 -28t-6 -57.5v-597h-23l-420 649v-528q0 -39 6.5 -58t25.5 -27.5t59 -10.5v-20q-36 3 -102 3q-60 0 -93 -3v20q35 2 52 10.5t23 28t6 57.5v486q0 38 -6 55t-22.5 23t-52.5 8v20q33 -3 93 -3q45 0 78 3l353 -544v428q0 39 -6.5 58
t-25.5 27.5t-59 10.5v20q36 -3 102 -3q60 0 93 3v-20zM567 912q-64 -22 -113.5 -57.5t-73.5 -74.5h-18q-24 39 -73.5 74.5t-113.5 57.5l5 14q60 -13 118.5 -32t92.5 -38q28 19 75.5 38t95.5 32z" />
    <glyph glyph-name="ncaron" unicode="&#x148;" horiz-adv-x="597" 
d="M471 491q19 -20 27 -50t8 -81v-267q0 -41 17 -56.5t59 -15.5v-21q-92 4 -120 4t-112 -4v21q37 0 51.5 15.5t14.5 56.5v289q0 56 -16 85.5t-65 29.5q-41 0 -73 -24t-49.5 -65.5t-17.5 -92.5v-222q0 -41 14.5 -56.5t51.5 -15.5v-21q-84 4 -112 4t-120 -4v21q42 0 59 15.5
t17 56.5v313q0 46 -17 67t-59 21v21q32 -3 62 -3q63 0 104 14v-118q25 64 69.5 92.5t100.5 28.5q70 0 106 -38zM472 788q-57 -28 -101.5 -74.5t-65.5 -97.5h-18q-21 51 -65.5 97.5t-101.5 74.5l8 14q54 -19 105.5 -46t82.5 -54q25 27 65.5 54t82.5 46z" />
    <glyph glyph-name="napostrophe" unicode="&#x149;" horiz-adv-x="597" 
d="M471 491q19 -20 27 -50t8 -81v-267q0 -41 17 -56.5t59 -15.5v-21q-92 4 -120 4t-112 -4v21q37 0 51.5 15.5t14.5 56.5v289q0 56 -16 85.5t-65 29.5q-41 0 -73 -24t-49.5 -65.5t-17.5 -92.5v-222q0 -41 14.5 -56.5t51.5 -15.5v-21q-84 4 -112 4t-120 -4v21q42 0 59 15.5
t17 56.5v313q0 46 -17 67t-59 21v21q32 -3 62 -3q63 0 104 14v-118q25 64 69.5 92.5t100.5 28.5q70 0 106 -38zM91 728q17 -27 17 -66q0 -50 -25.5 -90t-77.5 -64l-9 18q31 13 53.5 41t22.5 57q0 12 -3 21q-16 -13 -37 -13q-27 0 -45.5 17.5t-18.5 46.5q0 27 18.5 45.5
t45.5 18.5q39 0 59 -32z" />
    <glyph glyph-name="Eng" unicode="&#x14a;" horiz-adv-x="705" 
d="M670 708v-20q-36 -2 -52.5 -8t-22.5 -23t-6 -55v-511q0 -160 -37.5 -219.5t-104.5 -59.5q-39 0 -64.5 15t-25.5 47q0 23 13.5 36.5t33.5 13.5t35 -14t15 -33q0 -13 -7.5 -26t-18.5 -20q12 -2 23 -2q100 0 113 169l-418 646v-538q0 -38 6 -55t22.5 -23t52.5 -8v-20
q-36 3 -92 3q-60 0 -93 -3v20q36 2 52.5 8t22.5 23t6 55v496q0 38 -6 55t-22.5 23t-52.5 8v20q33 -3 93 -3q54 0 92 3l339 -524v418q0 38 -6 55t-22.5 23t-52.5 8v20q36 -3 92 -3q60 0 93 3z" />
    <glyph glyph-name="eng" unicode="&#x14b;" horiz-adv-x="579" 
d="M471 490q19 -20 27 -50t8 -81v-244q0 -81 -11 -142t-42 -100q-23 -30 -55.5 -45.5t-65.5 -15.5t-50 15t-17 38q0 21 13 34t34 13q20 0 32.5 -13t12.5 -32q0 -23 -16 -40q39 5 55 25q10 12 15 32q5 23 5 51v446q0 56 -16 85.5t-65 29.5q-41 0 -73 -24t-49.5 -65t-17.5 -92
v-222q0 -41 14.5 -56.5t51.5 -15.5v-21q-84 4 -112 4t-120 -4v21q42 0 59 15.5t17 56.5v313q0 46 -17 67t-59 21v21q32 -3 62 -3q63 0 104 14v-118q25 63 69.5 91.5t100.5 28.5q70 0 106 -38z" />
    <glyph glyph-name="Omacron" unicode="&#x14c;" horiz-adv-x="741" 
d="M537.5 679q71.5 -43 111 -124.5t39.5 -194.5q0 -110 -40.5 -195t-113 -132t-164.5 -47q-95 0 -166.5 43t-111 124.5t-39.5 194.5q0 110 40.5 195t113 132t164.5 47q95 0 166.5 -43zM254.5 659.5q-48.5 -44.5 -75 -124.5t-26.5 -183q0 -104 29.5 -183t79.5 -122t112 -43
q64 0 112.5 44.5t75 124.5t26.5 183q0 104 -29.5 183t-79.5 122t-112 43q-64 0 -112.5 -44.5zM545 819h-352v25h352v-25z" />
    <glyph glyph-name="omacron" unicode="&#x14d;" horiz-adv-x="548" 
d="M438.5 461.5q62.5 -67.5 62.5 -204.5t-62.5 -204t-164.5 -67t-164.5 67t-62.5 204t62.5 204.5t164.5 67.5t164.5 -67.5zM179 447.5q-35 -61.5 -35 -190.5t35 -190t95 -61t95 61t35 190t-35 190.5t-95 61.5t-95 -61.5zM430 687h-312v25h312v-25z" />
    <glyph glyph-name="Obreve" unicode="&#x14e;" horiz-adv-x="741" 
d="M537.5 679q71.5 -43 111 -124.5t39.5 -194.5q0 -110 -40.5 -195t-113 -132t-164.5 -47q-95 0 -166.5 43t-111 124.5t-39.5 194.5q0 110 40.5 195t113 132t164.5 47q95 0 166.5 -43zM254.5 659.5q-48.5 -44.5 -75 -124.5t-26.5 -183q0 -104 29.5 -183t79.5 -122t112 -43
q64 0 112.5 44.5t75 124.5t26.5 183q0 104 -29.5 183t-79.5 122t-112 43q-64 0 -112.5 -44.5zM568 898q-29 -47 -79.5 -81.5t-119.5 -34.5t-119.5 34.5t-79.5 81.5l13 10q28 -27 74.5 -45.5t111.5 -18.5t112 19t75 46z" />
    <glyph glyph-name="obreve" unicode="&#x14f;" horiz-adv-x="548" 
d="M438.5 461.5q62.5 -67.5 62.5 -204.5t-62.5 -204t-164.5 -67t-164.5 67t-62.5 204t62.5 204.5t164.5 67.5t164.5 -67.5zM179 447.5q-35 -61.5 -35 -190.5t35 -190t95 -61t95 61t35 190t-35 190.5t-95 61.5t-95 -61.5zM455 779q-25 -60 -70.5 -103t-108.5 -43t-108.5 43
t-70.5 103l17 9q58 -96 162 -96t162 96z" />
    <glyph glyph-name="Ohungarumlaut" unicode="&#x150;" horiz-adv-x="741" 
d="M537.5 679q71.5 -43 111 -124.5t39.5 -194.5q0 -110 -40.5 -195t-113 -132t-164.5 -47q-95 0 -166.5 43t-111 124.5t-39.5 194.5q0 110 40.5 195t113 132t164.5 47q95 0 166.5 -43zM254.5 659.5q-48.5 -44.5 -75 -124.5t-26.5 -183q0 -104 29.5 -183t79.5 -122t112 -43
q64 0 112.5 44.5t75 124.5t26.5 183q0 104 -29.5 183t-79.5 122t-112 43q-64 0 -112.5 -44.5zM372 937q16 0 27 -13q9 -10 9 -23q0 -20 -21 -38q-13 -11 -33.5 -22.5t-41.5 -21.5q-58 -30 -82 -47l-9 12q25 25 61 73q14 18 28.5 36t27.5 29q18 15 34 15zM559 937
q16 0 27 -13q9 -10 9 -23q0 -20 -21 -38q-13 -11 -33.5 -22.5t-41.5 -21.5q-58 -30 -82 -47l-9 12q25 25 61 73q14 18 28.5 36t27.5 29q18 15 34 15z" />
    <glyph glyph-name="ohungarumlaut" unicode="&#x151;" horiz-adv-x="548" 
d="M438.5 461.5q62.5 -67.5 62.5 -204.5t-62.5 -204t-164.5 -67t-164.5 67t-62.5 204t62.5 204.5t164.5 67.5t164.5 -67.5zM179 447.5q-35 -61.5 -35 -190.5t35 -190t95 -61t95 61t35 190t-35 190.5t-95 61.5t-95 -61.5zM328 785q0 -15 -14 -34q-20 -25 -57 -55
q-7 -6 -36.5 -33.5t-64.5 -63.5l-11 9q37 59 69 121q23 46 40 69q17 22 38 22q14 0 22 -7q14 -12 14 -28zM506 785q0 -15 -14 -34q-20 -25 -57 -55q-7 -6 -36.5 -33.5t-64.5 -63.5l-11 9q37 59 69 121q23 46 40 69q16 22 38 22q14 0 22 -7q14 -12 14 -28z" />
    <glyph glyph-name="OE" unicode="&#x152;" horiz-adv-x="928" 
d="M880 0q-62 3 -209 3q-140 0 -219 -2q-39 -15 -82 -15q-95 0 -166.5 43t-111 124.5t-39.5 194.5q0 110 40.5 195t113 132t164.5 47q48 0 88 -15q80 -2 212 -2q133 0 189 3q-7 -66 -7 -118q0 -39 3 -62h-23q-7 65 -18 96.5t-37 46t-79 14.5h-33q-36 0 -52.5 -5.5
t-22.5 -22.5t-6 -55v-236h43q50 0 66.5 25.5t20.5 52t6 34.5h23q-3 -37 -3 -81v-41q0 -43 6 -122h-23q-1 6 -6 41t-27.5 53t-62.5 18h-43v-240q0 -38 6 -55t22.5 -22.5t52.5 -5.5h23q62 0 94.5 16.5t47.5 53t22 107.5h23q-3 -27 -3 -72q0 -57 7 -128zM492 602q0 52 -35 77
t-90 25q-64 0 -112.5 -44.5t-75 -124.5t-26.5 -183q0 -104 29.5 -183t79.5 -122t112 -43q45 0 81.5 26t36.5 76v496z" />
    <glyph glyph-name="oe" unicode="&#x153;" horiz-adv-x="835" 
d="M792 120q-17 -55 -64 -94.5t-113 -39.5q-63 0 -109 30t-72 84q-25 -57 -69 -85.5t-100 -28.5q-97 0 -157 67t-60 204t60 204t157 67q57 0 101.5 -29.5t69.5 -88.5q26 57 71 88t104 31q85 0 131 -54.5t46 -165.5h-303q-3 -28 -3 -64q0 -66 21.5 -115t57 -75.5t74.5 -26.5
q45 0 79 23t58 77zM526 464q-34 -46 -42 -136h208q2 78 -20 130t-65 52q-47 0 -81 -46zM353 67.5q32 61.5 32 189.5q0 129 -32 190t-88 61t-88 -61t-32 -190q0 -128 32 -189.5t88 -61.5t88 61.5z" />
    <glyph glyph-name="Racute" unicode="&#x154;" horiz-adv-x="648" 
d="M660 50q-23 -34 -46 -49t-61 -15q-41 0 -67.5 24t-39.5 84l-22 100q-12 52 -22.5 80t-31.5 45t-59 17h-95v-230q0 -38 6 -55t22.5 -23t52.5 -8v-20q-46 3 -127 3q-86 0 -128 -3v20q36 2 52.5 8t22.5 23t6 55v496q0 38 -6 55t-22.5 23t-52.5 8v20q42 -3 122 -3l108 1
q19 1 43 1q116 0 178.5 -48.5t62.5 -125.5q0 -39 -18.5 -78.5t-62 -71t-113.5 -42.5l12 -2q66 -11 96 -40t44 -92l25 -102q10 -46 21 -64t30 -18q17 0 28.5 9t26.5 29zM243.5 681q-15.5 -7 -21.5 -25t-6 -54v-246h67q99 0 136 44t37 122q0 82 -39 124t-127 42
q-31 0 -46.5 -7zM433 936q19 0 31 -17q6 -9 6 -19q0 -22 -27 -39q-21 -13 -72 -32q-75 -30 -129 -57l-7 13q41 31 70.5 57.5t36.5 32.5q37 35 61 51q16 10 30 10z" />
    <glyph glyph-name="racute" unicode="&#x155;" horiz-adv-x="445" 
d="M405.5 506q25.5 -23 25.5 -56q0 -26 -15.5 -44.5t-41.5 -18.5q-22 0 -37.5 14t-15.5 38q0 33 34 54q-7 10 -21 10q-39 0 -71 -30.5t-50 -74.5t-18 -83v-212q0 -46 26.5 -64t79.5 -18v-21l-24 1q-102 3 -130 3q-26 0 -118 -4v21q42 0 59 15.5t17 56.5v313q0 46 -17 67
t-59 21v21q32 -3 62 -3q63 0 104 14v-125q18 50 57.5 89t87.5 39q40 0 65.5 -23zM357 785q0 -15 -14 -34q-20 -25 -57 -55q-7 -6 -36.5 -33.5t-64.5 -63.5l-11 9q37 59 69 121q23 46 40 69q16 22 38 22q14 0 22 -7q14 -12 14 -28z" />
    <glyph glyph-name="Rcommaaccent" unicode="&#x156;" horiz-adv-x="648" 
d="M660 50q-23 -34 -46 -49t-61 -15q-41 0 -67.5 24t-39.5 84l-22 100q-12 52 -22.5 80t-31.5 45t-59 17h-95v-230q0 -38 6 -55t22.5 -23t52.5 -8v-20q-46 3 -127 3q-86 0 -128 -3v20q36 2 52.5 8t22.5 23t6 55v496q0 38 -6 55t-22.5 23t-52.5 8v20q42 -3 122 -3l108 1
q19 1 43 1q116 0 178.5 -48.5t62.5 -125.5q0 -39 -18.5 -78.5t-62 -71t-113.5 -42.5l12 -2q66 -11 96 -40t44 -92l25 -102q10 -46 21 -64t30 -18q17 0 28.5 9t26.5 29zM243.5 681q-15.5 -7 -21.5 -25t-6 -54v-246h67q99 0 136 44t37 122q0 82 -39 124t-127 42
q-31 0 -46.5 -7zM377 -89q18 -20 18 -50q0 -38 -18 -61.5t-64 -40.5l-7 18q26 8 44.5 24.5t17.5 38.5q-18 -16 -42 -16q-23 0 -37.5 14.5t-14.5 39.5q0 22 16.5 37.5t39.5 15.5q29 0 47 -20z" />
    <glyph glyph-name="rcommaaccent" unicode="&#x157;" horiz-adv-x="445" 
d="M405.5 506q25.5 -23 25.5 -56q0 -26 -15.5 -44.5t-41.5 -18.5q-22 0 -37.5 14t-15.5 38q0 33 34 54q-7 10 -21 10q-39 0 -71 -30.5t-50 -74.5t-18 -83v-212q0 -46 26.5 -64t79.5 -18v-21l-24 1q-102 3 -130 3q-26 0 -118 -4v21q42 0 59 15.5t17 56.5v313q0 46 -17 67
t-59 21v21q32 -3 62 -3q63 0 104 14v-125q18 50 57.5 89t87.5 39q40 0 65.5 -23zM209 -89q18 -20 18 -50q0 -38 -18 -61.5t-64 -40.5l-7 18q26 8 44.5 24.5t17.5 38.5q-18 -16 -42 -16q-23 0 -37.5 14.5t-14.5 39.5q0 22 16.5 37.5t39.5 15.5q29 0 47 -20z" />
    <glyph glyph-name="Rcaron" unicode="&#x158;" horiz-adv-x="648" 
d="M660 50q-23 -34 -46 -49t-61 -15q-41 0 -67.5 24t-39.5 84l-22 100q-12 52 -22.5 80t-31.5 45t-59 17h-95v-230q0 -38 6 -55t22.5 -23t52.5 -8v-20q-46 3 -127 3q-86 0 -128 -3v20q36 2 52.5 8t22.5 23t6 55v496q0 38 -6 55t-22.5 23t-52.5 8v20q42 -3 122 -3l108 1
q19 1 43 1q116 0 178.5 -48.5t62.5 -125.5q0 -39 -18.5 -78.5t-62 -71t-113.5 -42.5l12 -2q66 -11 96 -40t44 -92l25 -102q10 -46 21 -64t30 -18q17 0 28.5 9t26.5 29zM243.5 681q-15.5 -7 -21.5 -25t-6 -54v-246h67q99 0 136 44t37 122q0 82 -39 124t-127 42
q-31 0 -46.5 -7zM489 912q-64 -22 -113.5 -57.5t-73.5 -74.5h-18q-24 39 -73.5 74.5t-113.5 57.5l5 14q60 -13 118.5 -32t92.5 -38q28 19 75.5 38t95.5 32z" />
    <glyph glyph-name="rcaron" unicode="&#x159;" horiz-adv-x="445" 
d="M405.5 506q25.5 -23 25.5 -56q0 -26 -15.5 -44.5t-41.5 -18.5q-22 0 -37.5 14t-15.5 38q0 33 34 54q-7 10 -21 10q-39 0 -71 -30.5t-50 -74.5t-18 -83v-212q0 -46 26.5 -64t79.5 -18v-21l-24 1q-102 3 -130 3q-26 0 -118 -4v21q42 0 59 15.5t17 56.5v313q0 46 -17 67
t-59 21v21q32 -3 62 -3q63 0 104 14v-125q18 50 57.5 89t87.5 39q40 0 65.5 -23zM402 788q-57 -28 -101.5 -74.5t-65.5 -97.5h-18q-21 51 -65.5 97.5t-101.5 74.5l8 14q54 -19 105.5 -46t82.5 -54q25 27 65.5 54t82.5 46z" />
    <glyph glyph-name="Sacute" unicode="&#x15a;" horiz-adv-x="540" 
d="M325.5 709.5q25.5 -9.5 52.5 -27.5q22 -14 34 -14q9 0 14 10.5t8 33.5h23q-5 -58 -5 -204h-23q-6 81 -46.5 136.5t-117.5 55.5q-54 0 -88 -32.5t-34 -83.5q0 -38 17.5 -66t44.5 -48t77 -51l29 -18q63 -39 99.5 -68.5t58.5 -67.5t22 -89q0 -91 -60 -140.5t-152 -49.5
q-48 0 -78.5 10t-58.5 27q-22 14 -34 14q-9 0 -14 -10.5t-8 -33.5h-23q4 55 4 240h23q7 -101 50 -164t132 -63q54 0 92 33.5t38 99.5q0 56 -37.5 95t-118.5 88q-59 36 -95.5 64t-59.5 67.5t-23 92.5q0 84 54 128.5t134 44.5q44 0 69.5 -9.5zM412 936q19 0 31 -17q6 -9 6 -19
q0 -22 -27 -39q-21 -13 -72 -32q-75 -30 -129 -57l-7 13q41 31 70.5 57.5t36.5 32.5q37 35 61 51q16 10 30 10z" />
    <glyph glyph-name="sacute" unicode="&#x15b;" horiz-adv-x="447" 
d="M272 518q28 -11 45 -26q11 -8 18 -8q18 0 22 44h23q-4 -49 -4 -170h-23q-11 66 -42.5 109t-93.5 43q-36 0 -59 -20.5t-23 -56.5q0 -35 24 -58.5t77 -56.5q9 -5 27 -17q46 -30 74 -53t45.5 -53t17.5 -69q0 -66 -49.5 -103t-121.5 -37q-45 0 -79 14q-22 11 -41 27
q-4 4 -9 4q-7 0 -12.5 -10t-8.5 -28h-23q4 57 4 200h23q11 -94 40 -140.5t99 -46.5q35 0 62 23t27 72q0 39 -26.5 66t-86.5 65q-49 31 -75.5 51t-44.5 49t-18 68q0 63 42 96t106 33q36 0 64 -11zM350 785q0 -15 -14 -34q-20 -25 -57 -55q-7 -6 -36.5 -33.5t-64.5 -63.5
l-11 9q37 59 69 121q23 46 40 69q16 22 38 22q14 0 22 -7q14 -12 14 -28z" />
    <glyph glyph-name="Scircumflex" unicode="&#x15c;" horiz-adv-x="540" 
d="M325.5 709.5q25.5 -9.5 52.5 -27.5q22 -14 34 -14q9 0 14 10.5t8 33.5h23q-5 -58 -5 -204h-23q-6 81 -46.5 136.5t-117.5 55.5q-54 0 -88 -32.5t-34 -83.5q0 -38 17.5 -66t44.5 -48t77 -51l29 -18q63 -39 99.5 -68.5t58.5 -67.5t22 -89q0 -91 -60 -140.5t-152 -49.5
q-48 0 -78.5 10t-58.5 27q-22 14 -34 14q-9 0 -14 -10.5t-8 -33.5h-23q4 55 4 240h23q7 -101 50 -164t132 -63q54 0 92 33.5t38 99.5q0 56 -37.5 95t-118.5 88q-59 36 -95.5 64t-59.5 67.5t-23 92.5q0 84 54 128.5t134 44.5q44 0 69.5 -9.5zM357.5 841.5
q49.5 -35.5 113.5 -57.5l-5 -14q-60 13 -118.5 32t-92.5 38q-28 -19 -75.5 -38t-95.5 -32l-5 14q64 22 113.5 57.5t73.5 74.5h18q24 -39 73.5 -74.5z" />
    <glyph glyph-name="scircumflex" unicode="&#x15d;" horiz-adv-x="447" 
d="M272 518q28 -11 45 -26q11 -8 18 -8q18 0 22 44h23q-4 -49 -4 -170h-23q-11 66 -42.5 109t-93.5 43q-36 0 -59 -20.5t-23 -56.5q0 -35 24 -58.5t77 -56.5q9 -5 27 -17q46 -30 74 -53t45.5 -53t17.5 -69q0 -66 -49.5 -103t-121.5 -37q-45 0 -79 14q-22 11 -41 27
q-4 4 -9 4q-7 0 -12.5 -10t-8.5 -28h-23q4 57 4 200h23q11 -94 40 -140.5t99 -46.5q35 0 62 23t27 72q0 39 -26.5 66t-86.5 65q-49 31 -75.5 51t-44.5 49t-18 68q0 63 42 96t106 33q36 0 64 -11zM303.5 704.5q44.5 -46.5 101.5 -74.5l-8 -14q-54 19 -105.5 46t-82.5 54
q-25 -27 -65.5 -54t-82.5 -46l-8 14q57 28 101.5 74.5t65.5 97.5h18q21 -51 65.5 -97.5z" />
    <glyph glyph-name="Scedilla" unicode="&#x15e;" horiz-adv-x="540" 
d="M325.5 709.5q25.5 -9.5 52.5 -27.5q22 -14 34 -14q9 0 14 10.5t8 33.5h23q-5 -58 -5 -204h-23q-6 81 -46.5 136.5t-117.5 55.5q-54 0 -88 -32.5t-34 -83.5q0 -38 17.5 -66t44.5 -48t77 -51l29 -18q63 -39 99.5 -68.5t58.5 -67.5t22 -89q0 -91 -60 -140.5t-152 -49.5
q-48 0 -78.5 10t-58.5 27q-22 14 -34 14q-9 0 -14 -10.5t-8 -33.5h-23q4 55 4 240h23q7 -101 50 -164t132 -63q54 0 92 33.5t38 99.5q0 56 -37.5 95t-118.5 88q-59 36 -95.5 64t-59.5 67.5t-23 92.5q0 84 54 128.5t134 44.5q44 0 69.5 -9.5zM271 -72q30 7 59 7
q28 0 44.5 -12.5t16.5 -34.5q0 -38 -35 -57t-78 -19q-50 0 -83 11l4 18q21 -3 38 -3q36 0 63 10.5t27 34.5q0 28 -42 28q-28 0 -49 -7l34 101h27z" />
    <glyph glyph-name="scedilla" unicode="&#x15f;" horiz-adv-x="447" 
d="M272 518q28 -11 45 -26q11 -8 18 -8q18 0 22 44h23q-4 -49 -4 -170h-23q-11 66 -42.5 109t-93.5 43q-36 0 -59 -20.5t-23 -56.5q0 -35 24 -58.5t77 -56.5q9 -5 27 -17q46 -30 74 -53t45.5 -53t17.5 -69q0 -66 -49.5 -103t-121.5 -37q-45 0 -79 14q-22 11 -41 27
q-4 4 -9 4q-7 0 -12.5 -10t-8.5 -28h-23q4 57 4 200h23q11 -94 40 -140.5t99 -46.5q35 0 62 23t27 72q0 39 -26.5 66t-86.5 65q-49 31 -75.5 51t-44.5 49t-18 68q0 63 42 96t106 33q36 0 64 -11zM200 -72q30 7 59 7q28 0 44.5 -12.5t16.5 -34.5q0 -38 -35 -57t-78 -19
q-50 0 -83 11l4 18q21 -3 38 -3q36 0 63 10.5t27 34.5q0 28 -42 28q-28 0 -49 -7l34 102h27z" />
    <glyph glyph-name="Scaron" unicode="&#x160;" horiz-adv-x="540" 
d="M325.5 709.5q25.5 -9.5 52.5 -27.5q22 -14 34 -14q9 0 14 10.5t8 33.5h23q-5 -58 -5 -204h-23q-6 81 -46.5 136.5t-117.5 55.5q-54 0 -88 -32.5t-34 -83.5q0 -38 17.5 -66t44.5 -48t77 -51l29 -18q63 -39 99.5 -68.5t58.5 -67.5t22 -89q0 -91 -60 -140.5t-152 -49.5
q-48 0 -78.5 10t-58.5 27q-22 14 -34 14q-9 0 -14 -10.5t-8 -33.5h-23q4 55 4 240h23q7 -101 50 -164t132 -63q54 0 92 33.5t38 99.5q0 56 -37.5 95t-118.5 88q-59 36 -95.5 64t-59.5 67.5t-23 92.5q0 84 54 128.5t134 44.5q44 0 69.5 -9.5zM468 912q-64 -22 -113.5 -57.5
t-73.5 -74.5h-18q-24 39 -73.5 74.5t-113.5 57.5l5 14q60 -13 118.5 -32t92.5 -38q28 19 75.5 38t95.5 32z" />
    <glyph glyph-name="scaron" unicode="&#x161;" horiz-adv-x="447" 
d="M272 518q28 -11 45 -26q11 -8 18 -8q18 0 22 44h23q-4 -49 -4 -170h-23q-11 66 -42.5 109t-93.5 43q-36 0 -59 -20.5t-23 -56.5q0 -35 24 -58.5t77 -56.5q9 -5 27 -17q46 -30 74 -53t45.5 -53t17.5 -69q0 -66 -49.5 -103t-121.5 -37q-45 0 -79 14q-22 11 -41 27
q-4 4 -9 4q-7 0 -12.5 -10t-8.5 -28h-23q4 57 4 200h23q11 -94 40 -140.5t99 -46.5q35 0 62 23t27 72q0 39 -26.5 66t-86.5 65q-49 31 -75.5 51t-44.5 49t-18 68q0 63 42 96t106 33q36 0 64 -11zM395 788q-57 -28 -101.5 -74.5t-65.5 -97.5h-18q-21 51 -65.5 97.5
t-101.5 74.5l8 14q54 -19 105.5 -46t82.5 -54q25 27 65.5 54t82.5 46z" />
    <glyph glyph-name="uni0162" unicode="&#x162;" horiz-adv-x="621" 
d="M585 580q0 -50 3 -82h-23q-8 77 -20 114.5t-42 55t-92 17.5h-54v-569q0 -42 8 -61t28 -26t65 -9v-20q-52 3 -147 3q-100 0 -148 -3v20q45 2 65 9t28 26t8 61v569h-54q-62 0 -92 -17.5t-42 -55t-20 -114.5h-23q3 32 3 82q0 57 -7 128q83 -3 282 -3q198 0 281 3
q-7 -71 -7 -128zM296 -72q30 7 59 7q28 0 44.5 -12.5t16.5 -34.5q0 -38 -35 -57t-78 -19q-50 0 -83 11l4 18q21 -3 38 -3q36 0 63 10.5t27 34.5q0 28 -42 28q-28 0 -49 -7l34 101h27z" />
    <glyph glyph-name="uni0163" unicode="&#x163;" horiz-adv-x="354" 
d="M190 514h148v-20h-148v-387q0 -45 16.5 -65t47.5 -20t53 25t37 82l20 -5q-25 -138 -130 -138q-34 0 -56 8t-39 25q-22 22 -30.5 54t-8.5 86v335h-96v20h96v153q56 2 90 14v-167zM205 -72q30 7 59 7q28 0 44.5 -12.5t16.5 -34.5q0 -38 -35 -57t-78 -19q-50 0 -83 11l4 18
q21 -3 38 -3q36 0 63 10.5t27 34.5q0 28 -42 28q-28 0 -49 -7l34 102h27z" />
    <glyph glyph-name="Tcaron" unicode="&#x164;" horiz-adv-x="621" 
d="M585 580q0 -50 3 -82h-23q-8 77 -20 114.5t-42 55t-92 17.5h-54v-569q0 -42 8 -61t28 -26t65 -9v-20q-52 3 -147 3q-100 0 -148 -3v20q45 2 65 9t28 26t8 61v569h-54q-62 0 -92 -17.5t-42 -55t-20 -114.5h-23q3 32 3 82q0 57 -7 128q83 -3 282 -3q198 0 281 3
q-7 -71 -7 -128zM504 912q-64 -22 -113.5 -57.5t-73.5 -74.5h-18q-24 39 -73.5 74.5t-113.5 57.5l5 14q60 -13 118.5 -32t92.5 -38q28 19 75.5 38t95.5 32z" />
    <glyph glyph-name="tcaron" unicode="&#x165;" horiz-adv-x="354" 
d="M190 514h148v-20h-148v-387q0 -45 16.5 -65t47.5 -20t53 25t37 82l20 -5q-25 -138 -130 -138q-34 0 -56 8t-39 25q-22 22 -30.5 54t-8.5 86v335h-96v20h96v153q56 2 90 14v-167zM337.5 765.5q1.5 -12.5 1.5 -23.5q0 -27 -15 -64.5t-52 -115.5l-14 4q20 113 20 145
q0 21 -4 30.5t-16 9.5v21l16 -1q28 0 60 12q2 -5 3.5 -17.5z" />
    <glyph glyph-name="Tbar" unicode="&#x166;" horiz-adv-x="621" 
d="M585 580q0 -50 3 -82h-23q-8 77 -20 114.5t-42 55t-92 17.5h-54v-569q0 -42 8 -61t28 -26t65 -9v-20q-52 3 -147 3q-100 0 -148 -3v20q45 2 65 9t28 26t8 61v569h-54q-62 0 -92 -17.5t-42 -55t-20 -114.5h-23q3 32 3 82q0 57 -7 128q83 -3 282 -3q198 0 281 3
q-7 -71 -7 -128zM524 344h-424.805v20h424.805v-20z" />
    <glyph glyph-name="tbar" unicode="&#x167;" horiz-adv-x="376" 
d="M367 124q-25 -138 -130 -138q-34 0 -56 8t-39 25q-22 22 -30.5 54t-8.5 86v242h-96v20h96v73h-96v20h96v153q56 2 90 14v-167h148v-20h-148v-73h148v-20h-148v-294q0 -45 16.5 -65t47.5 -20t53 25t37 82z" />
    <glyph glyph-name="Utilde" unicode="&#x168;" horiz-adv-x="682" 
d="M655 688q-35 -2 -52 -10.5t-23 -28t-6 -57.5v-301q0 -72 -9.5 -123.5t-31.5 -88.5q-25 -43 -73.5 -68t-109.5 -25q-110 0 -168 54q-44 41 -59 93t-15 155v314q0 38 -6 55t-22.5 23t-52.5 8v20q42 -3 128 -3q81 0 127 3v-20q-36 -2 -52.5 -8t-22.5 -23t-6 -55v-331
q0 -80 11 -133t45.5 -85t101.5 -32q106 0 149 68t43 191v312q0 54 -19.5 74t-71.5 22v20q36 -3 102 -3q60 0 93 3v-20zM318 892q22 -10 53 -30q35 -20 53.5 -28.5t40.5 -8.5q46 0 62 56l15 -3q-4 -48 -36 -77t-75 -29q-25 0 -47 10t-53 30q-35 20 -53.5 28.5t-40.5 8.5
q-23 0 -38 -12.5t-24 -43.5l-15 3q4 48 36 77t75 29q25 0 47 -10z" />
    <glyph glyph-name="utilde" unicode="&#x169;" horiz-adv-x="581" 
d="M483 108q0 -46 17 -67t59 -21v-21q-31 3 -62 3q-63 0 -104 -14v118q-24 -62 -68 -91t-96 -29q-68 0 -104 38q-18 20 -25.5 51t-7.5 80v251q0 46 -17 67t-59 21v21q31 -3 62 -3q63 0 104 14v-393q0 -38 4.5 -61.5t21 -38.5t50.5 -15q38 0 69 24t48.5 65.5t17.5 91.5v207
q0 46 -17 67t-59 21v21q31 -3 62 -3q63 0 104 14v-418zM250 758.5q19 -9.5 40 -26.5q20 -15 34.5 -22.5t32.5 -7.5q45 0 77 53l14 -7q-15 -53 -46.5 -78t-71.5 -25q-26 0 -44 9t-41 27q-21 16 -35 23.5t-32 7.5q-44 0 -77 -54l-14 7q15 53 46.5 78t72.5 25q25 0 44 -9.5z
" />
    <glyph glyph-name="Umacron" unicode="&#x16a;" horiz-adv-x="682" 
d="M655 688q-35 -2 -52 -10.5t-23 -28t-6 -57.5v-301q0 -72 -9.5 -123.5t-31.5 -88.5q-25 -43 -73.5 -68t-109.5 -25q-110 0 -168 54q-44 41 -59 93t-15 155v314q0 38 -6 55t-22.5 23t-52.5 8v20q42 -3 128 -3q81 0 127 3v-20q-36 -2 -52.5 -8t-22.5 -23t-6 -55v-331
q0 -80 11 -133t45.5 -85t101.5 -32q106 0 149 68t43 191v312q0 54 -19.5 74t-71.5 22v20q36 -3 102 -3q60 0 93 3v-20zM528 819h-352v25h352v-25z" />
    <glyph glyph-name="umacron" unicode="&#x16b;" horiz-adv-x="581" 
d="M483 108q0 -46 17 -67t59 -21v-21q-31 3 -62 3q-63 0 -104 -14v118q-24 -62 -68 -91t-96 -29q-68 0 -104 38q-18 20 -25.5 51t-7.5 80v251q0 46 -17 67t-59 21v21q31 -3 62 -3q63 0 104 14v-393q0 -38 4.5 -61.5t21 -38.5t50.5 -15q38 0 69 24t48.5 65.5t17.5 91.5v207
q0 46 -17 67t-59 21v21q31 -3 62 -3q63 0 104 14v-418zM433 687h-312v25h312v-25z" />
    <glyph glyph-name="Ubreve" unicode="&#x16c;" horiz-adv-x="682" 
d="M655 688q-35 -2 -52 -10.5t-23 -28t-6 -57.5v-301q0 -72 -9.5 -123.5t-31.5 -88.5q-25 -43 -73.5 -68t-109.5 -25q-110 0 -168 54q-44 41 -59 93t-15 155v314q0 38 -6 55t-22.5 23t-52.5 8v20q42 -3 128 -3q81 0 127 3v-20q-36 -2 -52.5 -8t-22.5 -23t-6 -55v-331
q0 -80 11 -133t45.5 -85t101.5 -32q106 0 149 68t43 191v312q0 54 -19.5 74t-71.5 22v20q36 -3 102 -3q60 0 93 3v-20zM551 898q-29 -47 -79.5 -81.5t-119.5 -34.5t-119.5 34.5t-79.5 81.5l13 10q28 -27 74.5 -45.5t111.5 -18.5t112 19t75 46z" />
    <glyph glyph-name="ubreve" unicode="&#x16d;" horiz-adv-x="581" 
d="M483 108q0 -46 17 -67t59 -21v-21q-31 3 -62 3q-63 0 -104 -14v118q-24 -62 -68 -91t-96 -29q-68 0 -104 38q-18 20 -25.5 51t-7.5 80v251q0 46 -17 67t-59 21v21q31 -3 62 -3q63 0 104 14v-393q0 -38 4.5 -61.5t21 -38.5t50.5 -15q38 0 69 24t48.5 65.5t17.5 91.5v207
q0 46 -17 67t-59 21v21q31 -3 62 -3q63 0 104 14v-418zM458 779q-25 -60 -70.5 -103t-108.5 -43t-108.5 43t-70.5 103l17 9q58 -96 162 -96t162 96z" />
    <glyph glyph-name="Uring" unicode="&#x16e;" horiz-adv-x="682" 
d="M655 688q-35 -2 -52 -10.5t-23 -28t-6 -57.5v-301q0 -72 -9.5 -123.5t-31.5 -88.5q-25 -43 -73.5 -68t-109.5 -25q-110 0 -168 54q-44 41 -59 93t-15 155v314q0 38 -6 55t-22.5 23t-52.5 8v20q42 -3 128 -3q81 0 127 3v-20q-36 -2 -52.5 -8t-22.5 -23t-6 -55v-331
q0 -80 11 -133t45.5 -85t101.5 -32q106 0 149 68t43 191v312q0 54 -19.5 74t-71.5 22v20q36 -3 102 -3q60 0 93 3v-20zM420.5 960q28.5 -25 28.5 -66t-28.5 -66.5t-68.5 -25.5t-68 25.5t-28 66.5t28 66t68 25t68.5 -25zM305 944.5q-21 -19.5 -21 -51.5q0 -33 20.5 -51.5
t47.5 -18.5t48 18.5t21 51.5t-21 52t-48 19q-26 0 -47 -19.5z" />
    <glyph glyph-name="uring" unicode="&#x16f;" horiz-adv-x="581" 
d="M483 108q0 -46 17 -67t59 -21v-21q-31 3 -62 3q-63 0 -104 -14v118q-24 -62 -68 -91t-96 -29q-68 0 -104 38q-18 20 -25.5 51t-7.5 80v251q0 46 -17 67t-59 21v21q31 -3 62 -3q63 0 104 14v-393q0 -38 4.5 -61.5t21 -38.5t50.5 -15q38 0 69 24t48.5 65.5t17.5 91.5v207
q0 46 -17 67t-59 21v21q31 -3 62 -3q63 0 104 14v-418zM348.5 766q28.5 -25 28.5 -66t-28.5 -66.5t-68.5 -25.5t-68 25.5t-28 66.5t28 66t68 25t68.5 -25zM233 750.5q-21 -19.5 -21 -51.5q0 -33 20.5 -51.5t47.5 -18.5t48 18.5t21 51.5t-21 52t-48 19q-26 0 -47 -19.5z" />
    <glyph glyph-name="Uhungarumlaut" unicode="&#x170;" horiz-adv-x="682" 
d="M655 688q-35 -2 -52 -10.5t-23 -28t-6 -57.5v-301q0 -72 -9.5 -123.5t-31.5 -88.5q-25 -43 -73.5 -68t-109.5 -25q-110 0 -168 54q-44 41 -59 93t-15 155v314q0 38 -6 55t-22.5 23t-52.5 8v20q42 -3 128 -3q81 0 127 3v-20q-36 -2 -52.5 -8t-22.5 -23t-6 -55v-331
q0 -80 11 -133t45.5 -85t101.5 -32q106 0 149 68t43 191v312q0 54 -19.5 74t-71.5 22v20q36 -3 102 -3q60 0 93 3v-20zM355 937q16 0 27 -13q9 -10 9 -23q0 -20 -21 -38q-13 -11 -33.5 -22.5t-41.5 -21.5q-58 -30 -82 -47l-9 12q25 25 61 73q14 18 28.5 36t27.5 29
q18 15 34 15zM542 937q16 0 27 -13q9 -10 9 -23q0 -20 -21 -38q-13 -11 -33.5 -22.5t-41.5 -21.5q-58 -30 -82 -47l-9 12q25 25 61 73q14 18 28.5 36t27.5 29q18 15 34 15z" />
    <glyph glyph-name="uhungarumlaut" unicode="&#x171;" horiz-adv-x="581" 
d="M483 108q0 -46 17 -67t59 -21v-21q-31 3 -62 3q-63 0 -104 -14v118q-24 -62 -68 -91t-96 -29q-68 0 -104 38q-18 20 -25.5 51t-7.5 80v251q0 46 -17 67t-59 21v21q31 -3 62 -3q63 0 104 14v-393q0 -38 4.5 -61.5t21 -38.5t50.5 -15q38 0 69 24t48.5 65.5t17.5 91.5v207
q0 46 -17 67t-59 21v21q31 -3 62 -3q63 0 104 14v-418zM331 785q0 -15 -14 -34q-20 -25 -57 -55q-7 -6 -36.5 -33.5t-64.5 -63.5l-11 9q37 59 69 121q23 46 40 69q17 22 38 22q14 0 22 -7q14 -12 14 -28zM509 785q0 -15 -14 -34q-20 -25 -57 -55q-7 -6 -36.5 -33.5
t-64.5 -63.5l-11 9q37 59 69 121q23 46 40 69q16 22 38 22q14 0 22 -7q14 -12 14 -28z" />
    <glyph glyph-name="Uogonek" unicode="&#x172;" horiz-adv-x="682" 
d="M655 688q-35 -2 -52 -10.5t-23 -28t-6 -57.5v-301q0 -72 -9.5 -123.5t-31.5 -88.5q-25 -43 -73.5 -68t-109.5 -25q-110 0 -168 54q-44 41 -59 93t-15 155v314q0 38 -6 55t-22.5 23t-52.5 8v20q42 -3 128 -3q81 0 127 3v-20q-36 -2 -52.5 -8t-22.5 -23t-6 -55v-331
q0 -80 11 -133t45.5 -85t101.5 -32q106 0 149 68t43 191v312q0 54 -19.5 74t-71.5 22v20q36 -3 102 -3q60 0 93 3v-20zM361.5 -38.5q-24.5 -27.5 -24.5 -57.5q0 -20 11.5 -32t31.5 -12q18 0 34.5 9.5t26.5 23.5l15 -13q-45 -68 -113 -68q-36 0 -57.5 18t-21.5 47
q0 39 36 71.5t102 54.5h38q-54 -14 -78.5 -41.5z" />
    <glyph glyph-name="uogonek" unicode="&#x173;" horiz-adv-x="581" 
d="M483 108q0 -46 17 -67t59 -21v-21q-31 3 -62 3q-63 0 -104 -14v118q-24 -62 -68 -91t-96 -29q-68 0 -104 38q-18 20 -25.5 51t-7.5 80v251q0 46 -17 67t-59 21v21q31 -3 62 -3q63 0 104 14v-393q0 -38 4.5 -61.5t21 -38.5t50.5 -15q38 0 69 24t48.5 65.5t17.5 91.5v207
q0 46 -17 67t-59 21v21q31 -3 62 -3q63 0 104 14v-418zM536 -2q-87 -37 -87 -94q0 -20 11.5 -32t31.5 -12q18 0 34.5 9.5t26.5 23.5l15 -13q-45 -68 -113 -68q-36 0 -57.5 18t-21.5 47q0 39 36 71.5t102 54.5h32q-3 -3 -10 -5z" />
    <glyph glyph-name="Wcircumflex" unicode="&#x174;" horiz-adv-x="905" 
d="M907 708v-20q-56 -13 -79 -87l-189 -606h-8h-8l-174 515l-159 -515h-8h-8l-212 629q-21 62 -69 64v20q41 -3 107 -3q72 0 108 3v-20q-27 -2 -38 -10t-11 -25q0 -16 11 -49l146 -446l122 387l-27 79q-20 62 -59 64v20q36 -3 97 -3q86 0 128 3v-20q-38 -2 -53 -8.5
t-15 -27.5q0 -18 10 -48l144 -445l123 387q16 49 16 81q0 33 -20 46.5t-65 14.5v20q57 -3 115 -3q45 0 75 3zM546.5 841.5q49.5 -35.5 113.5 -57.5l-5 -14q-60 13 -118.5 32t-92.5 38q-28 -19 -75.5 -38t-95.5 -32l-5 14q64 22 113.5 57.5t73.5 74.5h18q24 -39 73.5 -74.5z
" />
    <glyph glyph-name="wcircumflex" unicode="&#x175;" horiz-adv-x="770" 
d="M767 515v-20q-21 -3 -37 -18.5t-28 -51.5l-145 -430h-17l-158 402l-143 -402h-17l-164 443q-14 35 -28.5 45.5t-29.5 10.5v21q39 -6 88 -6q50 0 130 6v-21q-37 0 -53.5 -6t-16.5 -31q0 -18 10 -47l100 -288l144 397h23l153 -404l94 286q9 27 9 45q0 24 -17 35t-57 14v20
q53 -3 84 -3q44 0 76 3zM485.5 704.5q44.5 -46.5 101.5 -74.5l-8 -14q-54 19 -105.5 46t-82.5 54q-25 -27 -65.5 -54t-82.5 -46l-8 14q57 28 101.5 74.5t65.5 97.5h18q21 -51 65.5 -97.5z" />
    <glyph glyph-name="Ycircumflex" unicode="&#x176;" horiz-adv-x="591" 
d="M588 708v-20q-20 -5 -39 -25.5t-41 -63.5l-157 -311v-182q0 -38 6 -55t22.5 -23t52.5 -8v-20q-46 3 -127 3q-86 0 -128 -3v20q36 2 52.5 8t22.5 23t6 55v150l-203 375q-18 33 -31.5 44.5t-26.5 11.5v21q39 -3 88 -3q97 0 140 3v-21q-70 0 -70 -38q0 -15 10 -35l166 -319
l128 254q27 53 27 86q0 28 -22 40t-66 13v20q57 -3 115 -3q45 0 75 3zM386.5 841.5q49.5 -35.5 113.5 -57.5l-5 -14q-60 13 -118.5 32t-92.5 38q-28 -19 -75.5 -38t-95.5 -32l-5 14q64 22 113.5 57.5t73.5 74.5h18q24 -39 73.5 -74.5z" />
    <glyph glyph-name="ycircumflex" unicode="&#x177;" horiz-adv-x="504" 
d="M494 515v-20q-20 -2 -35.5 -18t-29.5 -52l-164 -430l-34 -87q-19 -49 -43 -70q-15 -14 -36 -20t-42 -6q-30 0 -49 16t-19 44q0 24 14 38.5t39 14.5q22 0 36.5 -12.5t14.5 -34.5q0 -30 -27 -45q2 -1 6 -1q55 0 85 78l35 91l-181 437q-17 34 -34 45t-34 11v21q43 -6 98 -6
q50 0 130 6v-21q-36 0 -52.5 -6t-16.5 -29q0 -21 12 -49l120 -298l111 289q11 30 11 46q0 23 -18 34t-57 14v20q53 -3 84 -3q44 0 76 3zM328.5 704.5q44.5 -46.5 101.5 -74.5l-8 -14q-54 19 -105.5 46t-82.5 54q-25 -27 -65.5 -54t-82.5 -46l-8 14q57 28 101.5 74.5
t65.5 97.5h18q21 -51 65.5 -97.5z" />
    <glyph glyph-name="Ydieresis" unicode="&#x178;" horiz-adv-x="591" 
d="M588 708v-20q-20 -5 -39 -25.5t-41 -63.5l-157 -311v-182q0 -38 6 -55t22.5 -23t52.5 -8v-20q-46 3 -127 3q-86 0 -128 -3v20q36 2 52.5 8t22.5 23t6 55v150l-203 375q-18 33 -31.5 44.5t-26.5 11.5v21q39 -3 88 -3q97 0 140 3v-21q-70 0 -70 -38q0 -15 10 -35l166 -319
l128 254q27 53 27 86q0 28 -22 40t-66 13v20q57 -3 115 -3q45 0 75 3zM238.5 870.5q17.5 -17.5 17.5 -40.5q0 -24 -17.5 -41t-40.5 -17q-24 0 -41 17t-17 41q0 23 17 40.5t41 17.5q23 0 40.5 -17.5zM450.5 870.5q17.5 -17.5 17.5 -40.5q0 -24 -17.5 -41t-40.5 -17
q-24 0 -41 17t-17 41q0 23 17 40.5t41 17.5q23 0 40.5 -17.5z" />
    <glyph glyph-name="Zacute" unicode="&#x179;" horiz-adv-x="594" 
d="M550 688l-399 -665h196q62 0 94.5 17.5t47.5 56.5t22 113h23q-3 -31 -3 -82q0 -57 7 -128q-74 3 -249 3q-171 0 -247 -3v20l402 665h-195q-62 0 -94.5 -17.5t-47.5 -56.5t-22 -113h-23q3 32 3 82q0 57 -7 128q74 -3 249 -3q170 0 243 3v-20zM432 936q19 0 31 -17
q6 -9 6 -19q0 -22 -27 -39q-21 -13 -72 -32q-75 -30 -129 -57l-7 13q41 31 70.5 57.5t36.5 32.5q37 35 61 51q16 10 30 10z" />
    <glyph glyph-name="zacute" unicode="&#x17a;" horiz-adv-x="476" 
d="M150 15h110q62 0 97 38.5t42 122.5h23q0 -131 4 -180q-79 4 -186 4q-95 0 -202 -5l289 505h-110q-67 0 -99.5 -37.5t-39.5 -123.5h-23q0 131 -4 180q79 -4 186 -4q95 0 202 5zM375 785q0 -15 -14 -34q-20 -25 -57 -55q-7 -6 -36.5 -33.5t-64.5 -63.5l-11 9q37 59 69 121
q23 46 40 69q16 22 38 22q14 0 22 -7q14 -12 14 -28z" />
    <glyph glyph-name="Zdotaccent" unicode="&#x17b;" horiz-adv-x="594" 
d="M550 688l-399 -665h196q62 0 94.5 17.5t47.5 56.5t22 113h23q-3 -31 -3 -82q0 -57 7 -128q-74 3 -249 3q-171 0 -247 -3v20l402 665h-195q-62 0 -94.5 -17.5t-47.5 -56.5t-22 -113h-23q3 32 3 82q0 57 -7 128q74 -3 249 -3q170 0 243 3v-20zM340 940q19 -19 19 -45
t-19 -45t-45 -19t-45 19t-19 45t19 45t45 19t45 -19z" />
    <glyph glyph-name="zdotaccent" unicode="&#x17c;" horiz-adv-x="476" 
d="M150 15h110q62 0 97 38.5t42 122.5h23q0 -131 4 -180q-79 4 -186 4q-95 0 -202 -5l289 505h-110q-67 0 -99.5 -37.5t-39.5 -123.5h-23q0 131 -4 180q79 -4 186 -4q95 0 202 5zM299 746q19 -19 19 -45t-19 -45t-45 -19t-45 19t-19 45t19 45t45 19t45 -19z" />
    <glyph glyph-name="Zcaron" unicode="&#x17d;" horiz-adv-x="594" 
d="M550 688l-399 -665h196q62 0 94.5 17.5t47.5 56.5t22 113h23q-3 -31 -3 -82q0 -57 7 -128q-74 3 -249 3q-171 0 -247 -3v20l402 665h-195q-62 0 -94.5 -17.5t-47.5 -56.5t-22 -113h-23q3 32 3 82q0 57 -7 128q74 -3 249 -3q170 0 243 3v-20zM488 912
q-64 -22 -113.5 -57.5t-73.5 -74.5h-18q-24 39 -73.5 74.5t-113.5 57.5l5 14q60 -13 118.5 -32t92.5 -38q28 19 75.5 38t95.5 32z" />
    <glyph glyph-name="zcaron" unicode="&#x17e;" horiz-adv-x="476" 
d="M150 15h110q62 0 97 38.5t42 122.5h23q0 -131 4 -180q-79 4 -186 4q-95 0 -202 -5l289 505h-110q-67 0 -99.5 -37.5t-39.5 -123.5h-23q0 131 -4 180q79 -4 186 -4q95 0 202 5zM420 788q-57 -28 -101.5 -74.5t-65.5 -97.5h-18q-21 51 -65.5 97.5t-101.5 74.5l8 14
q54 -19 105.5 -46t82.5 -54q25 27 65.5 54t82.5 46z" />
    <glyph glyph-name="longs" unicode="&#x17f;" horiz-adv-x="332" 
d="M30 21q42 0 59 15.5t17 56.5v401h-80v20h80q0 88 11 136t40 82q20 23 51 36.5t68 13.5q52 0 87 -27q31 -25 31 -62q0 -23 -15 -38t-38 -15t-39 14.5t-16 39.5q0 21 11.5 34t30.5 17q-3 10 -16 16t-33 6q-22 0 -39 -10t-26 -27q-11 -20 -14.5 -59t-3.5 -131v-437
q0 -46 26.5 -64t79.5 -18v-21l-24 1q-102 3 -130 3q-26 0 -118 -4v21z" />
    <glyph glyph-name="uni018F" unicode="&#x18f;" horiz-adv-x="703" 
d="M502.5 677q71.5 -45 109.5 -128.5t38 -197.5q0 -112 -36.5 -194t-107 -126.5t-168.5 -44.5q-130 0 -207.5 78t-77.5 232h495q3 29 3 62q0 103 -32 179t-86.5 116t-121.5 40q-44 0 -90 -17t-74 -50q-19 -22 -29.5 -55t-20.5 -93h-23q0 165 -4 230h23q3 -32 8.5 -45.5
t16.5 -13.5q7 0 20 8q46 31 87.5 48t106.5 17q99 0 170.5 -45zM483.5 73q52.5 68 65.5 204h-398q-4 -76 19.5 -138t70 -98t108.5 -36q82 0 134.5 68z" />
    <glyph glyph-name="florin" unicode="&#x192;" horiz-adv-x="459" 
d="M350 723q11 13 32 20q-3 10 -18 17t-35 7q-22 0 -39 -10t-26 -27q-12 -21 -15 -63.5t-3 -151.5v-1h167v-20h-167v-379q0 -81 -11 -142t-42 -100q-23 -30 -55.5 -45.5t-65.5 -15.5t-50 15t-17 38q0 21 13 34t34 13q20 0 32.5 -13t12.5 -32q0 -23 -16 -40q37 5 54 24
q12 14 16 33q5 23 5 51v559h-120v20h120v1q0 88 11 135.5t40 81.5q20 23 51 36.5t68 13.5q53 0 85.5 -26t32.5 -63q0 -22 -14 -36.5t-37 -14.5q-24 0 -39 13t-15 37q0 18 11 31z" />
    <glyph glyph-name="Ohorn" unicode="&#x1a0;" horiz-adv-x="741" 
d="M645.5 560.5q42.5 -83.5 42.5 -200.5q0 -110 -40.5 -195t-113 -132t-164.5 -47q-95 0 -166.5 43t-111 124.5t-39.5 194.5q0 110 40.5 195t113 132t164.5 47q65 0 116 -19q46 0 78.5 8.5t60.5 25.5q-37 30 -37 68q0 24 15 41.5t43 17.5q26 0 41 -16t15 -39
q0 -25 -17.5 -48t-47.5 -41q-50 -28 -111 -35q76 -41 118.5 -124.5zM486.5 48.5q48.5 44.5 75 124.5t26.5 183q0 104 -29.5 183t-79.5 122t-112 43q-64 0 -112.5 -44.5t-75 -124.5t-26.5 -183q0 -104 29.5 -183t79.5 -122t112 -43q64 0 112.5 44.5z" />
    <glyph glyph-name="ohorn" unicode="&#x1a1;" horiz-adv-x="548" 
d="M518 541.5q-13 -18.5 -34 -31.5q-28 -17 -70 -25q87 -71 87 -228q0 -137 -62.5 -204t-164.5 -67t-164.5 67t-62.5 204t62.5 204.5t164.5 67.5q67 0 118 -29q39 4 70 19q-25 25 -25 56q0 22 12.5 38.5t36.5 16.5q22 0 33.5 -13.5t11.5 -34.5q0 -22 -13 -40.5zM369 67
q35 61 35 190t-35 190.5t-95 61.5t-95 -61.5t-35 -190.5t35 -190t95 -61t95 61z" />
    <glyph glyph-name="Uhorn" unicode="&#x1af;" horiz-adv-x="682" 
d="M717.5 848q14.5 -16 14.5 -40q0 -25 -17.5 -47.5t-47.5 -40.5q-51 -30 -93 -33v-396q0 -72 -9.5 -123.5t-31.5 -88.5q-25 -43 -73.5 -68t-109.5 -25q-110 0 -168 54q-44 41 -59 93t-15 155v314q0 38 -6 55t-22.5 23t-52.5 8v20q42 -3 128 -3q81 0 127 3v-20
q-36 -2 -52.5 -8t-22.5 -23t-6 -55v-331q0 -80 11 -133t45.5 -85t101.5 -32q106 0 149 68t43 191v406q-11 -1 -33 -1q-30 0 -60 3l5 20q28 -3 74 -3q37 0 64 5t55 26q-16 13 -27 30.5t-11 37.5q0 25 15 42.5t43 17.5q27 0 41.5 -16z" />
    <glyph glyph-name="uhorn" unicode="&#x1b0;" horiz-adv-x="581" 
d="M500 41q17 -21 59 -21v-21q-31 3 -62 3q-63 0 -104 -14v118q-24 -62 -68 -91t-96 -29q-68 0 -104 38q-18 20 -25.5 51t-7.5 80v251q0 46 -17 67t-59 21v21q31 -3 62 -3q63 0 104 14v-393q0 -38 4.5 -61.5t21 -38.5t50.5 -15q38 0 69 24t48.5 65.5t17.5 91.5v207
q0 46 -17 67t-59 21v21q31 -3 62 -3q60 0 102 13q20 9 25 12q-25 25 -25 56q0 22 12.5 38.5t36.5 16.5q22 0 33.5 -13.5t11.5 -33.5q0 -41 -47 -73q-20 -14 -45 -22v-398q0 -46 17 -67z" />
    <glyph glyph-name="uni01B7" unicode="&#x1b7;" horiz-adv-x="594" 
d="M499 313.5q52 -50.5 52 -126.5q0 -60 -33.5 -105.5t-92 -70.5t-131.5 -25q-53 0 -95 11.5t-66 25.5q-23 14 -33 14t-15 -10t-8 -34h-23q4 55 4 240h23q6 -100 58 -163.5t147 -63.5q84 0 127 50.5t43 129.5q0 84 -46 134.5t-124 69.5v20l173 275h-210q-62 0 -94.5 -17.5
t-47.5 -56.5t-22 -113h-23q3 32 3 76q0 63 -7 134q74 -3 249 -3q170 0 243 3v-20l-184 -296q81 -28 133 -78.5z" />
    <glyph glyph-name="uni01CD" unicode="&#x1cd;" horiz-adv-x="630" 
d="M636 20v-20q-40 3 -107 3q-86 0 -128 -3v20q38 2 54.5 9.5t16.5 27.5q0 17 -12 47l-61 164h-242l-41 -106q-20 -54 -20 -82q0 -31 21.5 -45t65.5 -15v-20q-57 3 -115 3q-45 0 -75 -3v20q50 12 79 87l235 606h16l244 -629q24 -62 69 -64zM391 288l-112 299l-114 -299h226z
M507 912q-64 -22 -113.5 -57.5t-73.5 -74.5h-18q-24 39 -73.5 74.5t-113.5 57.5l5 14q60 -13 118.5 -32t92.5 -38q28 19 75.5 38t95.5 32z" />
    <glyph glyph-name="uni01CE" unicode="&#x1ce;" horiz-adv-x="498" 
d="M69.5 24.5q-30.5 31.5 -30.5 87.5q0 45 24.5 74t58 46t88.5 36q56 19 83 35t27 43v62q0 58 -24.5 79.5t-68.5 21.5q-70 0 -99 -36q20 -5 33.5 -21t13.5 -40q0 -25 -16 -39.5t-41 -14.5q-28 0 -42 17.5t-14 42.5q0 24 11.5 40t34.5 32q24 17 61 28t81 11q78 0 118 -37
q25 -23 33.5 -55.5t8.5 -85.5v-278q0 -25 7 -36t24 -11q12 0 22.5 5.5t22.5 15.5l11 -17q-26 -20 -44.5 -28.5t-46.5 -8.5q-48 0 -67 24t-19 65q-30 -50 -69 -69.5t-88 -19.5q-63 0 -93.5 31.5zM320 109v196q-9 -14 -25 -23t-49 -24q-38 -16 -61.5 -30.5t-40.5 -39.5
t-17 -64q0 -45 22 -68t58 -23q66 0 113 76zM412 788q-57 -28 -101.5 -74.5t-65.5 -97.5h-18q-21 51 -65.5 97.5t-101.5 74.5l8 14q54 -19 105.5 -46t82.5 -54q25 27 65.5 54t82.5 46z" />
    <glyph glyph-name="uni01D3" unicode="&#x1d3;" horiz-adv-x="682" 
d="M655 688q-35 -2 -52 -10.5t-23 -28t-6 -57.5v-301q0 -72 -9.5 -123.5t-31.5 -88.5q-25 -43 -73.5 -68t-109.5 -25q-110 0 -168 54q-44 41 -59 93t-15 155v314q0 38 -6 55t-22.5 23t-52.5 8v20q42 -3 128 -3q81 0 127 3v-20q-36 -2 -52.5 -8t-22.5 -23t-6 -55v-331
q0 -80 11 -133t45.5 -85t101.5 -32q106 0 149 68t43 191v312q0 54 -19.5 74t-71.5 22v20q36 -3 102 -3q60 0 93 3v-20zM545 912q-64 -22 -113.5 -57.5t-73.5 -74.5h-18q-24 39 -73.5 74.5t-113.5 57.5l5 14q60 -13 118.5 -32t92.5 -38q28 19 75.5 38t95.5 32z" />
    <glyph glyph-name="uni01D4" unicode="&#x1d4;" horiz-adv-x="581" 
d="M483 108q0 -46 17 -67t59 -21v-21q-31 3 -62 3q-63 0 -104 -14v118q-24 -62 -68 -91t-96 -29q-68 0 -104 38q-18 20 -25.5 51t-7.5 80v251q0 46 -17 67t-59 21v21q31 -3 62 -3q63 0 104 14v-393q0 -38 4.5 -61.5t21 -38.5t50.5 -15q38 0 69 24t48.5 65.5t17.5 91.5v207
q0 46 -17 67t-59 21v21q31 -3 62 -3q63 0 104 14v-418zM446 788q-57 -28 -101.5 -74.5t-65.5 -97.5h-18q-21 51 -65.5 97.5t-101.5 74.5l8 14q54 -19 105.5 -46t82.5 -54q25 27 65.5 54t82.5 46z" />
    <glyph glyph-name="uni01E4" unicode="&#x1e4;" horiz-adv-x="703" 
d="M703 168h-85v-168h-20q-1 20 -8 38.5t-19 18.5q-6 0 -12 -3t-21 -14q-35 -27 -72.5 -40.5t-83.5 -13.5q-103 0 -176.5 42.5t-112.5 122.5t-39 191q0 114 41.5 200.5t114.5 133t166 46.5q59 0 97 -16.5t83 -48.5q13 -10 20 -10q19 0 25 61h23q-4 -65 -4 -230h-23
q-9 53 -19 87.5t-31 60.5q-29 36 -75.5 57t-97.5 21q-66 0 -116 -43t-77 -122.5t-27 -185.5q0 -180 57.5 -263.5t180.5 -83.5q60 0 104 31q18 12 23.5 23.5t5.5 31.5v76h-117v20h117v20q0 42 -8 61t-28 26t-65 9v20q52 -3 141 -3q68 0 104 3v-20q-23 -2 -33.5 -8t-14 -23
t-3.5 -55v-30h85v-20z" />
    <glyph glyph-name="uni01E5" unicode="&#x1e5;" horiz-adv-x="518" 
d="M558 -75h-95q-26 -51 -90.5 -82t-159.5 -31q-87 0 -145.5 26.5t-58.5 78.5v8h-59v20h64q19 48 99 70l6 -16q-17 -6 -29 -20t-17 -34h338v5q0 36 -25.5 56t-90.5 20h-74q-59 0 -94.5 15t-35.5 60q0 31 22.5 59t74.5 55q-66 7 -105.5 46t-39.5 110q0 79 48 118.5t127 39.5
q94 0 139 -52q19 27 48 44.5t58 17.5q26 0 42 -15t16 -43t-15.5 -42t-34.5 -14q-18 0 -30.5 12t-12.5 35q0 20 10 46q-26 -11 -41 -24.5t-27 -33.5q23 -35 23 -89q0 -79 -48 -118.5t-127 -39.5h-1q-33 -19 -50 -35t-17 -36q0 -32 48 -32h125q68 0 112.5 -29.5t44.5 -88.5
q0 -23 -8 -47h86v-20zM157.5 262.5q20.5 -31.5 60.5 -31.5t60.5 31.5t20.5 108.5t-20.5 108.5t-60.5 31.5t-60.5 -31.5t-20.5 -108.5t20.5 -108.5zM344.5 -147.5q52.5 23.5 63.5 72.5h-337v-1q0 -46 41.5 -70.5t111.5 -24.5q68 0 120.5 23.5z" />
    <glyph glyph-name="Gcaron" unicode="&#x1e6;" horiz-adv-x="703" 
d="M473 705.5q38 -16.5 83 -48.5q13 -10 20 -10q19 0 25 61h23q-4 -65 -4 -230h-23q-9 53 -19 87.5t-31 60.5q-29 36 -75.5 57t-97.5 21q-66 0 -116 -43t-77 -122.5t-27 -185.5q0 -180 57.5 -263.5t180.5 -83.5q60 0 104 31q18 12 23.5 23.5t5.5 31.5v96q0 42 -8 61t-28 26
t-65 9v20q52 -3 141 -3q68 0 104 3v-20q-23 -2 -33.5 -8t-14 -23t-3.5 -55v-198h-20q-1 20 -8 38.5t-19 18.5q-6 0 -12 -3t-21 -14q-35 -27 -72.5 -40.5t-83.5 -13.5q-103 0 -176.5 42.5t-112.5 122.5t-39 191q0 114 41.5 200.5t114.5 133t166 46.5q59 0 97 -16.5zM554 912
q-64 -22 -113.5 -57.5t-73.5 -74.5h-18q-24 39 -73.5 74.5t-113.5 57.5l5 14q60 -13 118.5 -32t92.5 -38q28 19 75.5 38t95.5 32z" />
    <glyph glyph-name="gcaron" unicode="&#x1e7;" horiz-adv-x="528" 
d="M440.5 437q-12.5 12 -12.5 35q0 20 10 46q-26 -11 -41 -24.5t-27 -33.5q23 -35 23 -89q0 -79 -48 -118.5t-127 -39.5h-1q-33 -19 -50 -35t-17 -36q0 -32 48 -32h125q68 0 112.5 -29.5t44.5 -88.5q0 -48 -31 -89t-91 -66t-145 -25q-87 0 -145.5 26.5t-58.5 78.5
q0 34 27.5 59t76.5 39l6 -16q-22 -7 -35 -28t-13 -47q0 -46 41.5 -70.5t111.5 -24.5q77 0 132 29.5t55 91.5q0 36 -25.5 56t-90.5 20h-74q-59 0 -94.5 15t-35.5 60q0 31 22.5 59t74.5 55q-66 7 -105.5 46t-39.5 110q0 79 48 118.5t127 39.5q94 0 139 -52q19 27 48 44.5
t58 17.5q26 0 42 -15t16 -43t-15.5 -42t-34.5 -14q-18 0 -30.5 12zM278.5 262.5q20.5 31.5 20.5 108.5t-20.5 108.5t-60.5 31.5t-60.5 -31.5t-20.5 -108.5t20.5 -108.5t60.5 -31.5t60.5 31.5zM405 788q-57 -28 -101.5 -74.5t-65.5 -97.5h-18q-21 51 -65.5 97.5t-101.5 74.5
l8 14q54 -19 105.5 -46t82.5 -54q25 27 65.5 54t82.5 46z" />
    <glyph glyph-name="uni01E8" unicode="&#x1e8;" horiz-adv-x="655" 
d="M603.5 41.5q20.5 -14.5 50.5 -21.5v-20q-48 3 -120 3q-54 0 -103 -3v20q24 1 35 6t11 15t-10 24l-146 220q-29 44 -49 57.5t-56 15.5v-252q0 -38 6 -55t22.5 -23t52.5 -8v-20q-46 3 -127 3q-86 0 -128 -3v20q36 2 52.5 8t22.5 23t6 55v496q0 38 -6 55t-22.5 23t-52.5 8
v20q42 -3 128 -3q80 0 127 3v-20q-36 -2 -52.5 -8t-22.5 -23t-6 -55v-224q73 3 114 56l96 122q51 63 51 96q0 35 -62 36v20q57 -3 115 -3q55 0 85 3v-20q-33 -5 -62 -21.5t-56 -51.5l-163 -209l232 -325q17 -25 37.5 -39.5zM538 912q-64 -22 -113.5 -57.5t-73.5 -74.5h-18
q-24 39 -73.5 74.5t-113.5 57.5l5 14q60 -13 118.5 -32t92.5 -38q28 19 75.5 38t95.5 32z" />
    <glyph glyph-name="uni01E9" unicode="&#x1e9;" horiz-adv-x="550" 
d="M507 36q15 -12 36 -15v-21q-60 4 -81 4q-27 0 -111 -4v21q14 0 22.5 5.5t8.5 13.5t-6 15l-115 168q-17 25 -32.5 33.5t-42.5 10.5v-174q0 -41 14.5 -56.5t51.5 -15.5v-21q-84 4 -111 4q-29 0 -121 -4v21q42 0 59 15.5t17 56.5v571q0 46 -17 67t-59 21v21q32 -3 62 -3
q63 0 104 14v-496q29 4 48.5 13.5t37.5 27.5l74 77q32 33 32 55q0 17 -20.5 25.5t-53.5 8.5v20q70 -4 113 -4q47 0 87 4v-20q-49 -4 -90 -47l-122 -128l181 -247q19 -25 34 -37zM438 1032q-57 -28 -101.5 -74.5t-65.5 -97.5h-18q-21 51 -65.5 97.5t-101.5 74.5l8 14
q54 -19 105.5 -46t82.5 -54q25 27 65.5 54t82.5 46z" />
    <glyph glyph-name="uni01EE" unicode="&#x1ee;" horiz-adv-x="594" 
d="M499 313.5q52 -50.5 52 -126.5q0 -60 -33.5 -105.5t-92 -70.5t-131.5 -25q-53 0 -95 11.5t-66 25.5q-23 14 -33 14t-15 -10t-8 -34h-23q4 55 4 240h23q6 -100 58 -163.5t147 -63.5q84 0 127 50.5t43 129.5q0 84 -46 134.5t-124 69.5v20l173 275h-210q-62 0 -94.5 -17.5
t-47.5 -56.5t-22 -113h-23q3 32 3 76q0 63 -7 134q74 -3 249 -3q170 0 243 3v-20l-184 -296q81 -28 133 -78.5zM488 912q-64 -22 -113.5 -57.5t-73.5 -74.5h-18q-24 39 -73.5 74.5t-113.5 57.5l5 14q60 -13 118.5 -32t92.5 -38q28 19 75.5 38t95.5 32z" />
    <glyph glyph-name="uni01EF" unicode="&#x1ef;" horiz-adv-x="476" 
d="M271 171q41 -36 41 -103q0 -71 -39 -122.5t-102 -79t-134 -29.5v-18q88 0 173.5 31.5t141 88.5t55.5 129q0 62 -40 99.5t-102 48.5l174 304q-107 -5 -202 -5q-107 0 -186 4q4 -49 4 -180h23q7 86 39.5 123.5t99.5 37.5h110l-167 -291q70 -2 111 -38zM420 788
q-57 -28 -101.5 -74.5t-65.5 -97.5h-18q-21 51 -65.5 97.5t-101.5 74.5l8 14q54 -19 105.5 -46t82.5 -54q25 27 65.5 54t82.5 46z" />
    <glyph glyph-name="uni01F4" unicode="&#x1f4;" horiz-adv-x="703" 
d="M473 705.5q38 -16.5 83 -48.5q13 -10 20 -10q19 0 25 61h23q-4 -65 -4 -230h-23q-9 53 -19 87.5t-31 60.5q-29 36 -75.5 57t-97.5 21q-66 0 -116 -43t-77 -122.5t-27 -185.5q0 -180 57.5 -263.5t180.5 -83.5q60 0 104 31q18 12 23.5 23.5t5.5 31.5v96q0 42 -8 61t-28 26
t-65 9v20q52 -3 141 -3q68 0 104 3v-20q-23 -2 -33.5 -8t-14 -23t-3.5 -55v-198h-20q-1 20 -8 38.5t-19 18.5q-6 0 -12 -3t-21 -14q-35 -27 -72.5 -40.5t-83.5 -13.5q-103 0 -176.5 42.5t-112.5 122.5t-39 191q0 114 41.5 200.5t114.5 133t166 46.5q59 0 97 -16.5zM498 936
q19 0 31 -17q6 -9 6 -19q0 -22 -27 -39q-21 -13 -72 -32q-75 -30 -129 -57l-7 13q41 31 70.5 57.5t36.5 32.5q37 35 61 51q16 10 30 10z" />
    <glyph glyph-name="uni01F5" unicode="&#x1f5;" horiz-adv-x="528" 
d="M440.5 437q-12.5 12 -12.5 35q0 20 10 46q-26 -11 -41 -24.5t-27 -33.5q23 -35 23 -89q0 -79 -48 -118.5t-127 -39.5h-1q-33 -19 -50 -35t-17 -36q0 -32 48 -32h125q68 0 112.5 -29.5t44.5 -88.5q0 -48 -31 -89t-91 -66t-145 -25q-87 0 -145.5 26.5t-58.5 78.5
q0 34 27.5 59t76.5 39l6 -16q-22 -7 -35 -28t-13 -47q0 -46 41.5 -70.5t111.5 -24.5q77 0 132 29.5t55 91.5q0 36 -25.5 56t-90.5 20h-74q-59 0 -94.5 15t-35.5 60q0 31 22.5 59t74.5 55q-66 7 -105.5 46t-39.5 110q0 79 48 118.5t127 39.5q94 0 139 -52q19 27 48 44.5
t58 17.5q26 0 42 -15t16 -43t-15.5 -42t-34.5 -14q-18 0 -30.5 12zM278.5 262.5q20.5 31.5 20.5 108.5t-20.5 108.5t-60.5 31.5t-60.5 -31.5t-20.5 -108.5t20.5 -108.5t60.5 -31.5t60.5 31.5zM360 785q0 -15 -14 -34q-20 -25 -57 -55q-7 -6 -36.5 -33.5t-64.5 -63.5l-11 9
q37 59 69 121q23 46 40 69q16 22 38 22q14 0 22 -7q14 -12 14 -28z" />
    <glyph glyph-name="Oslashacute" unicode="&#x1fe;" horiz-adv-x="741" 
d="M444 829q-75 -30 -129 -57l-7 13q41 31 70.5 57.5t36.5 32.5q37 35 61 51q16 10 30 10q19 0 31 -17q6 -9 6 -19q0 -22 -27 -39q-21 -13 -72 -32zM661 525.5q27 -72.5 27 -165.5q0 -110 -40.5 -195t-113 -132t-164.5 -47q-115 0 -194 62l-82 -121l-21 14l84 123
q-50 47 -77 119t-27 165q0 110 40.5 195t113 132t164.5 47q115 0 194 -62l78 113l19 -13l-79 -115q51 -47 78 -119.5zM254.5 659.5q-48.5 -44.5 -75 -124.5t-26.5 -183q0 -136 50 -230l321 487q-30 46 -70.5 70.5t-86.5 24.5q-64 0 -112.5 -44.5zM486.5 48.5
q48.5 44.5 75 124.5t26.5 183q0 137 -51 231l-319 -489q29 -45 69.5 -69.5t86.5 -24.5q64 0 112.5 44.5z" />
    <glyph glyph-name="oslashacute" unicode="&#x1ff;" horiz-adv-x="548" 
d="M327 696q-7 -6 -36.5 -33.5t-64.5 -63.5l-11 9q37 59 69 121q23 46 40 69q17 22 38 22q14 0 22 -7q14 -12 14 -28q0 -15 -14 -34q-20 -25 -57 -55zM432 468q69 -71 69 -211q0 -137 -62.5 -204t-164.5 -67q-83 0 -140 44l-70 -103l-21 14l72 106q-68 70 -68 210
q0 137 62.5 204.5t164.5 67.5q85 0 140 -45l71 103l19 -13zM179 447.5q-35 -61.5 -35 -190.5q0 -93 19 -153l211 333q-33 72 -100 72q-60 0 -95 -61.5zM369 67q35 61 35 190q0 93 -19 153l-210 -335q33 -69 99 -69q60 0 95 61z" />
    <glyph glyph-name="Scommaaccent" unicode="&#x218;" horiz-adv-x="540" 
d="M325.5 709.5q25.5 -9.5 52.5 -27.5q22 -14 34 -14q9 0 14 10.5t8 33.5h23q-5 -58 -5 -204h-23q-6 81 -46.5 136.5t-117.5 55.5q-54 0 -88 -32.5t-34 -83.5q0 -38 17.5 -66t44.5 -48t77 -51l29 -18q63 -39 99.5 -68.5t58.5 -67.5t22 -89q0 -91 -60 -140.5t-152 -49.5
q-48 0 -78.5 10t-58.5 27q-22 14 -34 14q-9 0 -14 -10.5t-8 -33.5h-23q4 55 4 240h23q7 -101 50 -164t132 -63q54 0 92 33.5t38 99.5q0 56 -37.5 95t-118.5 88q-59 36 -95.5 64t-59.5 67.5t-23 92.5q0 84 54 128.5t134 44.5q44 0 69.5 -9.5zM326 -89q18 -20 18 -50
q0 -38 -18 -61.5t-64 -40.5l-7 18q26 8 44.5 24.5t17.5 38.5q-18 -16 -42 -16q-23 0 -37.5 14.5t-14.5 39.5q0 22 16.5 37.5t39.5 15.5q29 0 47 -20z" />
    <glyph glyph-name="scommaaccent" unicode="&#x219;" horiz-adv-x="447" 
d="M272 518q28 -11 45 -26q11 -8 18 -8q18 0 22 44h23q-4 -49 -4 -170h-23q-11 66 -42.5 109t-93.5 43q-36 0 -59 -20.5t-23 -56.5q0 -35 24 -58.5t77 -56.5q9 -5 27 -17q46 -30 74 -53t45.5 -53t17.5 -69q0 -66 -49.5 -103t-121.5 -37q-45 0 -79 14q-22 11 -41 27
q-4 4 -9 4q-7 0 -12.5 -10t-8.5 -28h-23q4 57 4 200h23q11 -94 40 -140.5t99 -46.5q35 0 62 23t27 72q0 39 -26.5 66t-86.5 65q-49 31 -75.5 51t-44.5 49t-18 68q0 63 42 96t106 33q36 0 64 -11zM269 -89q18 -20 18 -50q0 -38 -18 -61.5t-64 -40.5l-7 18q26 8 44.5 24.5
t17.5 38.5q-18 -16 -42 -16q-23 0 -37.5 14.5t-14.5 39.5q0 22 16.5 37.5t39.5 15.5q29 0 47 -20z" />
    <glyph glyph-name="uni021A" unicode="&#x21a;" horiz-adv-x="621" 
d="M585 580q0 -50 3 -82h-23q-8 77 -20 114.5t-42 55t-92 17.5h-54v-569q0 -42 8 -61t28 -26t65 -9v-20q-52 3 -147 3q-100 0 -148 -3v20q45 2 65 9t28 26t8 61v569h-54q-62 0 -92 -17.5t-42 -55t-20 -114.5h-23q3 32 3 82q0 57 -7 128q83 -3 282 -3q198 0 281 3
q-7 -71 -7 -128zM351 -89q18 -20 18 -50q0 -38 -18 -61.5t-64 -40.5l-7 18q26 8 44.5 24.5t17.5 38.5q-18 -16 -42 -16q-23 0 -37.5 14.5t-14.5 39.5q0 22 16.5 37.5t39.5 15.5q29 0 47 -20z" />
    <glyph glyph-name="uni021B" unicode="&#x21b;" horiz-adv-x="354" 
d="M190 514h148v-20h-148v-387q0 -45 16.5 -65t47.5 -20t53 25t37 82l20 -5q-25 -138 -130 -138q-34 0 -56 8t-39 25q-22 22 -30.5 54t-8.5 86v335h-96v20h96v153q56 2 90 14v-167zM274 -89q18 -20 18 -50q0 -38 -18 -61.5t-64 -40.5l-7 18q26 8 44.5 24.5t17.5 38.5
q-18 -16 -42 -16q-23 0 -37.5 14.5t-14.5 39.5q0 22 16.5 37.5t39.5 15.5q29 0 47 -20z" />
    <glyph glyph-name="uni021E" unicode="&#x21e;" horiz-adv-x="757" 
d="M662.5 680q-16.5 -6 -22.5 -23t-6 -55v-496q0 -38 6 -55t22.5 -23t52.5 -8v-20q-42 3 -128 3q-81 0 -127 -3v20q36 2 52.5 8t22.5 23t6 55v240h-325v-240q0 -38 6 -55t22.5 -23t52.5 -8v-20q-46 3 -127 3q-86 0 -128 -3v20q36 2 52.5 8t22.5 23t6 55v496q0 38 -6 55
t-22.5 23t-52.5 8v20q42 -3 128 -3q80 0 127 3v-20q-36 -2 -52.5 -8t-22.5 -23t-6 -55v-236h325v236q0 38 -6 55t-22.5 23t-52.5 8v20q46 -3 127 -3q86 0 128 3v-20q-36 -2 -52.5 -8zM574 912q-64 -22 -113.5 -57.5t-73.5 -74.5h-18q-24 39 -73.5 74.5t-113.5 57.5l5 14
q60 -13 118.5 -32t92.5 -38q28 19 75.5 38t95.5 32z" />
    <glyph glyph-name="uni021F" unicode="&#x21f;" horiz-adv-x="588" 
d="M186 409q25 63 69.5 91.5t100.5 28.5q70 0 106 -38q19 -20 27 -50t8 -81v-267q0 -41 17 -56.5t59 -15.5v-21q-92 4 -120 4t-112 -4v21q37 0 51.5 15.5t14.5 56.5v289q0 56 -16 85.5t-65 29.5q-41 0 -72.5 -23t-49.5 -64.5t-18 -93.5v-223q0 -41 14.5 -56.5t51.5 -15.5
v-21q-84 4 -112 4t-120 -4v21q42 0 59 15.5t17 56.5v570q0 46 -17 67t-59 21v21q32 -3 62 -3q63 0 104 14v-374zM454 1046q-57 -28 -101.5 -74.5t-65.5 -97.5h-18q-21 51 -65.5 97.5t-101.5 74.5l8 14q54 -19 105.5 -46t82.5 -54q25 27 65.5 54t82.5 46z" />
    <glyph glyph-name="uni0237" unicode="&#x237;" horiz-adv-x="267" 
d="M-26 -173q61 3 92.5 53t31.5 139v387q0 46 -17 67t-59 21v21q31 -3 62 -3q63 0 104 14v-411q0 -166 -72 -242q-27 -28 -63.5 -44.5t-78.5 -16.5v15z" />
    <glyph glyph-name="uni0259" unicode="&#x259;" horiz-adv-x="506" 
d="M353 495.5q52 -32.5 79.5 -91t27.5 -135.5q0 -87 -28 -151t-79 -98.5t-119 -34.5q-90 0 -138.5 54.5t-48.5 165.5h313q3 29 3 64q0 66 -21.5 115t-57 75.5t-74.5 26.5q-48 0 -85 -23t-62 -77l-20 8q18 55 67.5 94.5t119.5 39.5q71 0 123 -32.5zM319 50q34 46 42 136h-218
q-2 -78 22.5 -130t72.5 -52q47 0 81 46z" />
    <glyph glyph-name="uni0292" unicode="&#x292;" horiz-adv-x="476" 
d="M271 171q41 -36 41 -103q0 -71 -39 -122.5t-102 -79t-134 -29.5v-18q88 0 173.5 31.5t141 88.5t55.5 129q0 62 -40 99.5t-102 48.5l174 304q-107 -5 -202 -5q-107 0 -186 4q4 -49 4 -180h23q7 86 39.5 123.5t99.5 37.5h110l-167 -291q70 -2 111 -38z" />
    <glyph glyph-name="uni02BC" unicode="&#x2bc;" horiz-adv-x="245" 
d="M177 690q17 -27 17 -66q0 -50 -25.5 -90t-77.5 -64l-9 18q31 13 53.5 41t22.5 57q0 12 -3 21q-16 -13 -37 -13q-27 0 -45.5 17.5t-18.5 46.5q0 27 18.5 45.5t45.5 18.5q39 0 59 -32z" />
    <glyph glyph-name="circumflex" unicode="&#x2c6;" horiz-adv-x="452" 
d="M300.5 704.5q44.5 -46.5 101.5 -74.5l-8 -14q-54 19 -105.5 46t-82.5 54q-25 -27 -65.5 -54t-82.5 -46l-8 14q57 28 101.5 74.5t65.5 97.5h18q21 -51 65.5 -97.5z" />
    <glyph glyph-name="caron" unicode="&#x2c7;" horiz-adv-x="452" 
d="M402 788q-57 -28 -101.5 -74.5t-65.5 -97.5h-18q-21 51 -65.5 97.5t-101.5 74.5l8 14q54 -19 105.5 -46t82.5 -54q25 27 65.5 54t82.5 46z" />
    <glyph glyph-name="breve" unicode="&#x2d8;" horiz-adv-x="458" 
d="M408 779q-25 -60 -70.5 -103t-108.5 -43t-108.5 43t-70.5 103l17 9q58 -96 162 -96t162 96z" />
    <glyph glyph-name="dotaccent" unicode="&#x2d9;" horiz-adv-x="228" 
d="M159 746q19 -19 19 -45t-19 -45t-45 -19t-45 19t-19 45t19 45t45 19t45 -19z" />
    <glyph glyph-name="ring" unicode="&#x2da;" horiz-adv-x="293" 
d="M214.5 766q28.5 -25 28.5 -66t-28.5 -66.5t-68.5 -25.5t-68 25.5t-28 66.5t28 66t68 25t68.5 -25zM99 750.5q-21 -19.5 -21 -51.5q0 -33 20.5 -51.5t47.5 -18.5t48 18.5t21 51.5t-21 52t-48 19q-26 0 -47 -19.5z" />
    <glyph glyph-name="ogonek" unicode="&#x2db;" horiz-adv-x="292" 
d="M210 -2q-87 -37 -87 -94q0 -20 11.5 -32t31.5 -12q18 0 34.5 9.5t26.5 23.5l15 -13q-45 -68 -113 -68q-36 0 -57.5 18t-21.5 47q0 39 36 71.5t102 54.5h32q-3 -3 -10 -5z" />
    <glyph glyph-name="tilde" unicode="&#x2dc;" horiz-adv-x="461" 
d="M213 758.5q19 -9.5 40 -26.5q20 -15 34.5 -22.5t32.5 -7.5q45 0 77 53l14 -7q-15 -53 -46.5 -78t-71.5 -25q-26 0 -44 9t-41 27q-21 16 -35 23.5t-32 7.5q-44 0 -77 -54l-14 7q15 53 46.5 78t72.5 25q25 0 44 -9.5z" />
    <glyph glyph-name="hungarumlaut" unicode="&#x2dd;" horiz-adv-x="600" 
d="M208 785q0 -15 -14 -34q-20 -25 -57 -55q-7 -6 -36.5 -33.5t-64.5 -63.5l-11 9q37 59 69 121q23 46 40 69q17 22 38 22q14 0 22 -7q14 -12 14 -28zM386 785q0 -15 -14 -34q-20 -25 -57 -55q-7 -6 -36.5 -33.5t-64.5 -63.5l-11 9q37 59 69 121q23 46 40 69q16 22 38 22
q14 0 22 -7q14 -12 14 -28z" />
    <glyph glyph-name="gravecomb" unicode="&#x300;" 
d="M-167 820q21 0 38 -22q17 -23 40 -69q32 -62 69 -121l-11 -9q-35 36 -64.5 63.5t-36.5 33.5q-37 30 -57 55q-14 19 -14 34q0 16 14 28q8 7 22 7z" />
    <glyph glyph-name="acutecomb" unicode="&#x301;" 
d="M-20 785q0 -15 -14 -34q-20 -25 -57 -55q-7 -6 -36.5 -33.5t-64.5 -63.5l-11 9q37 59 69 121q23 46 40 69q16 22 38 22q14 0 22 -7q14 -12 14 -28z" />
    <glyph glyph-name="uni0302" unicode="&#x302;" 
d="M-126.5 704.5q44.5 -46.5 101.5 -74.5l-8 -14q-54 19 -105.5 46t-82.5 54q-25 -27 -65.5 -54t-82.5 -46l-8 14q57 28 101.5 74.5t65.5 97.5h18q21 -51 65.5 -97.5z" />
    <glyph glyph-name="tildecomb" unicode="&#x303;" 
d="M-223 758.5q19 -9.5 40 -26.5q20 -15 34.5 -22.5t32.5 -7.5q45 0 77 53l14 -7q-15 -53 -46.5 -78t-71.5 -25q-26 0 -44 9t-41 27q-21 16 -35 23.5t-32 7.5q-44 0 -77 -54l-14 7q15 53 46.5 78t72.5 25q25 0 44 -9.5z" />
    <glyph glyph-name="uni0304" unicode="&#x304;" 
d="M-25 687h-312v25h312v-25z" />
    <glyph glyph-name="uni0306" unicode="&#x306;" 
d="M-35 779q-25 -60 -70.5 -103t-108.5 -43t-108.5 43t-70.5 103l17 9q58 -96 162 -96t162 96z" />
    <glyph glyph-name="uni0307" unicode="&#x307;" 
d="M-54 746q19 -19 19 -45t-19 -45t-45 -19t-45 19t-19 45t19 45t45 19t45 -19z" />
    <glyph glyph-name="uni0308" unicode="&#x308;" 
d="M-260.5 725.5q17.5 -17.5 17.5 -40.5q0 -24 -17.5 -41t-40.5 -17q-24 0 -41 17t-17 41q0 23 17 40.5t41 17.5q23 0 40.5 -17.5zM-48.5 725.5q17.5 -17.5 17.5 -40.5q0 -24 -17.5 -41t-40.5 -17q-24 0 -41 17t-17 41q0 23 17 40.5t41 17.5q23 0 40.5 -17.5z" />
    <glyph glyph-name="hookabovecomb" unicode="&#x309;" 
d="M-180 647q40 16 58 37t18 51q0 29 -16.5 47t-45.5 18q-32 0 -46 -16q15 -3 23.5 -13.5t8.5 -27.5q0 -20 -13 -32t-32 -12t-31 11.5t-12 30.5q0 18 11 33.5t28 25.5q33 20 82 20q48 0 80 -21.5t32 -58.5t-34.5 -63t-90.5 -39v-46h-20v55z" />
    <glyph glyph-name="uni030A" unicode="&#x30a;" 
d="M-63.5 766q28.5 -25 28.5 -66t-28.5 -66.5t-68.5 -25.5t-68 25.5t-28 66.5t28 66t68 25t68.5 -25zM-179 750.5q-21 -19.5 -21 -51.5q0 -33 20.5 -51.5t47.5 -18.5t48 18.5t21 51.5t-21 52t-48 19q-26 0 -47 -19.5z" />
    <glyph glyph-name="uni030B" unicode="&#x30b;" 
d="M-203 785q0 -15 -14 -34q-20 -25 -57 -55q-7 -6 -36.5 -33.5t-64.5 -63.5l-11 9q37 59 69 121q23 46 40 69q17 22 38 22q14 0 22 -7q14 -12 14 -28zM-25 785q0 -15 -14 -34q-20 -25 -57 -55q-7 -6 -36.5 -33.5t-64.5 -63.5l-11 9q37 59 69 121q23 46 40 69q16 22 38 22
q14 0 22 -7q14 -12 14 -28z" />
    <glyph glyph-name="uni030C" unicode="&#x30c;" 
d="M-25 788q-57 -28 -101.5 -74.5t-65.5 -97.5h-18q-21 51 -65.5 97.5t-101.5 74.5l8 14q54 -19 105.5 -46t82.5 -54q25 27 65.5 54t82.5 46z" />
    <glyph glyph-name="dotbelowcomb" unicode="&#x323;" 
d="M-140 -165q-17 16 -17 40t16 40t42 16t42 -16.5t16 -40.5q0 -25 -17 -40t-41 -15t-41 16z" />
    <glyph glyph-name="uni0326" unicode="&#x326;" 
d="M-64 -89q18 -20 18 -50q0 -38 -18 -61.5t-64 -40.5l-7 18q26 8 44.5 24.5t17.5 38.5q-18 -16 -42 -16q-23 0 -37.5 14.5t-14.5 39.5q0 22 16.5 37.5t39.5 15.5q29 0 47 -20z" />
    <glyph glyph-name="uni0327" unicode="&#x327;" 
d="M-142 -72q30 7 59 7q28 0 44.5 -12.5t16.5 -34.5q0 -38 -35 -57t-78 -19q-50 0 -83 11l4 18q21 -3 38 -3q36 0 63 10.5t27 34.5q0 28 -42 28q-28 0 -49 -7l34 102h27z" />
    <glyph glyph-name="uni0328" unicode="&#x328;" 
d="M-58 -2q-87 -37 -87 -94q0 -20 11.5 -32t31.5 -12q18 0 34.5 9.5t26.5 23.5l15 -13q-45 -68 -113 -68q-36 0 -57.5 18t-21.5 47q0 39 36 71.5t102 54.5h32q-3 -3 -10 -5z" />
    <glyph glyph-name="uni0335" unicode="&#x335;" 
d="M-20 608h-354v20h354v-20z" />
    <glyph glyph-name="uni0337" unicode="&#x337;" 
d="M-42 574l-87 -128l-15 20l83 121zM-139 446l-240 -383l-16 21l241 382zM-389 63l-93 -136l-21 14l98 143z" />
    <glyph glyph-name="uni0338" unicode="&#x338;" 
d="M-79 760l-101 -148l-15 20l97 141zM-187 612l-350 -535l-18 18l353 537zM-545 77l-102 -150l-21 14l105 154z" />
    <glyph glyph-name="uni0394" unicode="&#x394;" horiz-adv-x="504" 
d="M470 0q-109 3 -220 3t-222 -3l233 722h16zM58 30h304l-140 512z" />
    <glyph glyph-name="uni03A9" unicode="&#x3a9;" horiz-adv-x="714" 
d="M570 656q75 -66 75 -184q0 -56 -16 -105t-40.5 -89t-67.5 -102q-64 -89 -98 -153h48q50 0 79 16t44 51.5t21 99.5h23q-3 -27 -3 -72q0 -52 7 -118q-29 3 -102 3l-79 -1q-38 -2 -63 -2v16q56 83 101.5 195.5t45.5 240.5q0 124 -44 188t-144 64t-144 -64t-44 -188
q0 -128 45.5 -240.5t101.5 -195.5v-16q-25 0 -63 2l-79 1q-73 0 -102 -3q7 66 7 118q0 45 -3 72h23q6 -64 21 -99.5t44 -51.5t79 -16h48q-34 64 -98 153q-43 62 -67.5 102t-40.5 89t-16 105q0 118 75 184t213 66t213 -66z" />
    <glyph glyph-name="uni03BC" unicode="&#x3bc;" horiz-adv-x="664" 
d="M632 220q-16 -84 -52 -159t-98 -75q-63 0 -63 89q0 23 3 45l1 10q-26 -62 -66.5 -103t-95.5 -41q-73 0 -79 92q-25 -147 -58 -227q-7 -17 -22 -28t-36 -11q-20 0 -30.5 10.5t-10.5 27.5q0 16 9 31.5t30 39.5l22 29q37 49 64 117.5t36 173.5l1 83q1 130 4 151
q4 29 19.5 41.5t35.5 12.5q38 0 38 -42q0 -14 -4.5 -27t-16.5 -37q-18 -37 -30.5 -70.5t-22.5 -85.5l-11 -99q3 -40 25 -57.5t54 -17.5q56 0 94 30.5t63 100.5l3 22l1 81q1 127 4 148q4 29 19.5 41.5t35.5 12.5q38 0 38 -42q0 -15 -5 -28.5t-17 -36.5q-18 -37 -31.5 -73
t-23.5 -91q-9 -64 -9 -99q0 -37 11 -51.5t38 -14.5q40 0 67.5 30.5t46.5 100.5z" />
    <glyph glyph-name="pi" unicode="&#x3c0;" horiz-adv-x="603" 
d="M362 168q-1 -6 -1 -17q0 -58 50 -58q40 0 67.5 30.5t46.5 100.5l19 -4q-16 -84 -52 -159t-98 -75q-63 0 -63 89q0 23 3 45l39 310h-109q-28 -276 -81 -405q-7 -17 -22 -28t-36 -11q-20 0 -30.5 10.5t-10.5 27.5t9.5 32t36.5 48q45 58 76 130.5t40 195.5h-37
q-44 0 -73.5 -10t-52.5 -40t-41 -87l-17 4q28 109 84.5 163t169.5 54h288v-84h-175z" />
    <glyph glyph-name="uni0400" unicode="&#x400;" horiz-adv-x="609" 
d="M561 0q-68 3 -229 3q-192 0 -290 -3v20q36 2 52.5 8t22.5 23t6 55v496q0 38 -6 55t-22.5 23t-52.5 8v20q98 -3 290 -3q147 0 209 3q-7 -66 -7 -118q0 -39 3 -62h-23q-7 65 -18 96.5t-37 46t-79 14.5h-83q-36 0 -52.5 -5.5t-22.5 -22.5t-6 -55v-236h66q35 0 54 16.5
t25.5 39t10.5 56.5l3 20h23q-3 -42 -3 -94v-48q0 -51 6 -142h-23q-1 7 -6 48.5t-27.5 62.5t-62.5 21h-66v-240q0 -38 6 -55t22.5 -22.5t52.5 -5.5h73q62 0 94.5 16.5t47.5 53t22 107.5h23q-3 -27 -3 -72q0 -57 7 -128zM265 875q7 -6 36.5 -32.5t70.5 -57.5l-7 -13
q-54 27 -129 57q-51 19 -72 32q-27 17 -27 39q0 10 6 19q12 17 31 17q14 0 30 -10q24 -16 61 -51z" />
    <glyph glyph-name="uni0401" unicode="&#x401;" horiz-adv-x="609" 
d="M561 0q-68 3 -229 3q-192 0 -290 -3v20q36 2 52.5 8t22.5 23t6 55v496q0 38 -6 55t-22.5 23t-52.5 8v20q98 -3 290 -3q147 0 209 3q-7 -66 -7 -118q0 -39 3 -62h-23q-7 65 -18 96.5t-37 46t-79 14.5h-83q-36 0 -52.5 -5.5t-22.5 -22.5t-6 -55v-236h66q35 0 54 16.5
t25.5 39t10.5 56.5l3 20h23q-3 -42 -3 -94v-48q0 -51 6 -142h-23q-1 7 -6 48.5t-27.5 62.5t-62.5 21h-66v-240q0 -38 6 -55t22.5 -22.5t52.5 -5.5h73q62 0 94.5 16.5t47.5 53t22 107.5h23q-3 -27 -3 -72q0 -57 7 -128zM240.5 870.5q17.5 -17.5 17.5 -40.5q0 -24 -17.5 -41
t-40.5 -17q-24 0 -41 17t-17 41q0 23 17 40.5t41 17.5q23 0 40.5 -17.5zM452.5 870.5q17.5 -17.5 17.5 -40.5q0 -24 -17.5 -41t-40.5 -17q-24 0 -41 17t-17 41q0 23 17 40.5t41 17.5q23 0 40.5 -17.5z" />
    <glyph glyph-name="uni0402" unicode="&#x402;" horiz-adv-x="781" 
d="M691 362.5q57 -53.5 57 -157.5q0 -73 -29.5 -122.5t-77.5 -73t-105 -23.5q-52 0 -90.5 22t-38.5 64q0 24 14 39t38 15q23 0 38 -13t15 -36q0 -39 -43 -52q3 -10 18.5 -17t36.5 -7q65 0 96 49t31 146q0 92 -31 140t-116 48q-45 0 -85.5 -15.5t-61.5 -40.5v-339
q-49 14 -132 14q-30 0 -62 -3v20q45 2 65 9t28 26t8 61v569h-54q-62 0 -92 -17.5t-42 -55t-20 -114.5h-23q3 32 3 82q0 57 -7 128q83 -3 282 -3q198 0 281 3q-7 -71 -7 -128q0 -50 3 -82h-23q-8 77 -20 114.5t-42 55t-92 17.5h-54v-336q30 29 78.5 48t103.5 19
q95 0 152 -53.5z" />
    <glyph glyph-name="uni0403" unicode="&#x403;" horiz-adv-x="528" 
d="M494 580q0 -50 3 -82h-23q-8 77 -20 114.5t-42 55t-92 17.5h-23q-36 0 -52.5 -5.5t-22.5 -22.5t-6 -55v-496q0 -38 8 -55t28 -23t65 -8v-20q-52 3 -147 3q-86 0 -128 -3v20q36 2 52.5 8t22.5 23t6 55v496q0 38 -6 55t-22.5 23t-52.5 8v20q98 -3 290 -3q119 0 169 3
q-7 -71 -7 -128zM389 936q19 0 31 -17q6 -9 6 -19q0 -22 -27 -39q-21 -13 -72 -32q-75 -30 -129 -57l-7 13q41 31 70.5 57.5t36.5 32.5q37 35 61 51q16 10 30 10z" />
    <glyph glyph-name="uni0404" unicode="&#x404;" horiz-adv-x="691" 
d="M619 240q0 -172 4 -240h-23q-3 32 -8.5 45.5t-15.5 13.5q-8 0 -21 -8q-45 -32 -86 -48.5t-99 -16.5q-95 0 -166.5 43t-111 124.5t-39.5 194.5q0 110 40.5 195t113 132t164.5 47q60 0 102 -17t82 -48q11 -9 19 -9q20 0 26 60h23q-4 -65 -4 -230h-23q-11 65 -20 93.5
t-30 54.5q-30 39 -76.5 58.5t-100.5 19.5q-65 0 -113.5 -43t-75.5 -122.5t-27 -186.5v-3q17 35 48 53.5t70 18.5q29 0 53 -9.5t58 -29.5q31 -19 53.5 -28t48.5 -9q28 0 50.5 14t31.5 42l15 -7q-13 -50 -50 -76.5t-86 -26.5q-31 0 -55 10t-58 29q-30 18 -52.5 27.5t-49.5 9.5
q-53 0 -76 -44q4 -100 34 -171.5t79.5 -108.5t111.5 -37q50 0 97 19t74 57q20 28 29 60t17 98h23z" />
    <glyph glyph-name="uni0405" unicode="&#x405;" horiz-adv-x="540" 
d="M325.5 709.5q25.5 -9.5 52.5 -27.5q22 -14 34 -14q9 0 14 10.5t8 33.5h23q-5 -58 -5 -204h-23q-6 81 -46.5 136.5t-117.5 55.5q-54 0 -88 -32.5t-34 -83.5q0 -38 17.5 -66t44.5 -48t77 -51l29 -18q63 -39 99.5 -68.5t58.5 -67.5t22 -89q0 -91 -60 -140.5t-152 -49.5
q-48 0 -78.5 10t-58.5 27q-22 14 -34 14q-9 0 -14 -10.5t-8 -33.5h-23q4 55 4 240h23q7 -101 50 -164t132 -63q54 0 92 33.5t38 99.5q0 56 -37.5 95t-118.5 88q-59 36 -95.5 64t-59.5 67.5t-23 92.5q0 84 54 128.5t134 44.5q44 0 69.5 -9.5z" />
    <glyph glyph-name="uni0406" unicode="&#x406;" horiz-adv-x="339" 
d="M297 688q-36 -2 -52.5 -8t-22.5 -23t-6 -55v-496q0 -38 6 -55t22.5 -23t52.5 -8v-20q-46 3 -127 3q-86 0 -128 -3v20q36 2 52.5 8t22.5 23t6 55v496q0 38 -6 55t-22.5 23t-52.5 8v20q42 -3 128 -3q80 0 127 3v-20z" />
    <glyph glyph-name="uni0407" unicode="&#x407;" horiz-adv-x="339" 
d="M297 688q-36 -2 -52.5 -8t-22.5 -23t-6 -55v-496q0 -38 6 -55t22.5 -23t52.5 -8v-20q-46 3 -127 3q-86 0 -128 -3v20q36 2 52.5 8t22.5 23t6 55v496q0 38 -6 55t-22.5 23t-52.5 8v20q42 -3 128 -3q80 0 127 3v-20zM104.5 870.5q17.5 -17.5 17.5 -40.5q0 -24 -17.5 -41
t-40.5 -17q-24 0 -41 17t-17 41q0 23 17 40.5t41 17.5q23 0 40.5 -17.5zM316.5 870.5q17.5 -17.5 17.5 -40.5q0 -24 -17.5 -41t-40.5 -17q-24 0 -41 17t-17 41q0 23 17 40.5t41 17.5q23 0 40.5 -17.5z" />
    <glyph glyph-name="uni0408" unicode="&#x408;" horiz-adv-x="326" 
d="M-20 -169q70 2 103.5 52t33.5 169v550q0 38 -6 55t-22.5 23t-52.5 8v20q42 -3 126 -3q82 0 129 3v-20q-36 -2 -52.5 -8t-22.5 -23t-6 -55v-366q0 -85 -3 -150.5t-14 -110.5q-18 -73 -73.5 -118t-139.5 -45v19z" />
    <glyph glyph-name="uni0409" unicode="&#x409;" horiz-adv-x="928" 
d="M840 57q-58 -54 -194 -57h-1h-10q-13 0 -55 2q-19 1 -62 1q-94 0 -147 -3v20q45 2 65 8t28 23t8 55v496q0 38 -6 55.5t-23 24t-52 6.5h-13q-36 0 -51.5 -6.5t-21 -23t-8.5 -56.5q-3 -31 -7 -97q-10 -158 -25.5 -262.5t-57.5 -180.5t-119 -76q-38 0 -64.5 16.5t-26.5 51.5
q0 26 16.5 41.5t42.5 15.5q22 0 36.5 -12t14.5 -32q0 -21 -10 -34.5t-33 -26.5q9 -1 24 -1q71 0 109 85t52 201.5t25 310.5q1 8 1 22q0 26 -7 39t-24 18t-51 7v20q42 -3 103 -3q15 0 45 2l43 1l67 -1q46 -2 76 -2q77 0 119 3v-20q-36 -2 -52.5 -8t-22.5 -23t-6 -55v-231
q29 1 92 1q117 0 179 -50t62 -131q0 -80 -58 -134zM765 67.5q33 44.5 33 122.5q0 85 -40 124t-135 39q-35 0 -58 -1v-246q0 -37 6 -54t22 -23.5t50 -8.5q89 3 122 47.5z" />
    <glyph glyph-name="uni040A" unicode="&#x40a;" horiz-adv-x="997" 
d="M909 57q-58 -54 -194 -57h-1h-10q-13 0 -55 2q-19 1 -62 1q-81 0 -127 -3v20q36 2 52.5 8t22.5 23t6 55v240h-325v-240q0 -38 6 -55t22.5 -23t52.5 -8v-20q-46 3 -127 3q-86 0 -128 -3v20q36 2 52.5 8t22.5 23t6 55v496q0 38 -6 55t-22.5 23t-52.5 8v20q42 -3 128 -3
q80 0 127 3v-20q-36 -2 -52.5 -8t-22.5 -23t-6 -55v-236h325v236q0 38 -6 55t-22.5 23t-52.5 8v20q46 -3 127 -3q86 0 128 3v-20q-36 -2 -52.5 -8t-22.5 -23t-6 -55v-231l92 1q117 0 179 -50t62 -131q0 -80 -58 -134zM834 67.5q33 44.5 33 122.5q0 85 -40 124t-135 39
q-35 0 -58 -1v-246q0 -37 6 -54t22 -23.5t50 -8.5q89 3 122 47.5z" />
    <glyph glyph-name="uni040B" unicode="&#x40b;" horiz-adv-x="814" 
d="M738 36.5q17 -15.5 59 -15.5v-21q-92 4 -123 4q-28 0 -112 -4v21q37 0 51.5 15.5t14.5 56.5v186q0 37 -8 61t-33 39t-74 15q-95 0 -156 -22v-256q0 -42 8 -61t28 -26t65 -9v-20q-52 3 -147 3q-100 0 -148 -3v20q45 2 65 9t28 26t8 61v569h-54q-62 0 -92 -17.5t-42 -55
t-20 -114.5h-23q3 32 3 82q0 57 -7 128q83 -3 282 -3q198 0 281 3q-7 -71 -7 -128q0 -50 3 -82h-23q-8 77 -20 114.5t-42 55t-92 17.5h-54v-296q31 15 84.5 26t103.5 11q81 0 128 -35q27 -21 37.5 -50.5t10.5 -83.5v-164q0 -41 17 -56.5z" />
    <glyph glyph-name="uni040C" unicode="&#x40c;" horiz-adv-x="678" 
d="M488 936q19 0 31 -17q6 -9 6 -19q0 -22 -27 -39q-21 -13 -72 -32q-75 -30 -129 -57l-7 13q41 31 70.5 57.5t36.5 32.5q37 35 61 51q16 10 30 10zM660 50q-22 -33 -45 -48.5t-62 -15.5q-40 0 -66.5 23t-40.5 85l-28 124q-12 51 -23.5 78.5t-38 44t-74.5 16.5h-66v-251
q0 -38 6 -55t22.5 -23t52.5 -8v-20q-46 3 -127 3q-86 0 -128 -3v20q36 2 52.5 8t22.5 23t6 55v496q0 38 -6 55t-22.5 23t-52.5 8v20q42 -3 128 -3q80 0 127 3v-20q-36 -2 -52.5 -8t-22.5 -23t-6 -55v-226q74 1 118 58l96 122q51 63 51 96q0 35 -62 36v20q57 -3 115 -3
q55 0 85 3v-20q-68 -10 -118 -73l-188 -240q80 -3 130.5 -34.5t68.5 -109.5l29 -126q11 -48 20.5 -65t28.5 -17q17 0 28.5 9t26.5 29z" />
    <glyph glyph-name="uni040D" unicode="&#x40d;" horiz-adv-x="777" 
d="M682.5 680q-16.5 -6 -22.5 -23t-6 -55v-496q0 -38 6 -55t22.5 -23t52.5 -8v-20q-42 3 -128 3q-80 0 -127 -3v20q36 2 52.5 8t22.5 23t6 55v473l-345 -489q1 -29 8 -43.5t23 -19.5t50 -7v-20q-46 3 -127 3q-86 0 -128 -3v20q36 2 52.5 8t22.5 23t6 55v496q0 38 -6 55
t-22.5 23t-52.5 8v20q42 -3 128 -3q80 0 127 3v-20q-36 -2 -52.5 -8t-22.5 -23t-6 -55v-473l345 489q-1 29 -8 43.5t-23 19.5t-50 7v20q47 -3 127 -3q86 0 128 3v-20q-36 -2 -52.5 -8zM349 875q7 -6 36.5 -32.5t70.5 -57.5l-7 -13q-54 27 -129 57q-51 19 -72 32
q-27 17 -27 39q0 10 6 19q12 17 31 17q14 0 30 -10q24 -16 61 -51z" />
    <glyph glyph-name="uni040E" unicode="&#x40e;" horiz-adv-x="647" 
d="M656 708v-20q-20 -5 -39 -25.5t-41 -63.5l-218 -434l-41 -83q-22 -45 -44 -67q-15 -15 -35 -22t-40 -7q-31 0 -50.5 16t-19.5 44q0 24 15 38.5t38 14.5q22 0 36.5 -12.5t14.5 -34.5q0 -15 -7.5 -26.5t-19.5 -18.5q2 -1 6 -1q26 0 46.5 19t39.5 58l27 56l-268 492
q-18 33 -31.5 44.5t-26.5 11.5v21q39 -3 88 -3q97 0 140 3v-21q-70 0 -70 -38q0 -15 10 -35l204 -380l157 315q27 53 27 86q0 28 -22 40t-66 13v20q57 -3 115 -3q45 0 75 3zM522.5 928q14.5 -15 14.5 -40q0 -21 -11.5 -37t-36.5 -31q-63 -38 -156 -38t-156 38
q-25 15 -36.5 31t-11.5 37q0 25 14.5 40t38.5 15t39.5 -14.5t15.5 -39.5q0 -21 -11.5 -34t-30.5 -17q21 -20 60 -28t78 -8t78 8t60 28q-19 4 -30.5 17t-11.5 34q0 25 16 39.5t39 14.5q24 0 38.5 -15z" />
    <glyph glyph-name="uni040F" unicode="&#x40f;" horiz-adv-x="757" 
d="M662.5 680q-16.5 -6 -22.5 -23t-6 -55v-496q0 -38 6 -55t22.5 -23t52.5 -8v-20q-42 3 -128 3q-54 0 -80 -1h1q-44 0 -66.5 -15.5t-32 -48.5t-15.5 -98h-23q-6 65 -15.5 98t-32 48.5t-66.5 15.5h1q-29 1 -88 1q-86 0 -128 -3v20q36 2 52.5 8t22.5 23t6 55v496q0 38 -6 55
t-22.5 23t-52.5 8v20q42 -3 128 -3q80 0 127 3v-20q-36 -2 -52.5 -8t-22.5 -23t-6 -55v-496q0 -38 6 -55.5t23 -24t52 -6.5h163q35 0 52 6.5t23 24t6 55.5v496q0 38 -6 55t-22.5 23t-52.5 8v20q46 -3 127 -3q86 0 128 3v-20q-36 -2 -52.5 -8z" />
    <glyph glyph-name="uni0410" unicode="&#x410;" horiz-adv-x="630" 
d="M636 20v-20q-40 3 -107 3q-86 0 -128 -3v20q38 2 54.5 9.5t16.5 27.5q0 17 -12 47l-61 164h-242l-41 -106q-20 -54 -20 -82q0 -31 21.5 -45t65.5 -15v-20q-57 3 -115 3q-45 0 -75 -3v20q50 12 79 87l235 606h16l244 -629q24 -62 69 -64zM391 288l-112 299l-114 -299h226z
" />
    <glyph glyph-name="uni0411" unicode="&#x411;" horiz-adv-x="596" 
d="M487 363.5q62 -57.5 62 -152.5q0 -90 -60.5 -150.5t-202.5 -60.5l-43 1q-42 2 -83 2q-76 0 -118 -3v20q36 2 52.5 8t22.5 23t6 55v496q0 38 -6 55t-22.5 23t-52.5 8v20q98 -3 290 -3q126 0 179 3q-7 -66 -7 -118q0 -39 3 -62h-23q-7 65 -18 96.5t-37 46t-79 14.5h-53
q-36 0 -52.5 -5.5t-22.5 -22.5t-6 -55v-183l92 2q117 0 179 -57.5zM413.5 70q35.5 50 35.5 140q0 101 -40 146.5t-135 45.5q-35 0 -58 -1v-295q0 -37 5 -55t18.5 -24.5t43.5 -6.5q95 0 130.5 50z" />
    <glyph glyph-name="uni0412" unicode="&#x412;" horiz-adv-x="623" 
d="M531 310.5q47 -48.5 47 -116.5q0 -57 -29 -101t-83 -68.5t-128 -24.5q-27 0 -46 1q-64 2 -126 2q-82 0 -124 -3v20q36 2 52.5 8t22.5 23t6 55v496q0 38 -6 55t-22.5 23t-52.5 8v20q42 -3 122 -3l108 1q19 1 43 1q102 0 156.5 -43t54.5 -114q0 -58 -36.5 -104t-115.5 -70
v-2q110 -15 157 -63.5zM243.5 681q-15.5 -7 -21.5 -25t-6 -54v-226h67q82 0 114.5 44.5t32.5 118.5q0 75 -33 112t-107 37q-31 0 -46.5 -7zM478 198q0 79 -42.5 120t-135.5 41h-84v-253q0 -36 6 -53t21.5 -23.5t47.5 -6.5q187 0 187 175z" />
    <glyph glyph-name="uni0413" unicode="&#x413;" horiz-adv-x="528" 
d="M494 580q0 -50 3 -82h-23q-8 77 -20 114.5t-42 55t-92 17.5h-23q-36 0 -52.5 -5.5t-22.5 -22.5t-6 -55v-496q0 -38 8 -55t28 -23t65 -8v-20q-52 3 -147 3q-86 0 -128 -3v20q36 2 52.5 8t22.5 23t6 55v496q0 38 -6 55t-22.5 23t-52.5 8v20q98 -3 290 -3q119 0 169 3
q-7 -71 -7 -128z" />
    <glyph glyph-name="uni0414" unicode="&#x414;" horiz-adv-x="629" 
d="M603 -98q0 -40 3 -62h-23q-7 65 -18 97.5t-37.5 47.5t-78.5 15h-285q-52 0 -78.5 -15t-37.5 -47.5t-18 -97.5h-23q3 22 3 62q0 52 -7 118h18q71 0 109 83.5t52 197t25 301.5q2 36 -3.5 53.5t-22.5 24t-55 8.5v20q42 -3 103 -3q15 0 45 2l43 1l67 -1q46 -2 76 -2
q77 0 119 3v-20q-36 -2 -52.5 -8t-22.5 -23t-6 -55v-496q0 -38 6 -55.5t23 -24t52 -6.5h31q-7 -66 -7 -118zM405 602q0 38 -6 55.5t-23 24t-52 6.5h-13q-36 0 -51.5 -6.5t-20.5 -23t-9 -56.5l-8 -98q-9 -130 -20 -216.5t-38 -161.5t-76 -106h236q35 0 52 6.5t23 24t6 55.5
v496z" />
    <glyph glyph-name="uni0415" unicode="&#x415;" horiz-adv-x="609" 
d="M561 0q-68 3 -229 3q-192 0 -290 -3v20q36 2 52.5 8t22.5 23t6 55v496q0 38 -6 55t-22.5 23t-52.5 8v20q98 -3 290 -3q147 0 209 3q-7 -66 -7 -118q0 -39 3 -62h-23q-7 65 -18 96.5t-37 46t-79 14.5h-83q-36 0 -52.5 -5.5t-22.5 -22.5t-6 -55v-236h66q35 0 54 16.5
t25.5 39t10.5 56.5l3 20h23q-3 -42 -3 -94v-48q0 -51 6 -142h-23q-1 7 -6 48.5t-27.5 62.5t-62.5 21h-66v-240q0 -38 6 -55t22.5 -22.5t52.5 -5.5h73q62 0 94.5 16.5t47.5 53t22 107.5h23q-3 -27 -3 -72q0 -57 7 -128z" />
    <glyph glyph-name="uni0416" unicode="&#x416;" horiz-adv-x="983" 
d="M982 50q-22 -33 -45 -48.5t-62 -15.5q-40 0 -66.5 23t-40.5 85l-28 124q-12 51 -23.5 78.5t-38 44t-74.5 16.5h-66v-251q0 -38 6 -55t22.5 -23t52.5 -8v-20q-42 3 -128 3q-80 0 -127 -3v20q36 2 52.5 8t22.5 23t6 55v251h-66q-48 0 -74.5 -16.5t-38 -44t-23.5 -78.5
l-28 -124q-14 -62 -40.5 -85t-66.5 -23q-39 0 -62 15.5t-45 48.5l15 11q15 -20 26.5 -29t28.5 -9q19 0 28.5 17t20.5 65l29 126q18 78 68.5 109.5t130.5 34.5l-188 240q-50 63 -118 73v20q30 -3 85 -3q58 0 115 3v-20q-62 -1 -62 -36q0 -33 51 -96l96 -122q44 -57 118 -58
v226q0 38 -6 55t-22.5 23t-52.5 8v20q47 -3 127 -3q86 0 128 3v-20q-36 -2 -52.5 -8t-22.5 -23t-6 -55v-226q74 1 118 58l96 122q51 63 51 96q0 35 -62 36v20q57 -3 115 -3q55 0 85 3v-20q-68 -10 -118 -73l-188 -240q80 -3 130.5 -34.5t68.5 -109.5l29 -126
q11 -48 20.5 -65t28.5 -17q17 0 28.5 9t26.5 29z" />
    <glyph glyph-name="uni0417" unicode="&#x417;" horiz-adv-x="549" 
d="M412 681.5q55 -40.5 55 -108.5q0 -77 -61.5 -127.5t-141.5 -70.5q60 -1 115.5 -22.5t90.5 -62.5t35 -99q0 -64 -38 -110.5t-101 -70.5t-136 -24q-89 0 -148 36q-47 30 -47 71q0 23 15 38t38 15q24 0 39.5 -14.5t15.5 -39.5q0 -21 -11.5 -34t-30.5 -17q11 -15 50 -26.5
t82 -11.5q86 0 129.5 49t43.5 129t-41.5 131.5t-116.5 53.5q-24 -13 -43 -13q-9 0 -15 4.5t-6 12.5q0 7 6 11.5t15 4.5q16 0 44 -6q66 22 92 64.5t26 116.5q0 71 -26 106.5t-85 35.5q-72 0 -113 -56.5t-46 -135.5h-23q0 146 -5 204h23q3 -24 8 -34t15 -10q11 0 33 14
q4 3 21.5 13.5t42 17t56.5 6.5q89 0 144 -40.5z" />
    <glyph glyph-name="uni0418" unicode="&#x418;" horiz-adv-x="777" 
d="M682.5 680q-16.5 -6 -22.5 -23t-6 -55v-496q0 -38 6 -55t22.5 -23t52.5 -8v-20q-42 3 -128 3q-80 0 -127 -3v20q36 2 52.5 8t22.5 23t6 55v473l-345 -489q1 -29 8 -43.5t23 -19.5t50 -7v-20q-46 3 -127 3q-86 0 -128 -3v20q36 2 52.5 8t22.5 23t6 55v496q0 38 -6 55
t-22.5 23t-52.5 8v20q42 -3 128 -3q80 0 127 3v-20q-36 -2 -52.5 -8t-22.5 -23t-6 -55v-473l345 489q-1 29 -8 43.5t-23 19.5t-50 7v20q47 -3 127 -3q86 0 128 3v-20q-36 -2 -52.5 -8z" />
    </font>
</defs>
</svg>
